找回密码

蓝光电影网

查看: 494|回复: 7

[2160p-WEB] 飞屋环游记/冲天救兵 Up.2009.iNTERNAL.HDR.2160p.WEB.H265-WATCHER 11.70GB

[复制链接]

 成长值: 25360

发表于 2020-2-23 23:54:21 | 显示全部楼层 |阅读模式
飞屋环游记/冲天救兵 Up.2009.iNTERNAL.HDR.2160p.WEB.H265-WATCHER 11.70GB-1.png

译  名 飞屋环游记 / 冲天救兵(港) / 天外奇迹(台) / 飞屋历险记
片  名 Up
年  代 2009
产  地 美国
类  别 剧情 / 喜剧 / 动画 / 冒险
语  言 英语
上映日期 2009-05-13(戛纳电影节) / 2009-05-29(美国) / 2009-08-04(中国大陆)
IMDb评分  8.2/10 from 882864 users
IMDb链接  https://www.imdb.com/title/tt1049413
豆瓣评分 9.0/10 from 893290 users
豆瓣链接 https://movie.douban.com/subject/2129039/
片  长 96分钟
导  演 彼特·道格特 Pete Docter / 鲍勃·彼德森 Bob Peterson
编  剧 彼特·道格特 Pete Docter / 鲍勃·彼德森 Bob Peterson / 汤姆·麦卡锡 Tom McCarthy
主  演 爱德华·阿斯纳 Edward Asner
       克里斯托弗·普卢默 Christopher Plummer
       乔丹·长井 Jordan Nagai
       鲍勃·彼德森 Bob Peterson
       戴尔里·林多 Delroy Lindo
       杰罗姆·兰福特 Jerome Ranft
       约翰·拉岑贝格 John Ratzenberger
       大卫·卡耶 David Kaye
       艾丽·道克特 Elie Docter
       杰里米·利里 Jeremy Leary
       米凯·麦高万 Mickie McGowan
       丹尼·曼恩 Danny Mann
       唐纳德·富利洛夫 Donald Fullilove
       杰斯·哈梅尔 Jess Harnell
       乔什·库雷 Josh Cooley
       彼特·道格特 Pete Docter


标  签 动画 | 梦想 | 美国 | 冒险 | 爱情 | pixar | 温情 | Disney

简  介  

  小男孩卡尔(Carl Fredricksen)怀揣着对于冒险的热爱偶遇假小子艾丽(Ellie),而艾丽把整个屋子当成一艘大飞船游戏居然使他对这个女孩子有些着迷,相同的爱好最终使两个人成为了一生的爱侣。
  他们有一个梦想,那就是有朝一日要去南美洲的“仙境瀑布”探险,但直到艾丽去世,这个梦想也未能实现。终于有一天,曾经专卖气球的老人卡尔居然用五颜六色的气球拽着他的房子飞上了天空,他决定要去实现他们未曾实现的梦想。令卡尔始料不及的是,门廊居然搭上了一个自称是“荒野开拓者”的小男孩小罗(Russell),小罗的喋喋不休让卡尔对这个小胖墩格外讨厌。
  一老一少在飞行中经过了千难万险终于看到了传说中的“仙境瀑布”,在相处过程中卡尔发现小罗其实是个惹人怜爱的孩子。在步行穿越一座森林时,他们遇到了不会飞的大鸟凯文(Kevin)和一只会说话的狗狗逗逗(Dug),让老人惊讶的是他们还遇到了他少年的崇拜偶像——探险家查尔斯·蒙兹(Charles Muntz),而且他发现蒙兹居然是一个为达目的不择手段的坏人。这时,老人离自己的梦想之地只有一步之遥……
  本片荣获第82届奥斯卡最佳动画长片、最佳配乐2项大奖。

获奖情况  

  第82届奥斯卡金像奖(2010)
  最佳影片(提名) 乔纳斯·里维拉
  最佳原创剧本(提名) 汤姆·麦卡锡 / 彼特·道格特
  最佳动画长片 彼特·道格特
  最佳音效剪辑(提名) 迈克尔·席维斯 / Tom Myers
  最佳原创配乐 迈克·吉亚奇诺

  第66届威尼斯电影节(2009)
  未来电影数字奖-特别提及 彼特·道格特

  第67届金球奖(2010)
  电影类 最佳动画长片
  电影类 最佳原创配乐 迈克·吉亚奇诺

  第37届动画安妮奖(2010)
  最佳动画长片
  最佳导演 彼特·道格特
  最佳编剧(提名) 汤姆·麦卡锡 / 彼特·道格特 / 鲍勃·彼德森
  最佳配乐(提名) 迈克·吉亚奇诺
  最佳分镜(提名) 罗纳尔多·德尔·卡门 / 彼得·孙
  最佳动画角色(提名)
  最佳角色设计(提名) Daniel Lopez Munoz / Daniel Lopez Munoz
  最佳动画效果(提名) Eric Froemling

  第75届纽约影评人协会奖(2009)
  最佳动画片(提名)

  第10届美国电影学会奖(2009)
  年度佳片

  第8届华盛顿影评人协会奖(2009)
  最佳影片(提名)
  最佳原创剧本(提名) 彼特·道格特 / 鲍勃·彼德森
  最佳动画片

  第14届圣地亚哥影评人协会奖(2009)
  最佳动画片
  最佳配乐(提名) 迈克·吉亚奇诺

  第22届芝加哥影评人协会奖(2009)
  最佳原创剧本(提名) 鲍勃·彼德森
  最佳动画片
  最佳原创配乐 迈克·吉亚奇诺

  第43届堪萨斯影评人协会奖(2010)
  最佳动画片

  第9届凤凰城影评人协会奖(2009)
  最佳原创剧本 彼特·道格特 / 鲍勃·彼德森
  最佳原创配乐 迈克·吉亚奇诺
  最佳动画片

  第18届东南影评人协会奖(2009)
  最佳影片(提名)
  最佳动画片

  第11届美国青少年选择奖(2009)
  最佳暑期喜剧片
  1. Video
  2. ID                                       : 1
  3. Format                                   : HEVC
  4. Format/Info                              : High Efficiency Video Coding
  5. Format profile                           : Main High@L4@High
  6. Codec ID                                 : V_MPEGH/ISO/HEVC
  7. Duration                                 : 1 h 36 min
  8. Bit rate                                 : 16.6 Mb/s
  9. Width                                    : 3 840 pixels
  10. Height                                   : 2 160 pixels
  11. Display aspect ratio                     : 16:9
  12. Frame rate mode                          : Constant
  13. Frame rate                               : 23.976 (24000/1001) FPS
  14. Color space                              : YUV
  15. Chroma subsampling                       : 4:2:0
  16. Bit depth                                : 10 bits
  17. Bits/(Pixel*Frame)                       : 0.083
  18. Stream size                              : 11.2 GiB (96%)
  19. Default                                  : Yes
  20. Forced                                   : No
  21. Color range                              : Limited
  22. Color primaries                          : BT.2020
  23. Transfer characteristics                 : PQ
  24. Matrix coefficients                      : BT.2020 non-constant

  25. Audio
  26. ID                                       : 2
  27. Format                                   : E-AC-3 JOC
  28. Format/Info                              : Enhanced AC-3 with Joint Object Coding
  29. Commercial name                          : Dolby Digital Plus with Dolby Atmos
  30. Codec ID                                 : A_EAC3
  31. Duration                                 : 1 h 36 min
  32. Bit rate mode                            : Constant
  33. Bit rate                                 : 768 kb/s
  34. Channel(s)                               : 6 channels
  35. Channel layout                           : L R C LFE Ls Rs
  36. Sampling rate                            : 48.0 kHz
  37. Frame rate                               : 31.250 FPS (1536 SPF)
  38. Compression mode                         : Lossy
  39. Stream size                              : 530 MiB (4%)
  40. Title                                    : English
  41. Language                                 : English
  42. Service kind                             : Complete Main
  43. Default                                  : Yes
  44. Forced                                   : No
  45. Complexity index                         : 16
  46. Number of dynamic objects                : 15
  47. Bed channel count                        : 1 channel
  48. Bed channel configuration                : LFE
复制代码

飞屋环游记/冲天救兵 Up.2009.iNTERNAL.HDR.2160p.WEB.H265-WATCHER 11.70GB-2.png 飞屋环游记/冲天救兵 Up.2009.iNTERNAL.HDR.2160p.WEB.H265-WATCHER 11.70GB-3.png 飞屋环游记/冲天救兵 Up.2009.iNTERNAL.HDR.2160p.WEB.H265-WATCHER 11.70GB-1.png






回复

使用道具 举报

发表于 2020-2-24 00:03:09 | 显示全部楼层

楼主太厉害了!楼主,电影应该很好看我觉得蓝光电影网真是个好地方!
回复 支持 反对

使用道具 举报

发表于 2020-2-24 16:51:56 | 显示全部楼层
谢谢楼主分享!
回复 支持 反对

使用道具 举报

 成长值: 715

发表于 2020-2-24 20:40:57 | 显示全部楼层

楼主太厉害了!楼主,电影应该很好看我觉得蓝光电影网真是个好地方!
回复 支持 反对

使用道具 举报

发表于 2020-2-25 13:16:10 | 显示全部楼层

楼主太厉害了!楼主,电影应该很好看我觉得蓝光电影网真是个好地方!
回复 支持 反对

使用道具 举报

发表于 2020-2-25 14:05:24 | 显示全部楼层
楼主发贴辛苦了,谢谢楼主分享!我觉得蓝光电影网是注册对了!
回复 支持 反对

使用道具 举报

 成长值: 715

发表于 2020-2-25 18:01:37 | 显示全部楼层
楼主发贴辛苦了,谢谢楼主分享!我觉得蓝光电影网是注册对了!
回复 支持 反对

使用道具 举报

发表于 2020-2-26 01:26:56 | 显示全部楼层
先谢楼主分享
回复 支持 反对

使用道具 举报

懒得打字嘛,点击右侧快捷回复 【右侧内容,后台自定义】
您需要登录后才可以回帖 登录 | 立即加入

本版积分规则

现在加入蓝光电影网,注册一个账号
上个主题 下个主题 快速回复 收藏帖子 返回列表 客服中心 搜索

手机版|小黑屋| 蓝光电影网 |网站地图 

Copyright © 2015-2019 Comsenz Inc.  Template by 蓝光电影论坛 All Rights Reserved.

Powered by 蓝光电影网 X3.4

特别声明:本站所有资源均由网上收集而来,版权归原影音公司所有,如果侵犯了你的权益,请通知我们,我们会及时删除侵权内容.

快速回复 返回顶部 返回列表