找回密码

蓝光电影网

查看: 357|回复: 7

[10bit.HDR] 星际迷航3:超越星辰/星际迷航13:超越 Star.Trek.Beyond.2016.2160p.BluRay.x265.10bit.HDR.TrueHD.7.1.Atmos-TERMiNAL 20.63GB

[复制链接]

 成长值: 24580

发表于 3 天前 | 显示全部楼层 |阅读模式
星际迷航3:超越星辰/星际迷航13:超越 Star.Trek.Beyond.2016.2160p.BluRay.x265.10bit.HDR.TrueHD.7.1.Atmos-TERMiNAL 20.63GB-1.jpg
◎译  名 星际迷航3:超越星辰 / 星际迷航13:超越 / 星际旅行13:超越太空 / 星空奇遇记13:超域时空 / 星际争霸战13:浩瀚无垠 / 星舰奇航记13 / 星舰迷航记13 / Star Trek XIII / Star Trek 13 / Star Trek Into Oblivion
◎片  名 星际迷航3:超越星辰 Star Trek Beyond
◎年  代 2016
◎国  家 美国
◎类  别 动作 / 科幻 / 冒险
◎语  言 英语
◎上映日期 2016-09-02(中国大陆) / 2016-07-22(美国)
◎IMDb评分  7.1/10 from 182,393 users
◎IMDb链接  http://www.imdb.com/title/tt2660888/
◎豆瓣评分 7.3/10 from 91220 users
◎豆瓣链接 https://movie.douban.com/subject/22939161/
◎片  长 122分钟(中国大陆/美国)
◎导  演 林诣彬
◎主  演 克里斯·派恩 Chris Pine
      扎克瑞·昆图 Zachary Quinto
      佐伊·索尔达娜 Zoe Saldana
      西蒙·佩吉 Simon Pegg
      安东·叶利钦 Anton Yelchin
      伊德里斯·艾尔巴 Idris Elba
      索菲亚·波多拉 Sofia Boutella
      卡尔·厄本 Karl Urban
      索瑞·安达斯鲁 Shohreh Aghdashloo
      约翰·赵 John Cho
      迪普·罗伊 Deep Roy
      莉迪亚·威尔逊 Lydia Wilson
      乔·塔斯利姆 Joe Taslim
      约瑟夫·盖特 Joseph Gatt
      卡洛·安切洛蒂 Carlo Ancelotti
      亚当·迪马克 Adam DiMarco
      梅丽莎·罗斯伯格 Melissa Roxburgh
      阿什丽·艾德纳 Ashley Edner
      贾森·马修·史密斯 Jason Matthew Smith

◎简  介 

  柯克船长(克里斯·派恩 Chris Pine 饰)和企业号的船员们来到了银河系中未知的一个区域,开始完成他们5年的任务——探索新世界,寻找新物种。却在途中滞留异星,遭遇了当地种族追杀,他们必须找到方法离开这个星球。

◎获奖情况 

  第89届奥斯卡金像奖 (2017)
  最佳化妆与发型设计(提名) Joel Harlow /  理查德·阿朗索

  第15届美国视觉效果协会奖 (2017)
  最佳电影模型(提名)

  第22届美国评论家选择电影奖 (2016)
  最佳化妆(提名)
  最佳科幻/恐怖片(提名)

  第3届豆瓣电影年度榜单 (2016)
  9月最受关注电影(提名)

  1. Video
  2. ID                                       : 1
  3. Format                                   : HEVC
  4. Format/Info                              : High Efficiency Video Coding
  5. Format profile                           : Main 10@L5.1@High
  6. Codec ID                                 : V_MPEGH/ISO/HEVC
  7. Duration                                 : 2 h 2 min
  8. Bit rate                                 : 19.0 Mb/s
  9. Width                                    : 3 840 pixels
  10. Height                                   : 1 606 pixels
  11. Display aspect ratio                     : 2.40:1
  12. Frame rate mode                          : Constant
  13. Frame rate                               : 23.976 (24000/1001) FPS
  14. Color space                              : YUV
  15. Chroma subsampling                       : 4:2:0 (Type 2)
  16. Bit depth                                : 10 bits
  17. Bits/(Pixel*Frame)                       : 0.129
  18. Stream size                              : 16.3GB (79%)
  19. Writing library                          : x265 2.5+38-8a121d8cc134:[Windows][GCC 6.2.1][64 bit] 10bit
  20. Encoding settings                        : cpuid=1173503 / frame-threads=4 / numa-pools=20 / wpp / no-pmode / no-pme / no-psnr / no-ssim / log-level=2 / input-csp=1 / input-res=3840x1606 / interlace=0 / total-frames=176037 / level-idc=51 / high-tier=1 / uhd-bd=0 / ref=4 / no-allow-non-conformance / repeat-headers / annexb / aud / hrd / info / hash=0 / no-temporal-layers / no-open-gop / min-keyint=1 / keyint=24 / bframes=4 / b-adapt=2 / b-pyramid / bframe-bias=0 / rc-lookahead=25 / lookahead-slices=4 / scenecut=40 / no-intra-refresh / ctu=64 / min-cu-size=8 / rect / no-amp / max-tu-size=32 / tu-inter-depth=1 / tu-intra-depth=1 / limit-tu=0 / rdoq-level=2 / dynamic-rd=0.00 / no-ssim-rd / signhide / no-tskip / nr-intra=0 / nr-inter=0 / no-constrained-intra / no-strong-intra-smoothing / max-merge=3 / limit-refs=3 / limit-modes / me=3 / subme=3 / merange=57 / temporal-mvp / weightp / no-weightb / no-analyze-src-pics / deblock=-3:-3 / no-sao / no-sao-non-deblock / rd=4 / no-early-skip / rskip / no-fast-intra / no-tskip-fast / no-cu-lossless / no-b-intra / no-splitrd-skip / rdpenalty=0 / psy-rd=2.00 / psy-rdoq=1.00 / no-rd-refine / analysis-reuse-mode=0 / no-lossless / cbqpoffs=0 / crqpoffs=0 / rc=crf / crf=17.0 / qcomp=0.60 / qpstep=4 / stats-write=0 / stats-read=0 / vbv-maxrate=160000 / vbv-bufsize=160000 / vbv-init=0.9 / crf-max=0.0 / crf-min=0.0 / ipratio=1.40 / pbratio=1.30 / aq-mode=1 / aq-strength=1.00 / cutree / zone-count=0 / no-strict-cbr / qg-size=32 / no-rc-grain / qpmax=69 / qpmin=0 / no-const-vbv / sar=1 / overscan=0 / videoformat=5 / range=0 / colorprim=9 / transfer=16 / colormatrix=9 / chromaloc=1 / chromaloc-top=2 / chromaloc-bottom=2 / display-window=0 / master-display=G(13250,34500)B(7500,3000)R(34000,16000)WP(15635,16450)L(10000000,50) / max-cll=0,0 / min-luma=0 / max-luma=1023 / log2-max-poc-lsb=8 / vui-timing-info / vui-hrd-info / slices=1 / opt-qp-pps / opt-ref-list-length-pps / no-multi-pass-opt-rps / scenecut-bias=0.05 / no-opt-cu-delta-qp / no-aq-motion / hdr / hdr-opt / no-dhdr10-opt / analysis-reuse-level=5 / scale-factor=0 / refine-intra=0 / refine-inter=0 / refine-mv=0 / no-limit-sao / ctu-info=0 / no-lowpass-dct
  21. Default                                  : Yes
  22. Forced                                   : No
  23. Color range                              : Limited
  24. Color primaries                          : BT.2020
  25. Transfer characteristics                 : PQ
  26. Matrix coefficients                      : BT.2020 non-constant
  27. Mastering display color primaries        : R: x=0.680000 y=0.320000, G: x=0.265000 y=0.690000, B: x=0.150000 y=0.060000, White point: x=0.312700 y=0.329000
  28. Mastering display luminance              : min: 0.0050 cd/m2, max: 1000.0000 cd/m2

  29. Audio #1
  30. ID                                       : 2
  31. Format                                   : TrueHD
  32. Format profile                           : TrueHD+Atmos / TrueHD
  33. Codec ID                                 : A_TRUEHD
  34. Duration                                 : 2 h 2 min
  35. Bit rate mode                            : Variable
  36. Bit rate                                 : 4 367 kb/s
  37. Maximum bit rate                         : 7 641 kb/s
  38. Channel(s)                               : Object Based / 8 channels
  39. Channel positions                        : Object Based / Front: L C R, Side: L R, Back: L R, LFE
  40. Sampling rate                            :  / 48.0 kHz
  41. Frame rate                               : 1 200.000 FPS (40 SPF)
  42. Compression mode                         : Lossless
  43. Stream size                              : 3.73GB (18%)
  44. Language                                 : English
  45. Default                                  : Yes
  46. Forced                                   : No

  47. Audio #2
  48. ID                                       : 3
  49. Format                                   : AC-3
  50. Format/Info                              : Audio Coding 3
  51. Codec ID                                 : A_AC3
  52. Duration                                 : 2 h 2 min
  53. Bit rate mode                            : Constant
  54. Bit rate                                 : 640 kb/s
  55. Channel(s)                               : 6 channels
  56. Channel positions                        : Front: L C R, Side: L R, LFE
  57. Sampling rate                            : 48.0 kHz
  58. Frame rate                               : 31.250 FPS (1536 SPF)
  59. Bit depth                                : 16 bits
  60. Compression mode                         : Lossy
  61. Stream size                              : 560 MiB (3%)
  62. Language                                 : English
  63. Service kind                             : Complete Main
  64. Default                                  : No
  65. Forced                                   : No

  66. Text #1
  67. ID                                       : 4
  68. Format                                   : PGS
  69. Muxing mode                              : zlib
  70. Codec ID                                 : S_HDMV/PGS
  71. Codec ID/Info                            : Picture based subtitle format used on BDs/HD-DVDs
  72. Duration                                 : 1 h 51 min
  73. Bit rate                                 : 31.8 kb/s
  74. Count of elements                        : 2532
  75. Stream size                              : 25.4 MiB (0%)
  76. Language                                 : English
  77. Default                                  : No
  78. Forced                                   : No

  79. Text #2
  80. ID                                       : 5
  81. Format                                   : PGS
  82. Muxing mode                              : zlib
  83. Codec ID                                 : S_HDMV/PGS
  84. Codec ID/Info                            : Picture based subtitle format used on BDs/HD-DVDs
  85. Duration                                 : 1 h 51 min
  86. Bit rate                                 : 36.9 kb/s
  87. Count of elements                        : 3054
  88. Stream size                              : 29.5 MiB (0%)
  89. Title                                    : SDH
  90. Language                                 : English
  91. Default                                  : No
  92. Forced                                   : No

  93. Text #3
  94. ID                                       : 6
  95. Format                                   : PGS
  96. Muxing mode                              : zlib
  97. Codec ID                                 : S_HDMV/PGS
  98. Codec ID/Info                            : Picture based subtitle format used on BDs/HD-DVDs
  99. Duration                                 : 1 h 54 min
  100. Bit rate                                 : 31.1 kb/s
  101. Count of elements                        : 2910
  102. Stream size                              : 25.5 MiB (0%)
  103. Language                                 : French
  104. Default                                  : No
  105. Forced                                   : No

  106. Text #4
  107. ID                                       : 7
  108. Format                                   : PGS
  109. Muxing mode                              : zlib
  110. Codec ID                                 : S_HDMV/PGS
  111. Codec ID/Info                            : Picture based subtitle format used on BDs/HD-DVDs
  112. Duration                                 : 1 h 54 min
  113. Bit rate                                 : 29.2 kb/s
  114. Count of elements                        : 2342
  115. Stream size                              : 23.9 MiB (0%)
  116. Language                                 : Spanish
  117. Default                                  : No
  118. Forced                                   : No

  119. Text #5
  120. ID                                       : 8
  121. Format                                   : PGS
  122. Muxing mode                              : zlib
  123. Codec ID                                 : S_HDMV/PGS
  124. Codec ID/Info                            : Picture based subtitle format used on BDs/HD-DVDs
  125. Duration                                 : 1 h 54 min
  126. Bit rate                                 : 26.0 kb/s
  127. Count of elements                        : 2352
  128. Stream size                              : 21.3 MiB (0%)
  129. Language                                 : Danish
  130. Default                                  : No
  131. Forced                                   : No

  132. Menu
  133. 00:00:00.000                             : en:00:00:00.000
  134. 00:08:26.548                             : en:00:08:26.548
  135. 00:16:11.637                             : en:00:16:11.637
  136. 00:32:38.290                             : en:00:32:38.290
  137. 00:42:16.367                             : en:00:42:16.367
  138. 00:52:22.264                             : en:00:52:22.264
  139. 00:59:50.629                             : en:00:59:50.629
  140. 01:12:05.530                             : en:01:12:05.530
  141. 01:22:34.449                             : en:01:22:34.449
  142. 01:33:00.950                             : en:01:33:00.950
  143. 01:40:33.319                             : en:01:40:33.319
  144. 01:47:38.994                             : en:01:47:38.994
  145. 01:52:32.663                             : en:01:52:32.663
  146. 01:55:41.351                             : en:01:55:41.351
复制代码


星际迷航3:超越星辰/星际迷航13:超越 Star.Trek.Beyond.2016.2160p.BluRay.x265.10bit.HDR.TrueHD.7.1.Atmos-TERMiNAL 20.63GB-2.png 星际迷航3:超越星辰/星际迷航13:超越 Star.Trek.Beyond.2016.2160p.BluRay.x265.10bit.HDR.TrueHD.7.1.Atmos-TERMiNAL 20.63GB-3.png 星际迷航3:超越星辰/星际迷航13:超越 Star.Trek.Beyond.2016.2160p.BluRay.x265.10bit.HDR.TrueHD.7.1.Atmos-TERMiNAL 20.63GB-4.png 星际迷航3:超越星辰/星际迷航13:超越 Star.Trek.Beyond.2016.2160p.BluRay.x265.10bit.HDR.TrueHD.7.1.Atmos-TERMiNAL 20.63GB-5.png 星际迷航3:超越星辰/星际迷航13:超越 Star.Trek.Beyond.2016.2160p.BluRay.x265.10bit.HDR.TrueHD.7.1.Atmos-TERMiNAL 20.63GB-6.png 星际迷航3:超越星辰/星际迷航13:超越 Star.Trek.Beyond.2016.2160p.BluRay.x265.10bit.HDR.TrueHD.7.1.Atmos-TERMiNAL 20.63GB-7.png





回复

使用道具 举报

发表于 前天 03:26 | 显示全部楼层
感谢分享。。。。
回复

使用道具 举报

发表于 前天 08:27 | 显示全部楼层
谢谢楼主!!!!
回复

使用道具 举报

发表于 前天 08:28 | 显示全部楼层
谢谢楼主!!!!
回复

使用道具 举报

发表于 前天 09:43 | 显示全部楼层

这个帖子不回对不起自己!我想我是一天也不能离开蓝光电影网
回复 支持 反对

使用道具 举报

 成长值: 30

发表于 前天 12:27 | 显示全部楼层
请问你们用什么下载的呢,我用比特精灵下载,没有资源
回复 支持 反对

使用道具 举报

发表于 前天 16:17 | 显示全部楼层

楼主太厉害了!楼主,电影应该很好看我觉得蓝光电影网真是个好地方!
回复 支持 反对

使用道具 举报

发表于 前天 17:13 | 显示全部楼层
谢谢分享··
回复 支持 反对

使用道具 举报

懒得打字嘛,点击右侧快捷回复 【右侧内容,后台自定义】
您需要登录后才可以回帖 登录 | 立即加入

本版积分规则

现在加入蓝光电影网,注册一个账号
上个主题 下个主题 快速回复 收藏帖子 返回列表 客服中心 搜索

手机版|小黑屋| 蓝光电影网 |网站地图 

Copyright © 2015-2019 Comsenz Inc.  Template by 蓝光电影论坛 All Rights Reserved.

Powered by 蓝光电影网 X3.4

特别声明:本站所有资源均由网上收集而来,版权归原影音公司所有,如果侵犯了你的权益,请通知我们,我们会及时删除侵权内容.

快速回复 返回顶部 返回列表