找回密码

蓝光电影网

查看: 708|回复: 10

[10bit.SDR] 星际迷航3:超越星辰 2016.2160p.BluRay.x265.10bit.SDR.DTS-SWTYBLZ 36GB

[复制链接]

 成长值: 27925

发表于 2020-2-14 23:45:26 | 显示全部楼层 |阅读模式
星际迷航3:超越星辰 2016.2160p.BluRay.x265.10bit.SDR.DTS-SWTYBLZ 36GB-1.jpg

译  名 星际迷航3:超越星辰/星际迷航13:超越/星际旅行13:超越太空/星空奇遇记13:超域时空(港)/星际争霸战13:浩瀚无垠(台)/星舰奇航记13/星舰迷航记13

片  名 Star Trek Beyond

年  代 2016

产  地 美国

类  别 动作/科幻/冒险

语  言 英语

上映日期 2016-07-22(美国)/2016-09-02(中国大陆)

IMDb评分  7.1/10 from 182,318 users

IMDb链接  http://www.imdb.com/title/tt2660888/

豆瓣评分 7.3/10 from 91,197 users

豆瓣链接 https://movie.douban.com/subject/22939161/

片  长 122分钟(中国大陆/美国)

导  演 林诣彬 Justin Lin

主  演 克里斯·派恩 Chris Pine

      扎克瑞·昆图 Zachary Quinto

      佐伊·索尔达娜 Zoe Saldana

      西蒙·佩吉 Simon Pegg

      安东·叶利钦 Anton Yelchin

      伊德里斯·艾尔巴 Idris Elba

      索菲亚·波多拉 Sofia Boutella

      卡尔·厄本 Karl Urban

      索瑞·安达斯鲁 Shohreh Aghdashloo

      约翰·赵 John Cho

      迪普·罗伊 Deep Roy

      莉迪亚·威尔逊 Lydia Wilson

      乔·塔斯利姆 Joe Taslim

      约瑟夫·盖特 Joseph Gatt

      卡洛·安切洛蒂 Carlo Ancelotti

      亚当·迪马克 Adam DiMarco

      梅丽莎·罗斯伯格 Melissa Roxburgh

      阿什丽·艾德纳 Ashley Edner

      贾森·马修·史密斯 Jason Matthew Smith




简  介




  柯克船长(克里斯·派恩 Chris Pine 饰)和企业号的船员们来到了银河系中未知的一个区域,开始完成他们5年的任务——探索新世界,寻找新物种。却在途中滞留异星,遭遇了当地种族追杀,他们必须找到方法离开这个星球。




获奖情况




  第89届奥斯卡金像奖  (2017)

  最佳化妆与发型设计(提名) Joel Harlow / 理查德·阿朗索




  第15届美国视觉效果协会奖  (2017)

  最佳电影模型(提名)




  第22届美国评论家选择电影奖  (2016)

  最佳化妆(提名)

  最佳科幻/恐怖片(提名)




  第3届豆瓣电影年度榜单  (2016)

  9月最受关注电影(提名)





  1. Video
  2. ID                                       : 1
  3. Format                                   : HEVC
  4. Format/Info                              : High Efficiency Video Coding
  5. Format profile                           : Main High@L4@High
  6. Codec ID                                 : V_MPEGH/ISO/HEVC
  7. Duration                                 : 2 h 2 min
  8. Bit rate                                 : 33.8 Mb/s
  9. Width                                    : 3 840 pixels
  10. Height                                   : 1 606 pixels
  11. Display aspect ratio                     : 2.40:1
  12. Frame rate mode                          : Constant
  13. Frame rate                               : 23.976 (24000/1001) FPS
  14. Color space                              : YUV
  15. Chroma subsampling                       : 4:2:0
  16. Bit depth                                : 10 bits
  17. Bits/(Pixel*Frame)                       : 0.229
  18. Stream size                              : 28.9 GiB (79%)
  19. Title                                    : Star.Trek.Beyond.2016.2160p.BluRay.x265.10bit.SDR.DTS-HD.MA.TrueHD.7.1.Atmos-SWTYBLZ
  20. Writing library                          : x265 2.5b4a5bcfe29c7:[Windows][GCC 4.9.3][64 bit] 10bit
  21. Encoding settings                        : cpuid=1173503 / frame-threads=16 / numa-pools=24,24,24,24 / wpp / no-pmode / no-pme / no-psnr / no-ssim / log-level=2 / input-csp=1 / input-res=3840x1606 / interlace=0 / total-frames=0 / level-idc=51 / high-tier=1 / uhd-bd=0 / ref=3 / no-allow-non-conformance / repeat-headers / annexb / aud / hrd / info / hash=0 / no-temporal-layers / no-open-gop / min-keyint=1 / keyint=24 / bframes=4 / b-adapt=2 / b-pyramid / bframe-bias=0 / rc-lookahead=25 / lookahead-slices=4 / scenecut=40 / no-intra-refresh / ctu=64 / min-cu-size=8 / no-rect / no-amp / max-tu-size=32 / tu-inter-depth=1 / tu-intra-depth=1 / limit-tu=0 / rdoq-level=0 / dynamic-rd=0.00 / no-ssim-rd / signhide / no-tskip / nr-intra=0 / nr-inter=0 / no-constrained-intra / strong-intra-smoothing / max-merge=2 / limit-refs=3 / no-limit-modes / me=1 / subme=2 / merange=57 / temporal-mvp / weightp / no-weightb / no-analyze-src-pics / deblock=0:0 / no-sao / no-sao-non-deblock / rd=3 / no-early-skip / rskip / no-fast-intra / no-tskip-fast / no-cu-lossless / no-b-intra / rdpenalty=0 / psy-rd=2.00 / psy-rdoq=0.00 / no-rd-refine / analysis-reuse-mode=0 / no-lossless / cbqpoffs=0 / crqpoffs=0 / rc=crf / crf=16.0 / qcomp=0.60 / qpstep=4 / stats-write=0 / stats-read=0 / vbv-maxrate=160000 / vbv-bufsize=160000 / vbv-init=0.9 / crf-max=0.0 / crf-min=0.0 / ipratio=1.40 / pbratio=1.30 / aq-mode=1 / aq-strength=1.00 / cutree / zone-count=0 / no-strict-cbr / qg-size=32 / no-rc-grain / qpmax=69 / qpmin=0 / no-const-vbv / sar=1 / overscan=0 / videoformat=5 / range=0 / colorprim=2 / transfer=2 / colormatrix=2 / chromaloc=0 / display-window=0 / max-cll=0,0 / min-luma=0 / max-luma=1023 / log2-max-poc-lsb=8 / vui-timing-info / vui-hrd-info / slices=1 / opt-qp-pps / opt-ref-list-length-pps / no-multi-pass-opt-rps / scenecut-bias=0.05 / no-opt-cu-delta-qp / no-aq-motion / no-hdr / no-hdr-opt / no-dhdr10-opt / analysis-reuse-level=5 / scale-factor=0 / refine-intra=0 / refine-inter=0 / refine-mv=0 / no-limit-sao / ctu-info=0
  22. Language                                 : English
  23. Default                                  : Yes
  24. Forced                                   : No

  25. Audio #1
  26. ID                                       : 2
  27. Format                                   : TrueHD
  28. Format profile                           : TrueHD+Atmos / TrueHD
  29. Codec ID                                 : A_TRUEHD
  30. Duration                                 : 2 h 2 min
  31. Bit rate mode                            : Variable
  32. Bit rate                                 : 4 367 kb/s
  33. Maximum bit rate                         : 7 641 kb/s
  34. Channel(s)                               : Object Based / 8 channels
  35. Channel positions                        : Object Based / Front: L C R, Side: L R, Back: L R, LFE
  36. Sampling rate                            :  / 48.0 kHz
  37. Frame rate                               : 1 200.000 FPS (40 SPF)
  38. Compression mode                         : Lossless
  39. Delay relative to video                  : 32 ms
  40. Stream size                              : 3.73 GiB (10%)
  41. Title                                    : Star.Trek.Beyond.2016.2160p.BluRay.x265.10bit.SDR.DTS-HD.MA.TrueHD.7.1.Atmos-SWTYBLZ
  42. Language                                 : English
  43. Default                                  : Yes
  44. Forced                                   : No

  45. Audio #2
  46. ID                                       : 3
  47. Format                                   : DTS
  48. Format/Info                              : Digital Theater Systems
  49. Format profile                           : MA / Core
  50. Codec ID                                 : A_DTS
  51. Duration                                 : 2 h 2 min
  52. Bit rate mode                            : Variable / Constant
  53. Bit rate                                 : 3 840 kb/s / 1 509 kb/s
  54. Channel(s)                               : 8 channels / 6 channels
  55. Channel positions                        : Front: L C R, Side: L R, Back: L R, LFE / Front: L C R, Side: L R, LFE
  56. Sampling rate                            : 48.0 kHz
  57. Frame rate                               : 93.750 FPS (512 SPF)
  58. Bit depth                                : 24 bits
  59. Compression mode                         : Lossless / Lossy
  60. Stream size                              : 3.23 GiB (9%)
  61. Title                                    : Star.Trek.Beyond.2016.2160p.BluRay.x265.10bit.SDR.DTS-HD.MA.TrueHD.7.1.Atmos-SWTYBLZ
  62. Language                                 : English
  63. Default                                  : No
  64. Forced                                   : No

  65. Audio #3
  66. ID                                       : 4
  67. Format                                   : AC-3
  68. Format/Info                              : Audio Coding 3
  69. Codec ID                                 : A_AC3
  70. Duration                                 : 2 h 2 min
  71. Bit rate mode                            : Constant
  72. Bit rate                                 : 640 kb/s
  73. Channel(s)                               : 6 channels
  74. Channel positions                        : Front: L C R, Side: L R, LFE
  75. Sampling rate                            : 48.0 kHz
  76. Frame rate                               : 31.250 FPS (1536 SPF)
  77. Bit depth                                : 16 bits
  78. Compression mode                         : Lossy
  79. Delay relative to video                  : 31 ms
  80. Stream size                              : 560 MiB (1%)
  81. Title                                    : Star.Trek.Beyond.2016.2160p.BluRay.x265.10bit.SDR.DTS-HD.MA.TrueHD.7.1.Atmos-SWTYBLZ
  82. Language                                 : English
  83. Service kind                             : Complete Main
  84. Default                                  : No
  85. Forced                                   : No

  86. Text #1
  87. ID                                       : 5
  88. Format                                   : UTF-8
  89. Codec ID                                 : S_TEXT/UTF8
  90. Codec ID/Info                            : UTF-8 Plain Text
  91. Duration                                 : 1 h 51 min
  92. Bit rate                                 : 51 b/s
  93. Count of elements                        : 1300
  94. Stream size                              : 42.5 KiB (0%)
  95. Title                                    : English-SRT
  96. Language                                 : English
  97. Default                                  : Yes
  98. Forced                                   : No

  99. Text #2
  100. ID                                       : 6
  101. Format                                   : PGS
  102. Muxing mode                              : zlib
  103. Codec ID                                 : S_HDMV/PGS
  104. Codec ID/Info                            : Picture based subtitle format used on BDs/HD-DVDs
  105. Duration                                 : 1 h 51 min
  106. Bit rate                                 : 31.8 kb/s
  107. Count of elements                        : 2532
  108. Stream size                              : 25.4 MiB (0%)
  109. Title                                    : English-PGS
  110. Language                                 : English
  111. Default                                  : No
  112. Forced                                   : No

  113. Text #3
  114. ID                                       : 7
  115. Format                                   : PGS
  116. Muxing mode                              : zlib
  117. Codec ID                                 : S_HDMV/PGS
  118. Codec ID/Info                            : Picture based subtitle format used on BDs/HD-DVDs
  119. Duration                                 : 2 h 0 min
  120. Bit rate                                 : 24.3 kb/s
  121. Count of elements                        : 1852
  122. Stream size                              : 21.0 MiB (0%)
  123. Title                                    : Danish-PGS
  124. Language                                 : Danish
  125. Default                                  : No
  126. Forced                                   : No

  127. Text #4
  128. ID                                       : 8
  129. Format                                   : PGS
  130. Muxing mode                              : zlib
  131. Codec ID                                 : S_HDMV/PGS
  132. Codec ID/Info                            : Picture based subtitle format used on BDs/HD-DVDs
  133. Duration                                 : 2 h 0 min
  134. Bit rate                                 : 31.9 kb/s
  135. Count of elements                        : 2600
  136. Stream size                              : 27.6 MiB (0%)
  137. Title                                    : German-PGS
  138. Language                                 : German
  139. Default                                  : No
  140. Forced                                   : No

  141. Text #5
  142. ID                                       : 9
  143. Format                                   : PGS
  144. Muxing mode                              : zlib
  145. Codec ID                                 : S_HDMV/PGS
  146. Codec ID/Info                            : Picture based subtitle format used on BDs/HD-DVDs
  147. Duration                                 : 2 h 0 min
  148. Bit rate                                 : 29.0 kb/s
  149. Count of elements                        : 2452
  150. Stream size                              : 25.0 MiB (0%)
  151. Title                                    : Spanish-PGS
  152. Language                                 : Spanish
  153. Default                                  : No
  154. Forced                                   : No

  155. Text #6
  156. ID                                       : 10
  157. Format                                   : PGS
  158. Muxing mode                              : zlib
  159. Codec ID                                 : S_HDMV/PGS
  160. Codec ID/Info                            : Picture based subtitle format used on BDs/HD-DVDs
  161. Duration                                 : 2 h 0 min
  162. Bit rate                                 : 24.4 kb/s
  163. Count of elements                        : 2420
  164. Stream size                              : 21.1 MiB (0%)
  165. Title                                    : French-PGS
  166. Language                                 : French
  167. Default                                  : No
  168. Forced                                   : No

  169. Text #7
  170. ID                                       : 11
  171. Format                                   : PGS
  172. Muxing mode                              : zlib
  173. Codec ID                                 : S_HDMV/PGS
  174. Codec ID/Info                            : Picture based subtitle format used on BDs/HD-DVDs
  175. Duration                                 : 2 h 0 min
  176. Bit rate                                 : 27.9 kb/s
  177. Count of elements                        : 2344
  178. Stream size                              : 24.1 MiB (0%)
  179. Title                                    : Italian-PGS
  180. Language                                 : Italian
  181. Default                                  : No
  182. Forced                                   : No

  183. Text #8
  184. ID                                       : 12
  185. Format                                   : PGS
  186. Muxing mode                              : zlib
  187. Codec ID                                 : S_HDMV/PGS
  188. Codec ID/Info                            : Picture based subtitle format used on BDs/HD-DVDs
  189. Duration                                 : 2 h 0 min
  190. Bit rate                                 : 25.5 kb/s
  191. Count of elements                        : 2220
  192. Stream size                              : 22.1 MiB (0%)
  193. Title                                    : Dutch-PGS
  194. Language                                 : Dutch
  195. Default                                  : No
  196. Forced                                   : No

  197. Text #9
  198. ID                                       : 13
  199. Format                                   : PGS
  200. Muxing mode                              : zlib
  201. Codec ID                                 : S_HDMV/PGS
  202. Codec ID/Info                            : Picture based subtitle format used on BDs/HD-DVDs
  203. Duration                                 : 2 h 0 min
  204. Bit rate                                 : 26.4 kb/s
  205. Count of elements                        : 2350
  206. Stream size                              : 22.8 MiB (0%)
  207. Title                                    : Norwegian-PGS
  208. Language                                 : Norwegian
  209. Default                                  : No
  210. Forced                                   : No

  211. Text #10
  212. ID                                       : 14
  213. Format                                   : PGS
  214. Muxing mode                              : zlib
  215. Codec ID                                 : S_HDMV/PGS
  216. Codec ID/Info                            : Picture based subtitle format used on BDs/HD-DVDs
  217. Duration                                 : 2 h 0 min
  218. Bit rate                                 : 27.4 kb/s
  219. Count of elements                        : 2594
  220. Stream size                              : 23.7 MiB (0%)
  221. Title                                    : Finnish-PGS
  222. Language                                 : Finnish
  223. Default                                  : No
  224. Forced                                   : No

  225. Text #11
  226. ID                                       : 15
  227. Format                                   : PGS
  228. Muxing mode                              : zlib
  229. Codec ID                                 : S_HDMV/PGS
  230. Codec ID/Info                            : Picture based subtitle format used on BDs/HD-DVDs
  231. Duration                                 : 2 h 0 min
  232. Bit rate                                 : 26.6 kb/s
  233. Count of elements                        : 2352
  234. Stream size                              : 23.0 MiB (0%)
  235. Title                                    : Swedish-PGS
  236. Language                                 : Swedish
  237. Default                                  : No
  238. Forced                                   : No

  239. Text #12
  240. ID                                       : 16
  241. Format                                   : PGS
  242. Muxing mode                              : zlib
  243. Codec ID                                 : S_HDMV/PGS
  244. Codec ID/Info                            : Picture based subtitle format used on BDs/HD-DVDs
  245. Duration                                 : 1 h 51 min
  246. Bit rate                                 : 36.9 kb/s
  247. Count of elements                        : 3054
  248. Stream size                              : 29.5 MiB (0%)
  249. Title                                    : English-FORCED-PGS
  250. Language                                 : English
  251. Default                                  : No
  252. Forced                                   : No

  253. Menu
  254. 00:00:00.000                             : en:Chapter 1
  255. 00:08:26.547                             : en:Chapter 2
  256. 00:16:11.637                             : en:Chapter 3
  257. 00:32:38.289                             : en:Chapter 4
  258. 00:42:16.367                             : en:Chapter 5
  259. 00:52:22.264                             : en:Chapter 6
  260. 00:59:50.628                             : en:Chapter 7
  261. 01:12:05.529                             : en:Chapter 8
  262. 01:22:34.449                             : en:Chapter 9
  263. 01:33:00.950                             : en:Chapter 10
  264. 01:40:33.318                             : en:Chapter 11
  265. 01:47:38.994                             : en:Chapter 12
  266. 01:52:32.662                             : en:Chapter 13
  267. 01:55:41.351                             : en:Chapter 14<p></p>
复制代码






星际迷航3:超越星辰 2016.2160p.BluRay.x265.10bit.SDR.DTS-SWTYBLZ 36GB-2.jpg 星际迷航3:超越星辰 2016.2160p.BluRay.x265.10bit.SDR.DTS-SWTYBLZ 36GB-3.jpg
星际迷航3:超越星辰 2016.2160p.BluRay.x265.10bit.SDR.DTS-SWTYBLZ 36GB-4.jpg 星际迷航3:超越星辰 2016.2160p.BluRay.x265.10bit.SDR.DTS-SWTYBLZ 36GB-5.jpg




回复

使用道具 举报

发表于 2020-2-15 10:25:20 来自手机 | 显示全部楼层
试试就试试感谢楼主分享
回复 支持 反对

使用道具 举报

发表于 2020-2-15 15:10:28 | 显示全部楼层
谢谢分享好片
回复 支持 反对

使用道具 举报

发表于 2020-2-17 09:42:24 | 显示全部楼层
回顾经典,重温旧梦。
感谢分享!
回复 支持 反对

使用道具 举报

发表于 2020-2-17 18:28:05 | 显示全部楼层
楼主发贴辛苦了,谢谢楼主分享!我觉得蓝光电影网是注册对了!
回复 支持 反对

使用道具 举报

发表于 2020-2-17 18:57:41 | 显示全部楼层
星际迷航3:超越星辰
回复 支持 反对

使用道具 举报

 成长值: 3400

发表于 2020-2-19 11:22:47 | 显示全部楼层

这东西我收了!谢谢楼主!蓝光电影网真好!
回复 支持 反对

使用道具 举报

发表于 2020-2-23 13:30:37 | 显示全部楼层
真是给力!下载观看!
回复 支持 反对

使用道具 举报

已抛锚 成长值: 310

发表于 2020-2-23 20:39:15 | 显示全部楼层
楼主发贴辛苦了,谢谢楼主分享!
回复 支持 反对

使用道具 举报

发表于 2020-2-24 12:56:52 | 显示全部楼层
星际迷航3:超越星辰
回复 支持 反对

使用道具 举报

懒得打字嘛,点击右侧快捷回复 【右侧内容,后台自定义】
您需要登录后才可以回帖 登录 | 立即加入

本版积分规则

现在加入蓝光电影网,注册一个账号
上个主题 下个主题 快速回复 收藏帖子 返回列表 客服中心 搜索

手机版|小黑屋| 蓝光电影网 |网站地图 

Copyright © 2015-2019 Comsenz Inc.  Template by 蓝光电影论坛 All Rights Reserved.

Powered by 蓝光电影网 X3.4

特别声明:本站所有资源均由网上收集而来,版权归原影音公司所有,如果侵犯了你的权益,请通知我们,我们会及时删除侵权内容.

快速回复 返回顶部 返回列表