找回密码

蓝光电影网

查看: 1224|回复: 37

[8bit.SDR] 乔乔的异想世界/JOJO兔 Jojo.Rabbit.2019.2160p.BluRay.x264.8bit.SDR.DTS-HD.MA.5.1-SWTYBLZ 33.80GB

[复制链接]

 成长值: 24580

发表于 7 天前 | 显示全部楼层 |阅读模式
乔乔的异想世界/JOJO兔 Jojo.Rabbit.2019.2160p.BluRay.x264.8bit.SDR.DTS-HD.MA.5.1-SWTYBLZ 33.80GB-1.png

译  名 乔乔的异想世界 / JOJO兔 / 乔乔兔 / 兔嘲男孩(台) / 少年乔乔的异想世界 / 陽光兔仔兵 (港)
片  名 Jojo Rabbit
年  代 2019
产  地 美国 / 捷克 / 新西兰
类  别 剧情 / 喜剧 / 战争
语  言 英语 / 德语
上映日期 2019-09-08(多伦多电影节) / 2019-11-08(美国) / 2020(中国大陆)
IMDb评分  8.0/10 from 88626 users
IMDb链接  https://www.imdb.com/title/tt2584384
豆瓣评分 8.4/10 from 44333 users
豆瓣链接 https://movie.douban.com/subject/30170546/
片  长 108分钟
导  演 塔伊加·维迪提 Taika Waititi
编  剧 塔伊加·维迪提 Taika Waititi / 克里斯汀·勒南斯 Christine Leunens
主  演 罗曼·格里芬·戴维斯 Roman Griffin Davis
       托马辛·麦肯齐 Thomasin McKenzie
       斯嘉丽·约翰逊 Scarlett Johansson
       塔伊加·维迪提 Taika Waititi
       山姆·洛克威尔 Sam Rockwell
       蕾蓓尔·威尔森 Rebel Wilson
       阿尔菲·艾伦 Alfie Allen
       斯戴芬·莫昌特 Stephen Merchant
       阿奇·耶茨 Archie Yates
       卢克·布兰登·菲尔德 Luke Brandon Field
       山姆·海加斯 Sam Haygarth
       史丹斯拉夫·卡拉斯 Stanislav Callas
       乔·温特劳布 Joe Weintraub
       布莱恩·卡斯佩 Brian Caspe
       加布里埃尔·安德鲁斯 Gabriel Andrews
       罗伯特·伊斯特 Robert East
       比利·雷纳 Billy Rayner
       克里斯蒂安·豪林斯 Christian Howlings
       吉尔比·格里芬·戴维斯 Gilby Griffin Davis
       哈迪·格里芬·戴维斯 Hardy Griffin Davis
       柯蒂斯·马修 Curtis Matthew
       贝萨尼·亚当斯 Bethany Adams
       朱迪思·乔治 Judith Georgi
       维多利亚·霍根 Victoria Hogan


标  签 二战 | 喜剧 | 战争 | 美国 | 德国 | 剧情 | 奇幻 | 2019

简  介  

  二战时期,男孩乔乔(戴维斯)和母亲(斯嘉丽)生活在纳粹德国统治下,他不知道母亲在家中藏着一个犹太女孩(麦肯齐),而母亲秘密为抵抗军工作。乔乔渴望加入希特勒青年团,他脑内出了一个颠覆版的希特勒,这个希特勒有魅力、傻傻的、天真可爱,是他的朋友,帮助他应付生活中的困境。

获奖情况  

  第92届奥斯卡金像奖(2020)
  最佳影片(提名) 塔伊加·维迪提 / Carthew Neal
  最佳女配角(提名) 斯嘉丽·约翰逊
  最佳改编剧本(提名) 塔伊加·维迪提
  最佳剪辑(提名) 汤姆·伊格尔斯
  最佳艺术指导(提名)
  最佳服装设计(提名) 玛耶斯·C·鲁贝奥

  第77届金球奖(2020)
  电影类 最佳音乐/喜剧片(提名)
  电影类 音乐/喜剧片最佳男主角(提名) 罗曼·格里芬·戴维斯

  第73届英国电影学院奖(2020)
  电影奖 最佳女配角(提名) 斯嘉丽·约翰逊
  电影奖 最佳改编剧本 塔伊加·维迪提
  电影奖 最佳剪辑(提名) 汤姆·伊格尔斯
  电影奖 最佳服装设计(提名) 玛耶斯·C·鲁贝奥
  电影奖 最佳艺术指导(提名) 拉·文森特 / Nora Sopková
  电影奖 最佳原创配乐(提名) 迈克·吉亚奇诺

  第44届多伦多国际电影节(2019)
  观众选择奖 塔伊加·维迪提

  第72届美国导演工会奖(2020)
  最佳电影导演(提名) 塔伊加·维迪提

  第26届美国演员工会奖(2020)
  电影奖 最佳女配角(提名) 斯嘉丽·约翰逊
  电影奖 最佳群戏(提名)

  第72届美国编剧工会奖(2020)
  电影奖 最佳改编剧本 塔伊加·维迪提

  第31届美国制片人工会奖(2020)
  最佳电影制片人奖(提名)

  第70届美国剪辑工会奖(2020)
  音乐/喜剧片最佳剪辑 汤姆·伊格尔斯

  第24届美国艺术指导工会奖(2020)
  电影奖 最佳历史电影艺术指导(提名) 拉·文森特

  第22届美国服装设计工会奖(2020)
  年代电影最佳服装设计 玛耶斯·C·鲁贝奥

  第67届美国音效剪辑协会奖(2020)
  金卷轴奖 最佳电影对白剪辑(提名)

  第91届美国国家评论协会奖(2019)
  年度佳片

  第25届美国评论家选择电影奖(2020)
  最佳影片(提名)
  最佳女配角(提名) 斯嘉丽·约翰逊
  最佳青少年演员 罗曼·格里芬·戴维斯
  最佳青少年演员(提名) 托马辛·麦肯齐 / 阿奇·耶茨
  最佳喜剧片(提名)
  最佳改编剧本(提名) 塔伊加·维迪提

  第20届美国电影学会奖(2019)
  年度佳片

  第24届金卫星奖(2020)
  电影部门 喜剧/音乐片最佳男主角(提名) 塔伊加·维迪提
  电影部门 最佳改编剧本(提名) 塔伊加·维迪提

  第23届好莱坞电影奖(2019)
  年度摄影奖 小米哈伊·马拉米尔
  年度艺术指导 拉·文森特

  第18届华盛顿影评人协会奖(2019)
  最佳青少年表演 罗曼·格里芬·戴维斯

  第40届伦敦影评人协会奖(2020)
  年度英国/爱尔兰小演员(提名) 罗曼·格里芬·戴维斯

  第32届芝加哥影评人协会奖(2019)
  最佳改编剧本(提名) 塔伊加·维迪提
  最具潜力演员(提名) 罗曼·格里芬·戴维斯

  第23届美国在线影评人协会奖(2020)
  最佳影片(提名)
  最佳改编剧本(提名) 塔伊加·维迪提
  1. Video
  2. ID                                       : 1
  3. Format                                   : AVC
  4. Format/Info                              : Advanced Video Codec
  5. Format profile                           : High@L4
  6. Format settings                          : CABAC / 5 Ref Frames
  7. Format settings, CABAC                   : Yes
  8. Format settings, Reference frames        : 5 frames
  9. Codec ID                                 : V_MPEG4/ISO/AVC
  10. Duration                                 : 1 h 48 min
  11. Bit rate                                 : 40.5 Mb/s
  12. Width                                    : 3 840 pixels
  13. Height                                   : 2 076 pixels
  14. Display aspect ratio                     : 1.85:1
  15. Frame rate mode                          : Constant
  16. Frame rate                               : 23.976 (24000/1001) FPS
  17. Color space                              : YUV
  18. Chroma subsampling                       : 4:2:0
  19. Bit depth                                : 8 bits
  20. Scan type                                : Progressive
  21. Bits/(Pixel*Frame)                       : 0.212
  22. Stream size                              : 30.7 GiB (91%)
  23. Title                                    : Jojo.Rabbit.2019.2160p.BluRay.x264.8bit.SDR.DTS-HD.MA.5.1-SWTYBLZ
  24. Writing library                          : x264 core 157 r2935 545de2f
  25. Encoding settings                        : cabac=1 / ref=5 / deblock=1:-1:-1 / analyse=0x3:0x113 / me=umh / subme=10 / psy=1 / psy_rd=1.00:0.15 / mixed_ref=1 / me_range=48 / chroma_me=1 / trellis=2 / 8x8dct=1 / cqm=0 / deadzone=21,11 / fast_pskip=1 / chroma_qp_offset=-3 / threads=36 / lookahead_threads=3 / sliced_threads=0 / nr=0 / decimate=0 / interlaced=0 / bluray_compat=0 / constrained_intra=0 / bframes=3 / b_pyramid=2 / b_adapt=2 / b_bias=0 / direct=3 / weightb=1 / open_gop=0 / weightp=2 / keyint=250 / keyint_min=23 / scenecut=40 / intra_refresh=0 / rc_lookahead=50 / rc=crf / mbtree=1 / crf=18.0 / qcomp=0.60 / qpmin=0 / qpmax=69 / qpstep=4 / ip_ratio=1.40 / aq=1:1.00
  26. Default                                  : Yes
  27. Forced                                   : No

  28. Audio #1
  29. ID                                       : 2
  30. Format                                   : DTS XLL
  31. Format/Info                              : Digital Theater Systems
  32. Commercial name                          : DTS-HD Master Audio
  33. Codec ID                                 : A_DTS
  34. Duration                                 : 1 h 48 min
  35. Bit rate mode                            : Variable
  36. Bit rate                                 : 3 341 kb/s
  37. Channel(s)                               : 6 channels
  38. Channel layout                           : C L R Ls Rs LFE
  39. Sampling rate                            : 48.0 kHz
  40. Frame rate                               : 93.750 FPS (512 SPF)
  41. Bit depth                                : 24 bits
  42. Compression mode                         : Lossless
  43. Stream size                              : 2.53 GiB (8%)
  44. Title                                    : Jojo.Rabbit.2019.2160p.BluRay.x264.8bit.SDR.DTS-HD.MA.5.1-SWTYBLZ
  45. Language                                 : English
  46. Default                                  : Yes
  47. Forced                                   : No

  48. Audio #2
  49. ID                                       : 3
  50. Format                                   : AC-3
  51. Format/Info                              : Audio Coding 3
  52. Commercial name                          : Dolby Digital
  53. Codec ID                                 : A_AC3
  54. Duration                                 : 1 h 48 min
  55. Bit rate mode                            : Constant
  56. Bit rate                                 : 640 kb/s
  57. Channel(s)                               : 6 channels
  58. Channel layout                           : L R C LFE Ls Rs
  59. Sampling rate                            : 48.0 kHz
  60. Frame rate                               : 31.250 FPS (1536 SPF)
  61. Compression mode                         : Lossy
  62. Stream size                              : 496 MiB (1%)
  63. Title                                    : Jojo.Rabbit.2019.2160p.BluRay.x264.8bit.SDR.DTS-HD.MA.5.1-SWTYBLZ
  64. Language                                 : English
  65. Service kind                             : Complete Main
  66. Default                                  : No
  67. Forced                                   : No

  68. Text #1
  69. ID                                       : 4
  70. Format                                   : UTF-8
  71. Codec ID                                 : S_TEXT/UTF8
  72. Codec ID/Info                            : UTF-8 Plain Text
  73. Duration                                 : 1 h 45 min
  74. Bit rate                                 : 62 b/s
  75. Count of elements                        : 1633
  76. Stream size                              : 48.2 KiB (0%)
  77. Title                                    : English-SRT
  78. Language                                 : English
  79. Default                                  : Yes
  80. Forced                                   : No

  81. Text #2
  82. ID                                       : 5
  83. Format                                   : PGS
  84. Muxing mode                              : zlib
  85. Codec ID                                 : S_HDMV/PGS
  86. Codec ID/Info                            : Picture based subtitle format used on BDs/HD-DVDs
  87. Duration                                 : 1 h 48 min
  88. Bit rate                                 : 40.7 kb/s
  89. Count of elements                        : 3588
  90. Stream size                              : 31.5 MiB (0%)
  91. Title                                    : English-PGS
  92. Language                                 : English
  93. Default                                  : No
  94. Forced                                   : No

  95. Text #3
  96. ID                                       : 6
  97. Format                                   : PGS
  98. Muxing mode                              : zlib
  99. Codec ID                                 : S_HDMV/PGS
  100. Codec ID/Info                            : Picture based subtitle format used on BDs/HD-DVDs
  101. Duration                                 : 1 h 47 min
  102. Bit rate                                 : 35.5 kb/s
  103. Count of elements                        : 2864
  104. Stream size                              : 27.4 MiB (0%)
  105. Title                                    : French-PGS
  106. Language                                 : French
  107. Default                                  : No
  108. Forced                                   : No

  109. Menu
  110. 00:00:00.000                             : en:Chapter 01
  111. 00:06:04.906                             : en:Chapter 02
  112. 00:09:25.523                             : en:Chapter 03
  113. 00:13:34.522                             : en:Chapter 04
  114. 00:16:17.059                             : en:Chapter 05
  115. 00:20:09.333                             : en:Chapter 06
  116. 00:27:09.461                             : en:Chapter 07
  117. 00:31:02.861                             : en:Chapter 08
  118. 00:36:30.146                             : en:Chapter 09
  119. 00:39:45.967                             : en:Chapter 10
  120. 00:44:13.192                             : en:Chapter 11
  121. 00:49:53.782                             : en:Chapter 12
  122. 00:53:17.194                             : en:Chapter 13
  123. 00:59:35.113                             : en:Chapter 14
  124. 01:03:34.019                             : en:Chapter 15
  125. 01:08:32.483                             : en:Chapter 16
  126. 01:14:20.498                             : en:Chapter 17
  127. 01:17:36.485                             : en:Chapter 18
  128. 01:22:13.387                             : en:Chapter 19
  129. 01:26:20.675                             : en:Chapter 20
  130. 01:29:24.901                             : en:Chapter 21
  131. 01:32:28.042                             : en:Chapter 22
  132. 01:37:15.371                             : en:Chapter 23
  133. 01:41:03.015                             : en:Chapter 24
复制代码

乔乔的异想世界/JOJO兔 Jojo.Rabbit.2019.2160p.BluRay.x264.8bit.SDR.DTS-HD.MA.5.1-SWTYBLZ 33.80GB-2.png 乔乔的异想世界/JOJO兔 Jojo.Rabbit.2019.2160p.BluRay.x264.8bit.SDR.DTS-HD.MA.5.1-SWTYBLZ 33.80GB-3.png 乔乔的异想世界/JOJO兔 Jojo.Rabbit.2019.2160p.BluRay.x264.8bit.SDR.DTS-HD.MA.5.1-SWTYBLZ 33.80GB-4.png 乔乔的异想世界/JOJO兔 Jojo.Rabbit.2019.2160p.BluRay.x264.8bit.SDR.DTS-HD.MA.5.1-SWTYBLZ 33.80GB-5.png 乔乔的异想世界/JOJO兔 Jojo.Rabbit.2019.2160p.BluRay.x264.8bit.SDR.DTS-HD.MA.5.1-SWTYBLZ 33.80GB-6.png 乔乔的异想世界/JOJO兔 Jojo.Rabbit.2019.2160p.BluRay.x264.8bit.SDR.DTS-HD.MA.5.1-SWTYBLZ 33.80GB-1.png 乔乔的异想世界/JOJO兔 Jojo.Rabbit.2019.2160p.BluRay.x264.8bit.SDR.DTS-HD.MA.5.1-SWTYBLZ 33.80GB-8.png






回复

使用道具 举报

发表于 7 天前 | 显示全部楼层
6666666666666666
回复 支持 反对

使用道具 举报

发表于 7 天前 | 显示全部楼层
谢谢的楼主分享
回复 支持 反对

使用道具 举报

发表于 7 天前 | 显示全部楼层
楼主发贴辛苦了,谢谢楼主分享!我觉得蓝光电影网是注册对了!
回复 支持 反对

使用道具 举报

发表于 7 天前 | 显示全部楼层

楼主太厉害了!楼主,电影应该很好看我觉得蓝光电影网真是个好地方!
回复 支持 反对

使用道具 举报

已抛锚 成长值: 250

发表于 7 天前 | 显示全部楼层

楼主太厉害了!楼主,电影应该很好看我觉得蓝光电影网真是个好地方!
回复 支持 反对

使用道具 举报

发表于 7 天前 | 显示全部楼层

楼主太厉害了!楼主,电影应该很好看我觉得蓝光电影网真是个好地方!
回复 支持 反对

使用道具 举报

发表于 7 天前 | 显示全部楼层
感谢分享,乐于下载!
回复 支持 反对

使用道具 举报

发表于 7 天前 | 显示全部楼层
乔乔的异想世界/JOJO兔 Joj
回复 支持 反对

使用道具 举报

发表于 7 天前 | 显示全部楼层

楼主太厉害了!楼主,电影应该很好看我觉得蓝光电影网真是个好地方!
回复 支持 反对

使用道具 举报

懒得打字嘛,点击右侧快捷回复 【右侧内容,后台自定义】
您需要登录后才可以回帖 登录 | 立即加入

本版积分规则

现在加入蓝光电影网,注册一个账号
上个主题 下个主题 快速回复 收藏帖子 返回列表 客服中心 搜索

手机版|小黑屋| 蓝光电影网 |网站地图 

Copyright © 2015-2019 Comsenz Inc.  Template by 蓝光电影论坛 All Rights Reserved.

Powered by 蓝光电影网 X3.4

特别声明:本站所有资源均由网上收集而来,版权归原影音公司所有,如果侵犯了你的权益,请通知我们,我们会及时删除侵权内容.

快速回复 返回顶部 返回列表