找回密码

蓝光电影网

查看: 623|回复: 11

[2160p-WEB] 石中剑 The.Sword.In.The.Stone.1963.HDR.2160p.WEB.H265-PETRiFiED 9.47GB

[复制链接]

 成长值: 24580

发表于 7 天前 | 显示全部楼层 |阅读模式
石中剑 The.Sword.In.The.Stone.1963.HDR.2160p.WEB.H265-PETRiFiED 9.47GB-1.png

译  名 石中剑 / La espada en la piedra
片  名 The Sword in the Stone
年  代 1963
产  地 美国
类  别 动画 / 家庭 / 荒诞
语  言 英语
上映日期 1963-12-25(美国)
IMDb评分  7.2/10 from 83775 users
IMDb链接  https://www.imdb.com/title/tt0057546
豆瓣评分 7.9/10 from 3558 users
豆瓣链接 https://movie.douban.com/subject/1306873/
片  长 80分钟
导  演 伍夫根雷德门 (Wolfgang Reitherman)
编  剧 比尔·皮特 Bill Peet
主  演 塞巴斯蒂安·卡伯特 Sebastian Cabot
       Karl Swenson
       Rickie Sorensen


标  签 动画 | 美国 | Disney | 迪斯尼 | 迪士尼 | 石中剑 | 经典 | 美国动画

简  介  

  当小华特从屋顶掉进了梅林法师的家中时,就已注定他传奇的命运了。神奇的梅林法师是如何教导华特的呢?不小心撞进女巫家的华特会不会有危险呢?伦敦的比武大赛就要开始了,谁有能力拔起石头中的剑便能成为国王,这个消息传遍全国,一些武士也希望自己有一天能成为国王,而纷纷到广场拔剑。对小华特而言,他的奇遇才刚开始,他轻而易举的将石中剑拔起,因之成为日后的亚瑟王。

获奖情况  

  第36届奥斯卡金像奖(1964)
  最佳改编配乐(提名) George Bruns
  1. Video
  2. ID                                       : 1
  3. Format                                   : HEVC
  4. Format/Info                              : High Efficiency Video Coding
  5. Format profile                           : Main High@L4@High
  6. Codec ID                                 : V_MPEGH/ISO/HEVC
  7. Duration                                 : 1 h 19 min
  8. Bit rate                                 : 16.2 Mb/s
  9. Width                                    : 3 840 pixels
  10. Height                                   : 2 160 pixels
  11. Display aspect ratio                     : 16:9
  12. Frame rate mode                          : Constant
  13. Frame rate                               : 23.976 (24000/1001) FPS
  14. Color space                              : YUV
  15. Chroma subsampling                       : 4:2:0
  16. Bit depth                                : 10 bits
  17. Bits/(Pixel*Frame)                       : 0.081
  18. Stream size                              : 9.02 GiB (96%)
  19. Language                                 : English
  20. Default                                  : Yes
  21. Forced                                   : No
  22. Color range                              : Limited
  23. Color primaries                          : BT.2020
  24. Transfer characteristics                 : PQ
  25. Matrix coefficients                      : BT.2020 non-constant
  26. Statistics Tags Issue                    : no_variable_data 1970-01-01 00:00:00 / no_variable_data 2010-02-22 21:41:29
  27. FromStats_BitRate                        : 16508323
  28. FromStats_Duration                       : 01:19:50.870000000
  29. FromStats_FrameCount                     : 114866
  30. FromStats_StreamSize                     : 9886153910

  31. Audio
  32. ID                                       : 2
  33. Format                                   : E-AC-3
  34. Format/Info                              : Enhanced AC-3
  35. Commercial name                          : Dolby Digital Plus
  36. Codec ID                                 : A_EAC3
  37. Duration                                 : 1 h 19 min
  38. Bit rate mode                            : Constant
  39. Bit rate                                 : 256 kb/s
  40. Channel(s)                               : 6 channels
  41. Channel layout                           : L R C LFE Ls Rs
  42. Sampling rate                            : 48.0 kHz
  43. Frame rate                               : 31.250 FPS (1536 SPF)
  44. Compression mode                         : Lossy
  45. Stream size                              : 146 MiB (2%)
  46. Language                                 : English
  47. Service kind                             : Complete Main
  48. Default                                  : Yes
  49. Forced                                   : No
  50. Statistics Tags Issue                    : no_variable_data 1970-01-01 00:00:00 / no_variable_data 2010-02-22 21:41:29
  51. FromStats_BitRate                        : 256000
  52. FromStats_Duration                       : 01:19:50.976000000
  53. FromStats_FrameCount                     : 149718
  54. FromStats_StreamSize                     : 153311232

  55. Text #1
  56. ID                                       : 3
  57. Format                                   : UTF-8
  58. Codec ID                                 : S_TEXT/UTF8
  59. Codec ID/Info                            : UTF-8 Plain Text
  60. Title                                    : English (SDH)
  61. Language                                 : English
  62. Default                                  : No
  63. Forced                                   : No
  64. Statistics Tags Issue                    : no_variable_data 1970-01-01 00:00:00 / no_variable_data 2010-02-22 21:41:29
  65. FromStats_BitRate                        : 70
  66. FromStats_Duration                       : 01:17:42.360000000
  67. FromStats_FrameCount                     : 1306
  68. FromStats_StreamSize                     : 41317

  69. Text #2
  70. ID                                       : 4
  71. Format                                   : UTF-8
  72. Codec ID                                 : S_TEXT/UTF8
  73. Codec ID/Info                            : UTF-8 Plain Text
  74. Title                                    : Spanish (Latin American)
  75. Language                                 : Spanish
  76. Default                                  : No
  77. Forced                                   : No
  78. Statistics Tags Issue                    : no_variable_data 1970-01-01 00:00:00 / no_variable_data 2010-02-22 21:41:29
  79. FromStats_BitRate                        : 59
  80. FromStats_Duration                       : 01:19:18.840000000
  81. FromStats_FrameCount                     : 1072
  82. FromStats_StreamSize                     : 35340

  83. Text #3
  84. ID                                       : 5
  85. Format                                   : UTF-8
  86. Codec ID                                 : S_TEXT/UTF8
  87. Codec ID/Info                            : UTF-8 Plain Text
  88. Title                                    : French
  89. Language                                 : French
  90. Default                                  : No
  91. Forced                                   : No
  92. Statistics Tags Issue                    : no_variable_data 1970-01-01 00:00:00 / no_variable_data 2010-02-22 21:41:29
  93. FromStats_BitRate                        : 69
  94. FromStats_Duration                       : 01:19:16.200000000
  95. FromStats_FrameCount                     : 858
  96. FromStats_StreamSize                     : 41450
复制代码

石中剑 The.Sword.In.The.Stone.1963.HDR.2160p.WEB.H265-PETRiFiED 9.47GB-1.png 石中剑 The.Sword.In.The.Stone.1963.HDR.2160p.WEB.H265-PETRiFiED 9.47GB-3.png 石中剑 The.Sword.In.The.Stone.1963.HDR.2160p.WEB.H265-PETRiFiED 9.47GB-4.png






回复

使用道具 举报

发表于 7 天前 | 显示全部楼层

楼主太厉害了!楼主,电影应该很好看我觉得蓝光电影网真是个好地方!
回复 支持 反对

使用道具 举报

发表于 6 天前 | 显示全部楼层

楼主太厉害了!楼主,电影应该很好看我觉得蓝光电影网真是个好地方!
回复 支持 反对

使用道具 举报

发表于 6 天前 | 显示全部楼层
楼主发贴辛苦了,谢谢楼主分享!我觉得蓝光电影网是注册对了!
回复 支持 反对

使用道具 举报

发表于 5 天前 | 显示全部楼层

这东西我收了!谢谢楼主!蓝光电影网真好!
回复 支持 反对

使用道具 举报

发表于 5 天前 | 显示全部楼层

我看不错噢 谢谢楼主!蓝光电影网越来越好!
回复 支持 反对

使用道具 举报

发表于 5 天前 | 显示全部楼层
感谢楼主无私分享
回复 支持 反对

使用道具 举报

发表于 4 天前 | 显示全部楼层
经典电影,谢谢分享。
回复 支持 反对

使用道具 举报

 成长值: 190

发表于 4 天前 | 显示全部楼层
好经典
回复

使用道具 举报

发表于 4 天前 | 显示全部楼层

楼主太厉害了!楼主,电影应该很好看我觉得蓝光电影网真是个好地方!
回复 支持 反对

使用道具 举报

懒得打字嘛,点击右侧快捷回复 【右侧内容,后台自定义】
您需要登录后才可以回帖 登录 | 立即加入

本版积分规则

现在加入蓝光电影网,注册一个账号
上个主题 下个主题 快速回复 收藏帖子 返回列表 客服中心 搜索

手机版|小黑屋| 蓝光电影网 |网站地图 

Copyright © 2015-2019 Comsenz Inc.  Template by 蓝光电影论坛 All Rights Reserved.

Powered by 蓝光电影网 X3.4

特别声明:本站所有资源均由网上收集而来,版权归原影音公司所有,如果侵犯了你的权益,请通知我们,我们会及时删除侵权内容.

快速回复 返回顶部 返回列表