找回密码

蓝光电影网

查看: 190|回复: 3

[动作] 三德和尚与舂米六 Iron.Fisted.Monk.1977.1080p.BluRay.x264-GHOULS 7.66GB

[复制链接]

 成长值: 24205

发表于 7 天前 | 显示全部楼层 |阅读模式
三德和尚与舂米六 Iron.Fisted.Monk.1977.1080p.BluRay.x264-GHOULS 7.66GB-1.png

译  名 The Iron Fisted Monk
片  名 三德和尚与舂米六
年  代 1977
产  地 中国香港
类  别 动作
语  言 粤语
上映日期 1977-08-25
IMDb评分  6.8/10 from 653 users
IMDb链接  https://www.imdb.com/title/tt0076659
豆瓣评分 6.2/10 from 1413 users
豆瓣链接 https://movie.douban.com/subject/1304951/
片  长 93 分钟
导  演 洪金宝
编  剧 黄枫 / 洪金宝
主  演 洪金宝
       陈星
       冯克安
       田俊
       卢海鹏
       午马
       林正英
       任世官


标  签 洪金宝 | 香港 | 动作 | 香港电影 | 1977 | 喜剧 | 功夫 | 林正英

简  介  

  舂米六(洪金宝 饰)的叔父惨死于满洲人手下,舂米六发誓要替叔父报仇。在三德和尚(陈星 饰)的带领之下,舂米六进入少林寺修习武艺,很受师傅静尘(黄枫 饰)赏识。舂米六报仇心切,知道自己闯不过木人巷,于是决定偷偷潜出少林寺,形迹败露,面临寺规惩戒,所幸惩戒他的是师兄谢亚福(田俊 饰),很快舂米六就获得了下山的许可。
  牛精良(卢海鹏 饰)面恶心善,是染布厂的机房工人,纨绔子弟白安福(冯克安 饰)长着自己身为满洲人的兄长在市内横行霸道为非作歹,奸污了牛精良貌美如花的妹妹,使其含恨自杀。悲愤交加的牛精良决心替妹妹报仇。
  1. Video
  2. ID                                       : 1
  3. Format                                   : AVC
  4. Format/Info                              : Advanced Video Codec
  5. Format profile                           : High@L4
  6. Format settings                          : CABAC / 5 Ref Frames
  7. Format settings, CABAC                   : Yes
  8. Format settings, Reference frames        : 5 frames
  9. Codec ID                                 : V_MPEG4/ISO/AVC
  10. Duration                                 : 1 h 33 min
  11. Bit rate                                 : 10.1 Mb/s
  12. Width                                    : 1 920 pixels
  13. Height                                   : 808 pixels
  14. Display aspect ratio                     : 2.40:1
  15. Frame rate mode                          : Constant
  16. Frame rate                               : 23.976 (24000/1001) FPS
  17. Color space                              : YUV
  18. Chroma subsampling                       : 4:2:0
  19. Bit depth                                : 8 bits
  20. Scan type                                : Progressive
  21. Bits/(Pixel*Frame)                       : 0.273
  22. Stream size                              : 6.60 GiB (86%)
  23. Writing library                          : x264 core 158 r2988 7817004
  24. Encoding settings                        : cabac=1 / ref=5 / deblock=1:-3:-3 / analyse=0x3:0x133 / me=umh / subme=9 / psy=1 / psy_rd=1.00:0.00 / mixed_ref=1 / me_range=24 / chroma_me=1 / trellis=1 / 8x8dct=1 / cqm=0 / deadzone=21,11 / fast_pskip=0 / chroma_qp_offset=-2 / threads=24 / lookahead_threads=4 / sliced_threads=0 / nr=0 / decimate=1 / interlaced=0 / bluray_compat=0 / constrained_intra=0 / bframes=8 / b_pyramid=2 / b_adapt=2 / b_bias=0 / direct=3 / weightb=1 / open_gop=0 / weightp=2 / keyint=250 / keyint_min=23 / scenecut=40 / intra_refresh=0 / rc_lookahead=60 / rc=2pass / mbtree=1 / bitrate=10144 / ratetol=1.0 / qcomp=0.60 / qpmin=0 / qpmax=69 / qpstep=4 / cplxblur=20.0 / qblur=0.5 / vbv_maxrate=62500 / vbv_bufsize=78125 / nal_hrd=none / filler=0 / ip_ratio=1.40 / aq=1:1.00
  25. Default                                  : Yes
  26. Forced                                   : No

  27. Audio #1
  28. ID                                       : 2
  29. Format                                   : FLAC
  30. Format/Info                              : Free Lossless Audio Codec
  31. Codec ID                                 : A_FLAC
  32. Duration                                 : 1 h 33 min
  33. Bit rate mode                            : Variable
  34. Bit rate                                 : 335 kb/s
  35. Channel(s)                               : 1 channel
  36. Channel layout                           : C
  37. Sampling rate                            : 48.0 kHz
  38. Frame rate                               : 10.417 FPS (4608 SPF)
  39. Bit depth                                : 16 bits
  40. Compression mode                         : Lossless
  41. Stream size                              : 223 MiB (3%)
  42. Writing library                          : Lavf58.29.100
  43. Language                                 : Chinese
  44. Default                                  : Yes
  45. Forced                                   : No

  46. Audio #2
  47. ID                                       : 3
  48. Format                                   : FLAC
  49. Format/Info                              : Free Lossless Audio Codec
  50. Codec ID                                 : A_FLAC
  51. Duration                                 : 1 h 33 min
  52. Bit rate mode                            : Variable
  53. Bit rate                                 : 1 284 kb/s
  54. Channel(s)                               : 2 channels
  55. Channel layout                           : L R
  56. Sampling rate                            : 48.0 kHz
  57. Frame rate                               : 10.417 FPS (4608 SPF)
  58. Bit depth                                : 24 bits
  59. Compression mode                         : Lossless
  60. Stream size                              : 855 MiB (11%)
  61. Writing library                          : Lavf58.29.100
  62. Language                                 : English
  63. Default                                  : No
  64. Forced                                   : No

  65. Text
  66. ID                                       : 4
  67. Format                                   : UTF-8
  68. Codec ID                                 : S_TEXT/UTF8
  69. Codec ID/Info                            : UTF-8 Plain Text
  70. Duration                                 : 1 h 31 min
  71. Bit rate                                 : 40 b/s
  72. Count of elements                        : 821
  73. Stream size                              : 27.2 KiB (0%)
  74. Language                                 : English
  75. Default                                  : Yes
  76. Forced                                   : No

  77. Menu
  78. 00:00:00.000                             : en:Chapter 01
  79. 00:08:32.470                             : en:Chapter 02
  80. 00:18:33.696                             : en:Chapter 03
  81. 00:23:18.355                             : en:Chapter 04
  82. 00:29:15.879                             : en:Chapter 05
  83. 00:40:10.617                             : en:Chapter 06
  84. 00:46:08.224                             : en:Chapter 07
  85. 00:56:00.732                             : en:Chapter 08
  86. 01:01:02.492                             : en:Chapter 09
  87. 01:10:39.652                             : en:Chapter 10
  88. 01:16:44.850                             : en:Chapter 11
  89. 01:26:48.203                             : en:Chapter 12
复制代码

三德和尚与舂米六 Iron.Fisted.Monk.1977.1080p.BluRay.x264-GHOULS 7.66GB-2.png






回复

使用道具 举报

发表于 7 天前 | 显示全部楼层
谢谢楼主分享
回复 支持 反对

使用道具 举报

发表于 6 天前 | 显示全部楼层
不喜欢这一部,嘿嘿哈哈的打斗风格
回复 支持 反对

使用道具 举报

发表于 3 天前 | 显示全部楼层
经典电影很是喜欢下载欣赏收藏!
回复 支持 反对

使用道具 举报

懒得打字嘛,点击右侧快捷回复 【右侧内容,后台自定义】
您需要登录后才可以回帖 登录 | 立即加入

本版积分规则

现在加入蓝光电影网,注册一个账号
上个主题 下个主题 快速回复 收藏帖子 返回列表 客服中心 搜索

手机版|小黑屋| 蓝光电影网 |网站地图 

Copyright © 2015-2019 Comsenz Inc.  Template by 蓝光电影论坛 All Rights Reserved.

Powered by 蓝光电影网 X3.4

特别声明:本站所有资源均由网上收集而来,版权归原影音公司所有,如果侵犯了你的权益,请通知我们,我们会及时删除侵权内容.

快速回复 返回顶部 返回列表