找回密码

蓝光电影网

查看: 1092|回复: 19

[动作] 快递员/Correio(葡萄牙) The.Courier.2019.1080p.BluRay.x264.DTS-HD.MA.5.1-FGT 9.19GB

[复制链接]

 成长值: 27235

发表于 2020-1-14 17:18:24 | 显示全部楼层 |阅读模式
快递员/Correio(葡萄牙) The.Courier.2019.1080p.BluRay.x264.DTS-HD.MA.5.1-FGT 9.19GB-1.png

译  名 快递员 / Correio(葡萄牙) / Corriere(意大利) / Kurier(波兰) / Mensajero.(西班牙)
片  名 The Courier
年  代 2019
产  地 英国 / 美国
类  别 动作 / 惊悚
语  言 英语
上映日期 2019-11-22(美国) / 2019-12-20(英国)
IMDb评分  4.4/10 from 1573 users
IMDb链接  https://www.imdb.com/title/tt9207616
豆瓣评分 5.4/10 from 410 users
豆瓣链接 https://movie.douban.com/subject/30366385/
片  长 99分钟
导  演 扎克瑞·阿德勒 Zackary Adler
编  剧 扎克瑞·阿德勒 Zackary Adler / 詹姆斯·爱德华·巴克 James Edward Barker / Andy Conway / Nicky Tate
主  演 欧嘉·柯瑞兰寇 Olga Kurylenko
       加里·奥德曼 Gary Oldman
       阿米特·沙阿 Amit Shah
       Alicia Agneson
       格雷格·奥维斯 Greg Orvis
       克雷格·康威 Craig Conway
       威廉·莫斯里 William Moseley
       德蒙特·莫罗尼 Dermot Mulroney
       戈登·亚历山大 Gordon Alexander
       Neil Chapelhow
       李·查尔斯 Lee Charles
       Michael Fatogun
       Hal Hillman
       Al Holland
       泰·赫尔利 Ty Hurley
       雷纳斯·拉特科夫斯基 Renars Latkovskis
       乔尔·迈克利 Joel Michaely


标  签 动作 | 美国 | 犯罪 | 2019 | 欧嘉·柯瑞兰寇 | 加里·奥德曼 | 美国电影 | 特工

简  介  

  本片由扎卡里·阿德勒执导,讲述一名快递员(柯瑞兰寇饰)发现自己运送的最新包裹是一枚炸弹,目标是一名犯罪集团老大谋杀案的目击者(奥德曼饰)后,从腐败的CIA特工和俄罗斯雇佣兵手中拯救目标。该片将于本月在伦敦开拍。Sweet Charm Pictures已购得影片中国发行权。
  1. Video
  2. ID                                       : 1
  3. Format                                   : AVC
  4. Format/Info                              : Advanced Video Codec
  5. Format profile                           : High@L4
  6. Format settings                          : CABAC / 5 Ref Frames
  7. Format settings, CABAC                   : Yes
  8. Format settings, Reference frames        : 5 frames
  9. Codec ID                                 : V_MPEG4/ISO/AVC
  10. Duration                                 : 1 h 39 min
  11. Bit rate                                 : 9 492 kb/s
  12. Width                                    : 1 920 pixels
  13. Height                                   : 808 pixels
  14. Display aspect ratio                     : 2.40:1
  15. Frame rate mode                          : Constant
  16. Frame rate                               : 23.976 (24000/1001) FPS
  17. Color space                              : YUV
  18. Chroma subsampling                       : 4:2:0
  19. Bit depth                                : 8 bits
  20. Scan type                                : Progressive
  21. Bits/(Pixel*Frame)                       : 0.255
  22. Stream size                              : 6.60 GiB (72%)
  23. Title                                    : The.Courier.2019.1080p.BluRay.x264.DTS-HD.MA.5.1-FGT
  24. Writing library                          : x264 core 159 r2991 1771b55
  25. Encoding settings                        : cabac=1 / ref=5 / deblock=1:-3:-3 / analyse=0x3:0x113 / me=umh / subme=8 / psy=1 / psy_rd=1.00:0.00 / mixed_ref=1 / me_range=16 / chroma_me=1 / trellis=1 / 8x8dct=1 / cqm=0 / deadzone=21,11 / fast_pskip=1 / chroma_qp_offset=-2 / threads=25 / lookahead_threads=4 / sliced_threads=0 / nr=0 / decimate=1 / interlaced=0 / bluray_compat=0 / constrained_intra=0 / bframes=3 / b_pyramid=2 / b_adapt=1 / b_bias=0 / direct=3 / weightb=1 / open_gop=0 / weightp=2 / keyint=250 / keyint_min=23 / scenecut=40 / intra_refresh=0 / rc_lookahead=50 / rc=2pass / mbtree=1 / bitrate=9492 / ratetol=1.0 / qcomp=0.60 / qpmin=0 / qpmax=69 / qpstep=4 / cplxblur=20.0 / qblur=0.5 / ip_ratio=1.40 / aq=1:1.00
  26. Language                                 : English
  27. Default                                  : Yes
  28. Forced                                   : No

  29. Audio
  30. ID                                       : 2
  31. Format                                   : DTS XLL
  32. Format/Info                              : Digital Theater Systems
  33. Commercial name                          : DTS-HD Master Audio
  34. Codec ID                                 : A_DTS
  35. Duration                                 : 1 h 39 min
  36. Bit rate mode                            : Variable
  37. Bit rate                                 : 3 708 kb/s
  38. Channel(s)                               : 6 channels
  39. Channel layout                           : C L R Ls Rs LFE
  40. Sampling rate                            : 48.0 kHz
  41. Frame rate                               : 93.750 FPS (512 SPF)
  42. Bit depth                                : 24 bits
  43. Compression mode                         : Lossless
  44. Stream size                              : 2.58 GiB (28%)
  45. Title                                    : The.Courier.2019.1080p.BluRay.x264.DTS-HD.MA.5.1-FGT
  46. Language                                 : English
  47. Default                                  : Yes
  48. Forced                                   : No

  49. Text #1
  50. ID                                       : 3
  51. Format                                   : UTF-8
  52. Codec ID                                 : S_TEXT/UTF8
  53. Codec ID/Info                            : UTF-8 Plain Text
  54. Duration                                 : 1 h 33 min
  55. Bit rate                                 : 27 b/s
  56. Count of elements                        : 665
  57. Stream size                              : 18.7 KiB (0%)
  58. Title                                    : English-SRT
  59. Language                                 : English
  60. Default                                  : Yes
  61. Forced                                   : No

  62. Text #2
  63. ID                                       : 4
  64. Format                                   : PGS
  65. Muxing mode                              : zlib
  66. Codec ID                                 : S_HDMV/PGS
  67. Codec ID/Info                            : Picture based subtitle format used on BDs/HD-DVDs
  68. Duration                                 : 1 h 33 min
  69. Bit rate                                 : 21.4 kb/s
  70. Count of elements                        : 1786
  71. Stream size                              : 14.4 MiB (0%)
  72. Title                                    : English-PGS
  73. Language                                 : English
  74. Default                                  : No
  75. Forced                                   : No

  76. Text #3
  77. ID                                       : 5
  78. Format                                   : PGS
  79. Muxing mode                              : zlib
  80. Codec ID                                 : S_HDMV/PGS
  81. Codec ID/Info                            : Picture based subtitle format used on BDs/HD-DVDs
  82. Duration                                 : 1 h 33 min
  83. Bit rate                                 : 16.4 kb/s
  84. Count of elements                        : 1358
  85. Stream size                              : 11.0 MiB (0%)
  86. Title                                    : Spanish-PGS
  87. Language                                 : Spanish
  88. Default                                  : No
  89. Forced                                   : No

  90. Menu
  91. 00:00:00.000                             : en:Chapter 01
  92. 00:08:21.125                             : en:Chapter 02
  93. 00:13:59.797                             : en:Chapter 03
  94. 00:18:42.162                             : en:Chapter 04
  95. 00:25:09.257                             : en:Chapter 05
  96. 00:31:29.053                             : en:Chapter 06
  97. 00:34:47.710                             : en:Chapter 07
  98. 00:41:41.332                             : en:Chapter 08
  99. 00:45:43.741                             : en:Chapter 09
  100. 00:52:26.726                             : en:Chapter 10
  101. 00:57:45.670                             : en:Chapter 11
  102. 01:05:11.490                             : en:Chapter 12
  103. 01:11:38.919                             : en:Chapter 13
  104. 01:17:23.639                             : en:Chapter 14
  105. 01:25:30.834                             : en:Chapter 15
  106. 01:33:35.568                             : en:Chapter 16
复制代码

快递员/Correio(葡萄牙) The.Courier.2019.1080p.BluRay.x264.DTS-HD.MA.5.1-FGT 9.19GB-2.png 快递员/Correio(葡萄牙) The.Courier.2019.1080p.BluRay.x264.DTS-HD.MA.5.1-FGT 9.19GB-3.png 快递员/Correio(葡萄牙) The.Courier.2019.1080p.BluRay.x264.DTS-HD.MA.5.1-FGT 9.19GB-4.png






回复

使用道具 举报

发表于 2020-1-14 18:46:12 | 显示全部楼层
谢谢楼主发布好电影。
回复 支持 反对

使用道具 举报

发表于 2020-1-15 01:15:06 | 显示全部楼层

感恩楼主无私的分享与奉献 !谢谢
回复 支持 反对

使用道具 举报

 成长值: 3985

发表于 2020-1-15 09:32:57 | 显示全部楼层
谢谢楼主无私分享。
回复 支持 反对

使用道具 举报

发表于 2020-1-15 12:35:06 | 显示全部楼层

楼主太厉害了!楼主,电影应该很好看我觉得蓝光电影网真是个好地方!
回复 支持 反对

使用道具 举报

 成长值: 550

发表于 2020-1-15 14:41:52 | 显示全部楼层
楼主发贴辛苦了,谢谢楼主分享!我觉得蓝光电影网是注册对了!
回复 支持 反对

使用道具 举报

 成长值: 5140

发表于 2020-1-15 15:50:25 | 显示全部楼层

楼主太厉害了!楼主,电影应该很好看我觉得蓝光电影网真是个好地方!
回复 支持 反对

使用道具 举报

发表于 2020-1-16 08:35:04 | 显示全部楼层

楼主太厉害了!楼主,电影应该很好看我觉得蓝光电影网真是个好地方!
回复 支持 反对

使用道具 举报

发表于 2020-1-16 08:40:42 | 显示全部楼层
楼主发贴辛苦了,谢谢楼主分享!我觉得蓝光电影网是注册对了!
回复 支持 反对

使用道具 举报

发表于 2020-1-16 08:41:58 | 显示全部楼层

感谢楼主的无私分享!要想蓝光电影网好 就靠你我他
回复 支持 反对

使用道具 举报

懒得打字嘛,点击右侧快捷回复 【右侧内容,后台自定义】
您需要登录后才可以回帖 登录 | 立即加入

本版积分规则

现在加入蓝光电影网,注册一个账号
上个主题 下个主题 快速回复 收藏帖子 返回列表 客服中心 搜索

手机版|小黑屋| 蓝光电影网 |网站地图 

Copyright © 2015-2019 Comsenz Inc.  Template by 蓝光电影论坛 All Rights Reserved.

Powered by 蓝光电影网 X3.4

特别声明:本站所有资源均由网上收集而来,版权归原影音公司所有,如果侵犯了你的权益,请通知我们,我们会及时删除侵权内容.

快速回复 返回顶部 返回列表