找回密码

蓝光电影网

查看: 1169|回复: 17

[2160p-WEB] 成为邦德/成为詹姆斯·邦德 Becoming.Bond.2017.2160p.HULU.WEBRip.x265.10bit.SDR.DDP5.1-AJP69 10.22GB

[复制链接]

 成长值: 24205

发表于 2020-1-10 15:26:34 | 显示全部楼层 |阅读模式
152549ygzr9ak9qh1ahbh8.png

译  名 成为邦德 / 成为詹姆斯·邦德
片  名 Becoming Bond
年  代 2017
产  地 美国
类  别 纪录片
语  言 英语
上映日期 2017-03-11
IMDb评分  7.5/10 from 1965 users
IMDb链接  https://www.imdb.com/title/tt6110504
豆瓣评分 8.0/10 from 503 users
豆瓣链接 https://movie.douban.com/subject/27000083/
片  长 92分钟
导  演 Josh Greenbaum
编  剧 Josh Greenbaum
主  演 乔治·拉扎贝 George Lazenby
       约什·劳森 Josh Lawson
       Kassandra Clementi
       简·西摩 Jane Seymour


标  签 纪录片 | 乔治·拉赞贝 | 美国 | 传记 | 2017 | 剧情 | 007 | 成长

简  介  

  The stranger-than-fiction true story of George Lazenby, a poor Australian car mechanic who, through an unbelievable set of circumstances, landed the role of James Bond in On Her Majesty's Secret Service (1969), despite having never acted a day in his life. Then after being offered the next seven Bond films and a $1 million signing bonus, he turned it all down...
  1. Video
  2. ID                                       : 1
  3. Format                                   : HEVC
  4. Format/Info                              : High Efficiency Video Coding
  5. Format profile                           : Main High@L4@Main
  6. Codec ID                                 : V_MPEGH/ISO/HEVC
  7. Duration                                 : 1 h 35 min
  8. Bit rate                                 : 15.1 Mb/s
  9. Width                                    : 3 840 pixels
  10. Height                                   : 2 160 pixels
  11. Display aspect ratio                     : 16:9
  12. Frame rate mode                          : Constant
  13. Frame rate                               : 23.976 (24000/1001) FPS
  14. Color space                              : YUV
  15. Chroma subsampling                       : 4:2:0
  16. Bit depth                                : 10 bits
  17. Bits/(Pixel*Frame)                       : 0.076
  18. Stream size                              : 10.0 GiB (98%)
  19. Default                                  : Yes
  20. Forced                                   : No

  21. Audio
  22. ID                                       : 2
  23. Format                                   : E-AC-3
  24. Format/Info                              : Enhanced AC-3
  25. Commercial name                          : Dolby Digital Plus
  26. Codec ID                                 : A_EAC3
  27. Duration                                 : 1 h 35 min
  28. Bit rate mode                            : Constant
  29. Bit rate                                 : 256 kb/s
  30. Channel(s)                               : 6 channels
  31. Channel layout                           : L R C LFE Ls Rs
  32. Sampling rate                            : 48.0 kHz
  33. Frame rate                               : 31.250 FPS (1536 SPF)
  34. Compression mode                         : Lossy
  35. Stream size                              : 174 MiB (2%)
  36. Language                                 : English
  37. Service kind                             : Complete Main
  38. Default                                  : Yes
  39. Forced                                   : No

  40. Text #1
  41. ID                                       : 3
  42. Format                                   : UTF-8
  43. Codec ID                                 : S_TEXT/UTF8
  44. Codec ID/Info                            : UTF-8 Plain Text
  45. Duration                                 : 1 h 35 min
  46. Bit rate                                 : 91 b/s
  47. Count of elements                        : 2388
  48. Stream size                              : 63.9 KiB (0%)
  49. Language                                 : English
  50. Default                                  : No
  51. Forced                                   : No

  52. Text #2
  53. ID                                       : 4
  54. Format                                   : UTF-8
  55. Codec ID                                 : S_TEXT/UTF8
  56. Codec ID/Info                            : UTF-8 Plain Text
  57. Duration                                 : 1 h 31 min
  58. Bit rate                                 : 92 b/s
  59. Count of elements                        : 2328
  60. Stream size                              : 62.3 KiB (0%)
  61. Language                                 : Spanish
  62. Default                                  : No
  63. Forced                                   : No
复制代码

成为邦德/成为詹姆斯·邦德 Becoming.Bond.2017.2160p.HULU.WEBRip.x265.10bit.SDR.DDP5.1-AJP69 10.22GB-2.png 成为邦德/成为詹姆斯·邦德 Becoming.Bond.2017.2160p.HULU.WEBRip.x265.10bit.SDR.DDP5.1-AJP69 10.22GB-3.png 成为邦德/成为詹姆斯·邦德 Becoming.Bond.2017.2160p.HULU.WEBRip.x265.10bit.SDR.DDP5.1-AJP69 10.22GB-4.png






回复

使用道具 举报

发表于 2020-1-10 17:02:30 | 显示全部楼层
楼主发贴辛苦了,谢谢楼主分享!我觉得蓝光电影网是注册对了!
回复 支持 反对

使用道具 举报

发表于 2020-1-11 11:16:53 | 显示全部楼层
,谢谢楼主分享!
回复 支持 反对

使用道具 举报

发表于 2020-1-11 11:45:28 | 显示全部楼层
楼主发贴辛苦了,谢谢楼主分享!我觉得蓝光电影网是注册对了!
回复 支持 反对

使用道具 举报

发表于 2020-1-11 12:46:11 | 显示全部楼层
进来,看看,多谢。:lol
回复 支持 反对

使用道具 举报

发表于 2020-1-11 15:33:09 | 显示全部楼层

我看不错噢 谢谢楼主!蓝光电影网越来越好!
回复 支持 反对

使用道具 举报

发表于 2020-1-11 19:04:54 | 显示全部楼层
楼主太厉害了!楼主,电影应该很好看我觉得蓝光电影网真是个好地方
回复 支持 反对

使用道具 举报

发表于 2020-1-12 09:00:05 | 显示全部楼层
楼主发贴辛苦了,谢谢楼主分享!我觉得蓝光电影网是注册对了!
回复 支持 反对

使用道具 举报

发表于 2020-1-12 09:43:40 | 显示全部楼层
楼主辛苦,感谢分享!
回复 支持 反对

使用道具 举报

发表于 2020-1-12 16:13:14 | 显示全部楼层
谢谢楼主分享:D
回复 支持 反对

使用道具 举报

懒得打字嘛,点击右侧快捷回复 【右侧内容,后台自定义】
您需要登录后才可以回帖 登录 | 立即加入

本版积分规则

现在加入蓝光电影网,注册一个账号
上个主题 下个主题 快速回复 收藏帖子 返回列表 客服中心 搜索

手机版|小黑屋| 蓝光电影网 |网站地图 

Copyright © 2015-2019 Comsenz Inc.  Template by 蓝光电影论坛 All Rights Reserved.

Powered by 蓝光电影网 X3.4

特别声明:本站所有资源均由网上收集而来,版权归原影音公司所有,如果侵犯了你的权益,请通知我们,我们会及时删除侵权内容.

快速回复 返回顶部 返回列表