找回密码

蓝光电影网

查看: 8356|回复: 332

[剧情] 小丑 Joker.2019.1080p.BluRay.x264.TrueHD.7.1.Atmos-FGT 10.96GB

  [复制链接]

 成长值: 24205

发表于 2019-12-19 21:26:53 | 显示全部楼层 |阅读模式
小丑 Joker.2019.1080p.BluRay.x264.TrueHD.7.1.Atmos-FGT 10.96GB-1.png

译  名 小丑 / Joker Origin Movie / Romeo / 小丑起源电影:罗密欧
片  名 Joker
年  代 2019
产  地 美国
类  别 剧情 / 惊悚 / 犯罪
语  言 英语
上映日期 2019-08-31(威尼斯电影节) / 2019-10-04(美国)
IMDb评分  9.6/10 from 11147 users
IMDb链接  http://www.imdb.com/title/tt7286456
豆瓣评分 9.3/10 from 3694 users
豆瓣链接 https://movie.douban.com/subject/27119724/
片  长 122分钟
导  演 托德·菲利普斯 Todd Phillips
编  剧 托德·菲利普斯 Todd Phillips / 斯科特·西尔弗 Scott Silver
主  演 杰昆·菲尼克斯 Joaquin Phoenix
       罗伯特·德尼罗 Robert De Niro
       马克·马龙 Marc Maron
       莎姬·贝兹 Zazie Beetz
       谢·惠根姆 Shea Whigham
       弗兰西丝·康罗伊 Frances Conroy
       布莱恩·考伦 Bryan Callen
       布莱恩·泰里·亨利 Brian Tyree Henry
       布莱特·卡伦 Brett Cullen
       道格拉斯·霍奇斯 Douglas Hodges
       格伦·弗莱施勒 Glenn Fleshler
       比尔·坎普 Bill Camp
       乔什·帕斯 Josh Pais
       但丁·佩雷拉-奥尔森 Dante Pereira-Olson
       玛丽·凯特·马拉特 Mary Kate Malat
       迈克尔·本茨 Michael Benz
       莎珑·华盛顿 Sharon Washington
       桑德拉·詹姆斯 Sondra James
       托尼·赫德 Tony Head
       曼德拉·贝拉米 Mandela Bellamy
       乔·奥克曼 Joe Ochman
       卡尔·伦德施泰特 Carl Lundstedt
       米克·奥罗克 Mick O'Rourke
       大卫·吉布森 David Gibson
       伊万·罗萨多 Evan Rosado
       安妮·比萨比亚 Annie Pisapia
       布莱斯·科里根 Blaise Corrigan
       乔恩·道格拉斯·雷尼 Jon Douglas Rainey
       艾恩斯利·丹恩 Aynsleigh Dann
       杰森·约翰·奇卡莱塞 Jason John Cicalese
       Jolie Chan
       Isabella Ferreira
       Gary Gulman


标  签 小丑 | DC | 犯罪 | 杰昆菲尼克斯 | 美国 | 2019 | 超级英雄 | 蝙蝠侠

简  介  

  电影《小丑》以同名DC漫画角色为基础,由华纳兄弟影业公司发行,计划于2019年10月4日上映。本片的故事将独立于DCEU之外,故事背景设置在20世纪80年代,讲述了一位生活陷入困境的脱口秀喜剧演员渐渐走向精神的崩溃,在哥谭市开始了疯狂的犯罪生涯,最终成为了蝙蝠侠的宿敌“小丑”的故事。
  本片由《宿醉》的导演托德菲利普斯执导,他与编剧斯科特西尔弗一起撰写了编剧。杰昆菲尼克斯本片中饰演主人公“小丑”,其他的主演包括罗伯特德尼罗、莎姬贝兹、马克马龙等。

获奖情况  

  第76届威尼斯电影节(2019)
  主竞赛单元 金狮奖 托德·菲利普斯
  1. Video
  2. ID                                       : 1
  3. Format                                   : AVC
  4. Format/Info                              : Advanced Video Codec
  5. Format profile                           : High@L4
  6. Format settings                          : CABAC / 4 Ref Frames
  7. Format settings, CABAC                   : Yes
  8. Format settings, Reference frames        : 4 frames
  9. Codec ID                                 : V_MPEG4/ISO/AVC
  10. Duration                                 : 2 h 1 min
  11. Bit rate                                 : 8 344 kb/s
  12. Width                                    : 1 920 pixels
  13. Height                                   : 1 040 pixels
  14. Display aspect ratio                     : 1.85:1
  15. Frame rate mode                          : Constant
  16. Frame rate                               : 23.976 (24000/1001) FPS
  17. Color space                              : YUV
  18. Chroma subsampling                       : 4:2:0
  19. Bit depth                                : 8 bits
  20. Scan type                                : Progressive
  21. Bits/(Pixel*Frame)                       : 0.174
  22. Stream size                              : 7.10 GiB (65%)
  23. Title                                    : Joker.2019.1080p.BluRay.x264.TrueHD.7.1.Atmos-FGT
  24. Writing library                          : x264 core 157 r2969 d4099dd
  25. Encoding settings                        : cabac=1 / ref=4 / deblock=1:0:0 / analyse=0x3:0x113 / me=umh / subme=8 / psy=1 / psy_rd=1.00:0.00 / mixed_ref=1 / me_range=16 / chroma_me=1 / trellis=1 / 8x8dct=1 / cqm=0 / deadzone=21,11 / fast_pskip=1 / chroma_qp_offset=-2 / threads=16 / lookahead_threads=2 / sliced_threads=0 / nr=0 / decimate=1 / interlaced=0 / bluray_compat=0 / constrained_intra=0 / bframes=3 / b_pyramid=2 / b_adapt=2 / b_bias=0 / direct=3 / weightb=1 / open_gop=0 / weightp=2 / keyint=240 / keyint_min=23 / scenecut=40 / intra_refresh=0 / rc_lookahead=50 / rc=2pass / mbtree=1 / bitrate=8344 / ratetol=1.0 / qcomp=0.60 / qpmin=0 / qpmax=69 / qpstep=4 / cplxblur=20.0 / qblur=0.5 / ip_ratio=1.40 / aq=1:1.00
  26. Language                                 : English
  27. Default                                  : Yes
  28. Forced                                   : No

  29. Audio #1
  30. ID                                       : 2
  31. Format                                   : MLP FBA 16-ch
  32. Format/Info                              : Meridian Lossless Packing FBA with 16-channel presentation
  33. Commercial name                          : Dolby TrueHD with Dolby Atmos
  34. Codec ID                                 : A_TRUEHD
  35. Duration                                 : 2 h 1 min
  36. Bit rate mode                            : Variable
  37. Bit rate                                 : 3 819 kb/s
  38. Maximum bit rate                         : 7 158 kb/s
  39. Channel(s)                               : 8 channels
  40. Channel layout                           : L R C LFE Ls Rs Lb Rb
  41. Sampling rate                            : 48.0 kHz
  42. Frame rate                               : 1 200.000 FPS (40 SPF)
  43. Compression mode                         : Lossless
  44. Stream size                              : 3.25 GiB (30%)
  45. Title                                    : Joker.2019.1080p.BluRay.x264.TrueHD.7.1.Atmos-FGT
  46. Language                                 : English
  47. Default                                  : Yes
  48. Forced                                   : No
  49. Number of dynamic objects                : 15
  50. Bed channel count                        : 1 channel
  51. Bed channel configuration                : LFE

  52. Audio #2
  53. ID                                       : 3
  54. Format                                   : AC-3
  55. Format/Info                              : Audio Coding 3
  56. Commercial name                          : Dolby Digital
  57. Codec ID                                 : A_AC3
  58. Duration                                 : 2 h 1 min
  59. Bit rate mode                            : Constant
  60. Bit rate                                 : 640 kb/s
  61. Channel(s)                               : 6 channels
  62. Channel layout                           : L R C LFE Ls Rs
  63. Sampling rate                            : 48.0 kHz
  64. Frame rate                               : 31.250 FPS (1536 SPF)
  65. Bit depth                                : 16 bits
  66. Compression mode                         : Lossy
  67. Stream size                              : 558 MiB (5%)
  68. Title                                    : Joker.2019.1080p.BluRay.x264.TrueHD.7.1.Atmos-FGT
  69. Language                                 : English
  70. Service kind                             : Complete Main
  71. Default                                  : No
  72. Forced                                   : No

  73. Text #1
  74. ID                                       : 4
  75. Format                                   : UTF-8
  76. Codec ID                                 : S_TEXT/UTF8
  77. Codec ID/Info                            : UTF-8 Plain Text
  78. Duration                                 : 1 h 58 min
  79. Bit rate                                 : 45 b/s
  80. Count of elements                        : 1424
  81. Stream size                              : 39.0 KiB (0%)
  82. Title                                    : English-SRT
  83. Language                                 : English
  84. Default                                  : Yes
  85. Forced                                   : No

  86. Text #2
  87. ID                                       : 5
  88. Format                                   : UTF-8
  89. Codec ID                                 : S_TEXT/UTF8
  90. Codec ID/Info                            : UTF-8 Plain Text
  91. Duration                                 : 1 h 58 min
  92. Bit rate                                 : 55 b/s
  93. Count of elements                        : 1735
  94. Stream size                              : 47.9 KiB (0%)
  95. Title                                    : English-SDH-SRT
  96. Language                                 : English
  97. Default                                  : No
  98. Forced                                   : No

  99. Text #3
  100. ID                                       : 6
  101. Format                                   : PGS
  102. Muxing mode                              : zlib
  103. Codec ID                                 : S_HDMV/PGS
  104. Codec ID/Info                            : Picture based subtitle format used on BDs/HD-DVDs
  105. Duration                                 : 1 h 58 min
  106. Bit rate                                 : 35.8 kb/s
  107. Count of elements                        : 3480
  108. Stream size                              : 30.2 MiB (0%)
  109. Title                                    : English-PGS
  110. Language                                 : English
  111. Default                                  : No
  112. Forced                                   : No

  113. Menu
  114. 00:00:00.000                             : :Chapter 01
  115. 00:10:28.795                             : :Chapter 02
  116. 00:21:01.302                             : :Chapter 03
  117. 00:28:44.973                             : :Chapter 04
  118. 00:38:14.501                             : :Chapter 05
  119. 00:46:21.570                             : :Chapter 06
  120. 00:56:19.293                             : :Chapter 07
  121. 01:04:41.169                             : :Chapter 08
  122. 01:15:41.746                             : :Chapter 09
  123. 01:26:16.046                             : :Chapter 10
  124. 01:37:02.608                             : :Chapter 11
  125. 01:45:50.386                             : :Chapter 12
  126. 01:55:44.646                             : :Chapter 13
复制代码

小丑 Joker.2019.1080p.BluRay.x264.TrueHD.7.1.Atmos-FGT 10.96GB-2.png 小丑 Joker.2019.1080p.BluRay.x264.TrueHD.7.1.Atmos-FGT 10.96GB-3.png 小丑 Joker.2019.1080p.BluRay.x264.TrueHD.7.1.Atmos-FGT 10.96GB-4.png








回复

使用道具 举报

发表于 2019-12-19 22:09:29 | 显示全部楼层
楼主发贴辛苦了,谢谢楼主分享!我觉得蓝光电影网是注册对了!
回复 支持 反对

使用道具 举报

发表于 2019-12-19 23:44:59 | 显示全部楼层
这个是原盘?
回复 支持 反对

使用道具 举报

发表于 2019-12-19 23:48:34 | 显示全部楼层
2楼这个托太明显:)
回复 支持 反对

使用道具 举报

发表于 2019-12-19 23:55:21 | 显示全部楼层
棒哦:),这个网站真牛皮哦
回复 支持 反对

使用道具 举报

发表于 2019-12-20 00:10:23 | 显示全部楼层
楼主发贴辛苦了,谢谢楼主分享!我觉得蓝光电影网是注册对了!
回复 支持 反对

使用道具 举报

发表于 2019-12-20 08:23:12 | 显示全部楼层
楼主发贴辛苦了,谢谢楼主分享!我觉得蓝光电影网是注册对了!
回复 支持 反对

使用道具 举报

发表于 2019-12-20 09:13:29 | 显示全部楼层

楼主太厉害了!楼主,电影应该很好看我觉得蓝光电影网真是个好地方!
回复 支持 反对

使用道具 举报

发表于 2019-12-20 14:32:16 | 显示全部楼层

既然你诚信诚意的推荐了,那我就勉为其难的看看吧!蓝光电影网不走平凡路。
回复 支持 反对

使用道具 举报

发表于 2019-12-20 15:57:33 | 显示全部楼层

这个帖子不回对不起自己!我想我是一天也不能离开蓝光电影网
回复 支持 反对

使用道具 举报

懒得打字嘛,点击右侧快捷回复 【右侧内容,后台自定义】
您需要登录后才可以回帖 登录 | 立即加入

本版积分规则

现在加入蓝光电影网,注册一个账号
上个主题 下个主题 快速回复 收藏帖子 返回列表 客服中心 搜索

手机版|小黑屋| 蓝光电影网 |网站地图 

Copyright © 2015-2019 Comsenz Inc.  Template by 蓝光电影论坛 All Rights Reserved.

Powered by 蓝光电影网 X3.4

特别声明:本站所有资源均由网上收集而来,版权归原影音公司所有,如果侵犯了你的权益,请通知我们,我们会及时删除侵权内容.

快速回复 返回顶部 返回列表