找回密码

蓝光电影网

查看: 146|回复: 2

[喜剧] 鲨鱼啾大战乌贼娘 Mega.Shark.vs.Giant.Octopus.2009.1080p.BluRay.x264-THUGLiNE 6.56GB

[复制链接]

 成长值: 23215

发表于 7 天前 | 显示全部楼层 |阅读模式
鲨鱼啾大战乌贼娘 Mega.Shark.vs.Giant.Octopus.2009.1080p.BluRay.x264-THUGLiNE 6.56GB-1.png

译  名 鲨鱼啾大战乌贼娘 / Mega Shark vs. Giant Octopus in 3D / 噬人鲨斗大乌贼
片  名 Mega Shark vs. Giant Octopus
年  代 2009
产  地 美国
类  别 喜剧 / 动作 / 科幻 / 惊悚 / 恐怖 / 冒险
语  言 英语
上映日期 2009-05-19
IMDb评分  2.5/10 from 10150 users
IMDb链接  http://www.imdb.com/title/tt1350498
豆瓣评分 2.9/10 from 539 users
豆瓣链接 https://movie.douban.com/subject/3412916/
片  长 88分钟
导  演 Jack Perez
编  剧 Jack Perez
主  演 黛伯拉·吉布森 Deborah Gibson
       洛伦佐·拉马斯 Lorenzo Lamas
       Vic Chao
       Jonathan Nation
       马克亨斯特 Mark Hengst
       迈克尔·德 Michael Teh
       Chris Haley
       辛·劳洛 Sean Lawlor
       Dustin Harnish
       Dean Kreyling
       史蒂芬·布莱克哈特 Stephen Blackehart
       Dana DiMatteo
       迈尔斯·克兰福德 Myles Cranford
       Dana Healey
       约翰·博伦 John Bolen
       Michael Drummond
       Conrad Lihilihi
       大卫·威廉·詹姆斯·埃利奥特 David William James Elliott


标  签 科幻 | 美国 | 烂片 | 噬人鲨大战大乌贼 | 烂到好笑 | 美国电影 | 垃圾 | 2009

简  介  

  加州海岸一直都存在着两只巨大史前海洋生物,他们为了取得海洋的霸主地位而争斗了数百年,直到有一天他们被冰河所冻结。近年来,随着气温的升高,这两只史前生物又复活了,他们在海洋中依然为所欲为,人类的生存受到了威胁,人类必须要解决这样的危机,一场人与史前生物的惨烈争斗开始了。
  1. Video
  2. ID                                       : 1
  3. Format                                   : AVC
  4. Format/Info                              : Advanced Video Codec
  5. Format profile                           : High@L4
  6. Format settings                          : CABAC / 4 Ref Frames
  7. Format settings, CABAC                   : Yes
  8. Format settings, Reference frames        : 4 frames
  9. Codec ID                                 : V_MPEG4/ISO/AVC
  10. Duration                                 : 1 h 28 min
  11. Bit rate                                 : 10.4 Mb/s
  12. Width                                    : 1 920 pixels
  13. Height                                   : 1 080 pixels
  14. Display aspect ratio                     : 16:9
  15. Frame rate mode                          : Constant
  16. Frame rate                               : 23.976 FPS
  17. Color space                              : YUV
  18. Chroma subsampling                       : 4:2:0
  19. Bit depth                                : 8 bits
  20. Scan type                                : Progressive
  21. Bits/(Pixel*Frame)                       : 0.208
  22. Stream size                              : 6.29 GiB (96%)
  23. Writing library                          : x264 core 79 r1354 636f98f
  24. Encoding settings                        : cabac=1 / ref=4 / deblock=1:0:0 / analyse=0x3:0x2 / me=umh / subme=9 / psy=1 / psy_rd=1.0:0.0 / mixed_ref=1 / me_range=16 / chroma_me=1 / trellis=1 / 8x8dct=1 / cqm=0 / deadzone=21,11 / chroma_qp_offset=-2 / threads=3 / nr=0 / decimate=1 / mbaff=0 / constrained_intra=0 / bframes=3 / b_pyramid=0 / b_adapt=2 / b_bias=0 / direct=3 / wpredb=1 / wpredp=2 / keyint=250 / keyint_min=25 / scenecut=0 / rc_lookahead=40 / rc=2pass / mbtree=1 / bitrate=10354 / ratetol=1.0 / qcomp=0.60 / qpmin=10 / qpmax=51 / qpstep=4 / cplxblur=20.0 / qblur=0.5 / ip_ratio=1.40 / aq=1:1.00
  25. Default                                  : Yes
  26. Forced                                   : No

  27. Audio
  28. ID                                       : 2
  29. Format                                   : AC-3
  30. Format/Info                              : Audio Coding 3
  31. Commercial name                          : Dolby Digital
  32. Codec ID                                 : A_AC3
  33. Duration                                 : 1 h 28 min
  34. Bit rate mode                            : Constant
  35. Bit rate                                 : 224 kb/s
  36. Channel(s)                               : 6 channels
  37. Channel layout                           : L R C LFE Ls Rs
  38. Sampling rate                            : 48.0 kHz
  39. Frame rate                               : 31.250 FPS (1536 SPF)
  40. Bit depth                                : 16 bits
  41. Compression mode                         : Lossy
  42. Stream size                              : 142 MiB (2%)
  43. Language                                 : English
  44. Service kind                             : Complete Main
  45. Default                                  : Yes
  46. Forced                                   : No
复制代码

鲨鱼啾大战乌贼娘 Mega.Shark.vs.Giant.Octopus.2009.1080p.BluRay.x264-THUGLiNE 6.56GB-2.png 鲨鱼啾大战乌贼娘 Mega.Shark.vs.Giant.Octopus.2009.1080p.BluRay.x264-THUGLiNE 6.56GB-3.png 鲨鱼啾大战乌贼娘 Mega.Shark.vs.Giant.Octopus.2009.1080p.BluRay.x264-THUGLiNE 6.56GB-4.png







回复

使用道具 举报

 成长值: 1010

发表于 7 天前 | 显示全部楼层
谢谢楼主无私分享。
回复 支持 反对

使用道具 举报

发表于 3 天前 | 显示全部楼层
楼主发贴辛苦了,谢谢楼主分享!我觉得蓝光电影网是注册对了!
回复 支持 反对

使用道具 举报

懒得打字嘛,点击右侧快捷回复 【右侧内容,后台自定义】
您需要登录后才可以回帖 登录 | 立即加入

本版积分规则

现在加入蓝光电影网,注册一个账号

QQ| 手机版|小黑屋| 蓝光电影网 |网站地图

Copyright © 2015-2019 Comsenz Inc.  Template by 蓝光电影论坛 All Rights Reserved.

Powered by 蓝光电影网 X3.4

特别声明:本站所有资源均由网上收集而来,版权归原影音公司所有,如果侵犯了你的权益,请通知我们,我们会及时删除侵权内容.

快速回复 返回顶部 返回列表