找回密码

蓝光电影网

查看: 167|回复: 2

[动画] 超人之死与超人归来 The.Death.and.Return.of.Superman.2019.1080p.BluRay.x264.DTS-HD.MA.5.1-FGT 9.84GB

[复制链接]

 成长值: 23215

发表于 7 天前 | 显示全部楼层 |阅读模式
超人之死与超人归来 The.Death.and.Return.of.Superman.2019.1080p.BluRay.x264.DTS-HD.MA.5.1-FGT 9.84GB-1.png

译  名 超人之死与超人归来
片  名 The Death and Return of Superman
年  代 2019
产  地 美国
类  别 动画
语  言 英语
上映日期 2019-10-01(美国)
IMDb链接  http://www.imdb.com/title/tt11043546
豆瓣评分 0/10 from 0 users
豆瓣链接 https://movie.douban.com/subject/34845738/
片  长 166分钟
导  演 杰克·卡斯托雷纳 Jake Castorena / 刘山姆 Sam Liu
编  剧 比尔·芬格 Bill Finger
主  演 杰瑞·奥康奈尔 Jerry O'Connell
       丽贝卡·罗梅恩 Rebecca Romijn
       罗莎里奥·道森 Rosario Dawson
       耐姆比·耐姆比 Nyambi Nyambi
       乔纳森·亚当斯 Jonathan Adams
       洛奇·卡罗尔 Rocky Carroll
       特雷弗·德瓦 Trevor Devall
       保罗·伊丁 Paul Eiding
       詹妮弗·黑尔 Jennifer Hale
       查尔斯·哈尔福德 Charles Halford
       艾丽卡·鲁特雷尔 Erica Luttrell
       马克斯·迈特尔曼 Max Mittelman
       托克斯·奥拉贡多耶 Toks Olagundoye
       里克·帕斯夸隆 Rick Pasqualone
       Amanda Troop


简  介  

  The Death of Superman and Reign of the Supermen now presented as an over two-hour unabridged and seamless animated feature. Witness the no-holds-barred battle between the Justice League and an unstoppable alien force known only as Doomsday, a battle that only Superman can finish and will forever change the face of Metropolis.
  The Death and Return of Superman finds Superman in a fight to the finish when the Man of Steel becomes the only hero who can stand in the way of the monstrous creature Doomsday and his unstoppable rampage. Superman saves the planet, but not himself, leaving Earth’s citizens – and his heroic contemporaries – dealing with a world without Superman. The aftermath of Superman’s death, and the subsequent disappearance of his body, leads to a new mystery – is Superman still alive? The question is further complicated when four new super-powered individuals – Steel, Cyborg Superman, Superboy and the Eradicator – emerge to proclaim themselves as the ultimate hero. In the end, only one will be able to proclaim himself the world’s true Superman.
  1. Video
  2. ID                                       : 1
  3. Format                                   : AVC
  4. Format/Info                              : Advanced Video Codec
  5. Format profile                           : High@L4
  6. Format settings                          : CABAC / 4 Ref Frames
  7. Format settings, CABAC                   : Yes
  8. Format settings, Reference frames        : 4 frames
  9. Codec ID                                 : V_MPEG4/ISO/AVC
  10. Duration                                 : 2 h 46 min
  11. Bit rate                                 : 6 013 kb/s
  12. Width                                    : 1 920 pixels
  13. Height                                   : 1 080 pixels
  14. Display aspect ratio                     : 16:9
  15. Frame rate mode                          : Constant
  16. Frame rate                               : 23.976 (24000/1001) FPS
  17. Color space                              : YUV
  18. Chroma subsampling                       : 4:2:0
  19. Bit depth                                : 8 bits
  20. Scan type                                : Progressive
  21. Bits/(Pixel*Frame)                       : 0.121
  22. Stream size                              : 6.99 GiB (71%)
  23. Title                                    : The.Death.and.Return.of.Superman.2019.1080p.BluRay.x264.DTS-HD.MA.5.1-FGT
  24. Writing library                          : x264 core 157 r2969 d4099dd
  25. Encoding settings                        : cabac=1 / ref=4 / deblock=1:-2:-2 / analyse=0x3:0x113 / me=umh / subme=8 / psy=1 / psy_rd=1.00:0.00 / mixed_ref=1 / me_range=16 / chroma_me=1 / trellis=2 / 8x8dct=1 / cqm=0 / deadzone=21,11 / fast_pskip=1 / chroma_qp_offset=-2 / threads=34 / lookahead_threads=5 / sliced_threads=0 / nr=0 / decimate=1 / interlaced=0 / bluray_compat=0 / constrained_intra=0 / bframes=3 / b_pyramid=2 / b_adapt=2 / b_bias=0 / direct=3 / weightb=1 / open_gop=0 / weightp=2 / keyint=240 / keyint_min=24 / scenecut=40 / intra_refresh=0 / rc_lookahead=50 / rc=2pass / mbtree=1 / bitrate=6013 / ratetol=1.0 / qcomp=0.60 / qpmin=0 / qpmax=69 / qpstep=4 / cplxblur=20.0 / qblur=0.5 / ip_ratio=1.40 / aq=1:1.00
  26. Language                                 : English
  27. Default                                  : Yes
  28. Forced                                   : No

  29. Audio
  30. ID                                       : 2
  31. Format                                   : DTS XLL
  32. Format/Info                              : Digital Theater Systems
  33. Commercial name                          : DTS-HD Master Audio
  34. Codec ID                                 : A_DTS
  35. Duration                                 : 2 h 46 min
  36. Bit rate mode                            : Variable
  37. Bit rate                                 : 2 364 kb/s
  38. Channel(s)                               : 6 channels
  39. Channel layout                           : C L R Ls Rs LFE
  40. Sampling rate                            : 48.0 kHz
  41. Frame rate                               : 93.750 FPS (512 SPF)
  42. Bit depth                                : 24 bits
  43. Compression mode                         : Lossless
  44. Stream size                              : 2.75 GiB (28%)
  45. Title                                    : The.Death.and.Return.of.Superman.2019.1080p.BluRay.x264.DTS-HD.MA.5.1-FGT
  46. Language                                 : English
  47. Default                                  : Yes
  48. Forced                                   : No

  49. Text #1
  50. ID                                       : 3
  51. Format                                   : UTF-8
  52. Codec ID                                 : S_TEXT/UTF8
  53. Codec ID/Info                            : UTF-8 Plain Text
  54. Duration                                 : 2 h 45 min
  55. Bit rate                                 : 56 b/s
  56. Count of elements                        : 2327
  57. Stream size                              : 68.4 KiB (0%)
  58. Title                                    : English-SRT
  59. Language                                 : English
  60. Default                                  : Yes
  61. Forced                                   : No

  62. Text #2
  63. ID                                       : 4
  64. Format                                   : PGS
  65. Muxing mode                              : zlib
  66. Codec ID                                 : S_HDMV/PGS
  67. Codec ID/Info                            : Picture based subtitle format used on BDs/HD-DVDs
  68. Duration                                 : 2 h 45 min
  69. Bit rate                                 : 33.0 kb/s
  70. Count of elements                        : 4282
  71. Stream size                              : 39.0 MiB (0%)
  72. Title                                    : English-PGS
  73. Language                                 : English
  74. Default                                  : No
  75. Forced                                   : No

  76. Text #3
  77. ID                                       : 5
  78. Format                                   : PGS
  79. Muxing mode                              : zlib
  80. Codec ID                                 : S_HDMV/PGS
  81. Codec ID/Info                            : Picture based subtitle format used on BDs/HD-DVDs
  82. Duration                                 : 2 h 45 min
  83. Bit rate                                 : 28.9 kb/s
  84. Count of elements                        : 3734
  85. Stream size                              : 34.2 MiB (0%)
  86. Title                                    : French-PGS
  87. Language                                 : French
  88. Default                                  : No
  89. Forced                                   : No

  90. Text #4
  91. ID                                       : 6
  92. Format                                   : PGS
  93. Muxing mode                              : zlib
  94. Codec ID                                 : S_HDMV/PGS
  95. Codec ID/Info                            : Picture based subtitle format used on BDs/HD-DVDs
  96. Duration                                 : 2 h 45 min
  97. Bit rate                                 : 39.9 kb/s
  98. Count of elements                        : 4344
  99. Stream size                              : 47.2 MiB (0%)
  100. Title                                    : German-PGS
  101. Language                                 : German
  102. Default                                  : No
  103. Forced                                   : No

  104. Text #5
  105. ID                                       : 7
  106. Format                                   : PGS
  107. Muxing mode                              : zlib
  108. Codec ID                                 : S_HDMV/PGS
  109. Codec ID/Info                            : Picture based subtitle format used on BDs/HD-DVDs
  110. Duration                                 : 2 h 45 min
  111. Bit rate                                 : 30.2 kb/s
  112. Count of elements                        : 3718
  113. Stream size                              : 35.7 MiB (0%)
  114. Title                                    : Dutch-PGS
  115. Language                                 : Dutch
  116. Default                                  : No
  117. Forced                                   : No

  118. Text #6
  119. ID                                       : 8
  120. Format                                   : PGS
  121. Muxing mode                              : zlib
  122. Codec ID                                 : S_HDMV/PGS
  123. Codec ID/Info                            : Picture based subtitle format used on BDs/HD-DVDs
  124. Duration                                 : 2 h 45 min
  125. Bit rate                                 : 30.2 kb/s
  126. Count of elements                        : 3750
  127. Stream size                              : 35.8 MiB (0%)
  128. Title                                    : Spanish-PGS
  129. Language                                 : Spanish
  130. Default                                  : No
  131. Forced                                   : No

  132. Text #7
  133. ID                                       : 9
  134. Format                                   : PGS
  135. Muxing mode                              : zlib
  136. Codec ID                                 : S_HDMV/PGS
  137. Codec ID/Info                            : Picture based subtitle format used on BDs/HD-DVDs
  138. Duration                                 : 2 h 45 min
  139. Bit rate                                 : 29.7 kb/s
  140. Count of elements                        : 3720
  141. Stream size                              : 35.1 MiB (0%)
  142. Title                                    : Danish-PGS
  143. Language                                 : Danish
  144. Default                                  : No
  145. Forced                                   : No

  146. Text #8
  147. ID                                       : 10
  148. Format                                   : PGS
  149. Muxing mode                              : zlib
  150. Codec ID                                 : S_HDMV/PGS
  151. Codec ID/Info                            : Picture based subtitle format used on BDs/HD-DVDs
  152. Duration                                 : 2 h 45 min
  153. Bit rate                                 : 29.0 kb/s
  154. Count of elements                        : 3732
  155. Stream size                              : 34.4 MiB (0%)
  156. Title                                    : Finnish-PGS
  157. Language                                 : Finnish
  158. Default                                  : No
  159. Forced                                   : No

  160. Text #9
  161. ID                                       : 11
  162. Format                                   : PGS
  163. Muxing mode                              : zlib
  164. Codec ID                                 : S_HDMV/PGS
  165. Codec ID/Info                            : Picture based subtitle format used on BDs/HD-DVDs
  166. Duration                                 : 2 h 45 min
  167. Bit rate                                 : 29.5 kb/s
  168. Count of elements                        : 3732
  169. Stream size                              : 34.9 MiB (0%)
  170. Title                                    : Norwegian-PGS
  171. Language                                 : Norwegian
  172. Default                                  : No
  173. Forced                                   : No

  174. Text #10
  175. ID                                       : 12
  176. Format                                   : PGS
  177. Muxing mode                              : zlib
  178. Codec ID                                 : S_HDMV/PGS
  179. Codec ID/Info                            : Picture based subtitle format used on BDs/HD-DVDs
  180. Duration                                 : 2 h 45 min
  181. Bit rate                                 : 29.4 kb/s
  182. Count of elements                        : 3733
  183. Stream size                              : 34.8 MiB (0%)
  184. Title                                    : Swedish-PGS
  185. Language                                 : Swedish
  186. Default                                  : No
  187. Forced                                   : No

  188. Text #11
  189. ID                                       : 13
  190. Format                                   : PGS
  191. Muxing mode                              : zlib
  192. Codec ID                                 : S_HDMV/PGS
  193. Codec ID/Info                            : Picture based subtitle format used on BDs/HD-DVDs
  194. Duration                                 : 2 h 34 min
  195. Bit rate                                 : 422 b/
复制代码

超人之死与超人归来 The.Death.and.Return.of.Superman.2019.1080p.BluRay.x264.DTS-HD.MA.5.1-FGT 9.84GB-2.png 超人之死与超人归来 The.Death.and.Return.of.Superman.2019.1080p.BluRay.x264.DTS-HD.MA.5.1-FGT 9.84GB-3.png 超人之死与超人归来 The.Death.and.Return.of.Superman.2019.1080p.BluRay.x264.DTS-HD.MA.5.1-FGT 9.84GB-4.png







回复

使用道具 举报

发表于 7 天前 | 显示全部楼层

楼主太厉害了!楼主,电影应该很好看我觉得蓝光电影网真是个好地方!
回复 支持 反对

使用道具 举报

发表于 6 天前 | 显示全部楼层
是动画片还是真人电影?
回复 支持 反对

使用道具 举报

懒得打字嘛,点击右侧快捷回复 【右侧内容,后台自定义】
您需要登录后才可以回帖 登录 | 立即加入

本版积分规则

现在加入蓝光电影网,注册一个账号

QQ| 手机版|小黑屋| 蓝光电影网 |网站地图

Copyright © 2015-2019 Comsenz Inc.  Template by 蓝光电影论坛 All Rights Reserved.

Powered by 蓝光电影网 X3.4

特别声明:本站所有资源均由网上收集而来,版权归原影音公司所有,如果侵犯了你的权益,请通知我们,我们会及时删除侵权内容.

快速回复 返回顶部 返回列表