找回密码

蓝光电影网

查看: 15548|回复: 392

[犯罪片] 小丑 Joker.2019.1080p.KORSUB.HDRip.x264.AAC2.0-STUTTERSHIT 3.85GB

  [复制链接]

 成长值: 23575

发表于 2019-11-10 10:47:17 | 显示全部楼层 |阅读模式
小丑 Joker.2019.1080p.KORSUB.HDRip.x264.AAC2.0-STUTTERSHIT 3.85GB-1.png

译  名 小丑 / Joker Origin Movie / Romeo / 小丑起源电影:罗密欧
片  名 Joker
年  代 2019
产  地 美国
类  别 剧情 / 惊悚 / 犯罪
语  言 英语
上映日期 2019-08-31(威尼斯电影节) / 2019-10-04(美国)
IMDb评分  9.6/10 from 11147 users
IMDb链接  http://www.imdb.com/title/tt7286456
豆瓣评分 9.3/10 from 3694 users
豆瓣链接 https://movie.douban.com/subject/27119724/
片  长 122分钟
导  演 托德·菲利普斯 Todd Phillips
编  剧 托德·菲利普斯 Todd Phillips / 斯科特·西尔弗 Scott Silver
主  演 杰昆·菲尼克斯 Joaquin Phoenix
       罗伯特·德尼罗 Robert De Niro
       马克·马龙 Marc Maron
       莎姬·贝兹 Zazie Beetz
       谢·惠根姆 Shea Whigham
       弗兰西丝·康罗伊 Frances Conroy
       布莱恩·考伦 Bryan Callen
       布莱恩·泰里·亨利 Brian Tyree Henry
       布莱特·卡伦 Brett Cullen
       道格拉斯·霍奇斯 Douglas Hodges
       格伦·弗莱施勒 Glenn Fleshler
       比尔·坎普 Bill Camp
       乔什·帕斯 Josh Pais
       但丁·佩雷拉-奥尔森 Dante Pereira-Olson
       玛丽·凯特·马拉特 Mary Kate Malat
       迈克尔·本茨 Michael Benz
       莎珑·华盛顿 Sharon Washington
       桑德拉·詹姆斯 Sondra James
       托尼·赫德 Tony Head
       曼德拉·贝拉米 Mandela Bellamy
       乔·奥克曼 Joe Ochman
       卡尔·伦德施泰特 Carl Lundstedt
       米克·奥罗克 Mick O'Rourke
       大卫·吉布森 David Gibson
       伊万·罗萨多 Evan Rosado
       安妮·比萨比亚 Annie Pisapia
       布莱斯·科里根 Blaise Corrigan
       乔恩·道格拉斯·雷尼 Jon Douglas Rainey
       艾恩斯利·丹恩 Aynsleigh Dann
       杰森·约翰·奇卡莱塞 Jason John Cicalese
       Jolie Chan
       Isabella Ferreira
       Gary Gulman


标  签 小丑 | DC | 犯罪 | 杰昆菲尼克斯 | 美国 | 2019 | 超级英雄 | 蝙蝠侠

简  介  

  电影《小丑》以同名DC漫画角色为基础,由华纳兄弟影业公司发行,计划于2019年10月4日上映。本片的故事将独立于DCEU之外,故事背景设置在20世纪80年代,讲述了一位生活陷入困境的脱口秀喜剧演员渐渐走向精神的崩溃,在哥谭市开始了疯狂的犯罪生涯,最终成为了蝙蝠侠的宿敌“小丑”的故事。
  本片由《宿醉》的导演托德菲利普斯执导,他与编剧斯科特西尔弗一起撰写了编剧。杰昆菲尼克斯本片中饰演主人公“小丑”,其他的主演包括罗伯特德尼罗、莎姬贝兹、马克马龙等。

获奖情况  

  第76届威尼斯电影节(2019)
  主竞赛单元 金狮奖 托德·菲利普斯
  1. Video
  2. ID                                       : 1
  3. Format                                   : AVC
  4. Format/Info                              : Advanced Video Codec
  5. Format profile                           : [email protected]
  6. Format settings                          : CABAC / 4 Ref Frames
  7. Format settings, CABAC                   : Yes
  8. Format settings, Reference frames        : 4 frames
  9. Codec ID                                 : avc1
  10. Codec ID/Info                            : Advanced Video Coding
  11. Duration                                 : 1 h 55 min
  12. Bit rate                                 : 4 500 kb/s
  13. Width                                    : 1 920 pixels
  14. Height                                   : 1 040 pixels
  15. Display aspect ratio                     : 1.85:1
  16. Frame rate mode                          : Constant
  17. Frame rate                               : 30.000 FPS
  18. Color space                              : YUV
  19. Chroma subsampling                       : 4:2:0
  20. Bit depth                                : 8 bits
  21. Scan type                                : Progressive
  22. Bits/(Pixel*Frame)                       : 0.075
  23. Stream size                              : 3.64 GiB (94%)
  24. Title                                    : Joker.2019.1080p.KORSUB.HDRip.x264.AAC2.0-STUTTERSHIT
  25. Writing library                          : x264 core 148 r2795M aaa9aa8
  26. Encoding settings                        : cabac=1 / ref=4 / deblock=1:0:0 / analyse=0x3:0x113 / me=umh / subme=9 / psy=1 / psy_rd=1.00:0.00 / mixed_ref=1 / me_range=16 / chroma_me=1 / trellis=2 / 8x8dct=1 / cqm=0 / deadzone=21,11 / fast_pskip=1 / chroma_qp_offset=-2 / threads=72 / lookahead_threads=6 / sliced_threads=0 / nr=0 / decimate=1 / interlaced=0 / bluray_compat=0 / constrained_intra=0 / bframes=3 / b_pyramid=2 / b_adapt=2 / b_bias=0 / direct=3 / weightb=1 / open_gop=0 / weightp=2 / keyint=250 / keyint_min=25 / scenecut=40 / intra_refresh=0 / rc_lookahead=50 / rc=abr / mbtree=1 / bitrate=4500 / ratetol=1.0 / qcomp=0.60 / qpmin=0 / qpmax=69 / qpstep=4 / ip_ratio=1.40 / aq=1:1.00
  27. Codec configuration box                  : avcC

  28. Audio
  29. ID                                       : 2
  30. Format                                   : AAC LC
  31. Format/Info                              : Advanced Audio Codec Low Complexity
  32. Codec ID                                 : mp4a-40-2
  33. Duration                                 : 1 h 55 min
  34. Bit rate mode                            : Constant
  35. Bit rate                                 : 256 kb/s
  36. Channel(s)                               : 2 channels
  37. Channel layout                           : L R
  38. Sampling rate                            : 48.0 kHz
  39. Frame rate                               : 46.875 FPS (1024 SPF)
  40. Compression mode                         : Lossy
  41. Stream size                              : 212 MiB (5%)
  42. Title                                    : Joker.2019.1080p.KORSUB.HDRip.x264.AAC2.0-STUTTERSHIT
  43. Language                                 : English
  44. Default                                  : Yes
  45. Alternate group                          : 1
复制代码

小丑 Joker.2019.1080p.KORSUB.HDRip.x264.AAC2.0-STUTTERSHIT 3.85GB-2.png 小丑 Joker.2019.1080p.KORSUB.HDRip.x264.AAC2.0-STUTTERSHIT 3.85GB-3.png 小丑 Joker.2019.1080p.KORSUB.HDRip.x264.AAC2.0-STUTTERSHIT 3.85GB-4.png







回复

使用道具 举报

发表于 2019-11-10 11:10:29 | 显示全部楼层
谢谢分享,非常精彩!
回复 支持 反对

使用道具 举报

发表于 2019-11-10 12:18:21 | 显示全部楼层
真牛逼,都有资源了
回复 支持 反对

使用道具 举报

发表于 2019-11-10 14:06:36 | 显示全部楼层
楼主发贴辛苦了,谢谢楼主分享!我觉得蓝光电影网是注册对了!
回复 支持 反对

使用道具 举报

 成长值: 4315

发表于 2019-11-10 14:34:56 | 显示全部楼层
提示: 该帖被管理员或版主屏蔽
回复 支持 反对

使用道具 举报

发表于 2019-11-10 15:32:43 | 显示全部楼层
DDDDDDDDDDDDDDDDDD
回复 支持 反对

使用道具 举报

发表于 2019-11-10 16:15:39 | 显示全部楼层
感谢分享!!!!!!!!!!!@¥¥
回复 支持 反对

使用道具 举报

发表于 2019-11-10 17:33:47 | 显示全部楼层
楼主发贴辛苦了,谢谢楼主分享!我觉得蓝光电影网是注册对了!
回复 支持 反对

使用道具 举报

发表于 2019-11-10 17:35:36 | 显示全部楼层
这个有中文的吗
回复 支持 反对

使用道具 举报

发表于 2019-11-10 17:41:25 | 显示全部楼层
楼主发贴辛苦了,谢谢楼主分享!我觉得蓝光电影网是注册对了!
回复 支持 反对

使用道具 举报

懒得打字嘛,点击右侧快捷回复 【右侧内容,后台自定义】
您需要登录后才可以回帖 登录 | 立即加入

本版积分规则

现在加入蓝光电影网,注册一个账号
上个主题 下个主题 快速回复 收藏帖子 返回列表 客服中心 搜索

QQ| 手机版|小黑屋| 蓝光电影网 |网站地图 

Copyright © 2015-2019 Comsenz Inc.  Template by 蓝光电影论坛 All Rights Reserved.

Powered by 蓝光电影网 X3.4

特别声明:本站所有资源均由网上收集而来,版权归原影音公司所有,如果侵犯了你的权益,请通知我们,我们会及时删除侵权内容.

快速回复 返回顶部 返回列表