找回密码

蓝光电影网

查看: 24|回复: 0

[剧情片] 支离破碎 Pretty.Broken.2018.1080p.AMZN.WEBRip.DDP5.1.x264-GLI 7.25GB

[复制链接]

 成长值: 23215

发表于 2019-11-8 23:27:52 | 显示全部楼层 |阅读模式
支离破碎 Pretty.Broken.2018.1080p.AMZN.WEBRip.DDP5.1.x264-GLI 7.25GB-1.png

译  名 支离破碎 / Free for All / 美丽终结
片  名 Pretty Broken
年  代 2018
产  地 美国
类  别 剧情 / 喜剧
语  言 英语
上映日期 2018-05-01(美国)
IMDb评分  6.4/10 from 594 users
IMDb链接  http://www.imdb.com/title/tt3661570
豆瓣评分 0/10 from 0 users
豆瓣链接 https://movie.douban.com/subject/30479916/
片  长 103分钟
导  演 Brett Eichenberger
编  剧 Jill Remensnyder
主  演 Jillian Clare
       泰勒·克里斯托弗 Tyler Christopher
       斯塔西·爱德华兹 Stacy Edwards
       普雷斯顿·贝里 Preston Bailey
       亚当·钱伯斯 Adam Chambers
       皮特·霍尔登 Peter Holden
       Austin Hillebrecht
       Cosondra Sjostrom
       Jesse Lee Keeter
       特德·鲁尼 Ted Rooney
       托德·罗宾森 Todd Robinson
       Craig Michaelson
       Patrick Kwan
       Robert R. Bertrand
       Echo Bull


简  介  

  Lindsey Lou's father has gone missing on a mountaineering expedition and she's determined to find him, only she's the least qualified for the job.
  1. Video
  2. ID                                       : 1
  3. Format                                   : AVC
  4. Format/Info                              : Advanced Video Codec
  5. Format profile                           : High@L4
  6. Format settings                          : CABAC / 4 Ref Frames
  7. Format settings, CABAC                   : Yes
  8. Format settings, Reference frames        : 4 frames
  9. Codec ID                                 : V_MPEG4/ISO/AVC
  10. Duration                                 : 1 h 46 min
  11. Bit rate mode                            : Constant
  12. Bit rate                                 : 9 125 kb/s
  13. Nominal bit rate                         : 10 000 kb/s
  14. Width                                    : 1 920 pixels
  15. Height                                   : 1 080 pixels
  16. Display aspect ratio                     : 16:9
  17. Frame rate mode                          : Constant
  18. Frame rate                               : 23.976 (24000/1001) FPS
  19. Color space                              : YUV
  20. Chroma subsampling                       : 4:2:0
  21. Bit depth                                : 8 bits
  22. Scan type                                : Progressive
  23. Bits/(Pixel*Frame)                       : 0.184
  24. Stream size                              : 6.78 GiB (93%)
  25. Default                                  : Yes
  26. Forced                                   : No
  27. Color range                              : Limited
  28. Color primaries                          : BT.709
  29. Transfer characteristics                 : BT.709
  30. Matrix coefficients                      : BT.709

  31. Audio
  32. ID                                       : 2
  33. Format                                   : E-AC-3
  34. Format/Info                              : Enhanced AC-3
  35. Commercial name                          : Dolby Digital Plus
  36. Codec ID                                 : A_EAC3
  37. Duration                                 : 1 h 46 min
  38. Bit rate mode                            : Constant
  39. Bit rate                                 : 640 kb/s
  40. Channel(s)                               : 6 channels
  41. Channel layout                           : L R C LFE Ls Rs
  42. Sampling rate                            : 48.0 kHz
  43. Frame rate                               : 31.250 FPS (1536 SPF)
  44. Compression mode                         : Lossy
  45. Stream size                              : 487 MiB (7%)
  46. Language                                 : English
  47. Service kind                             : Complete Main
  48. Default                                  : Yes
  49. Forced                                   : No

  50. Text
  51. ID                                       : 3
  52. Format                                   : UTF-8
  53. Codec ID                                 : S_TEXT/UTF8
  54. Codec ID/Info                            : UTF-8 Plain Text
  55. Duration                                 : 1 h 45 min
  56. Bit rate                                 : 64 b/s
  57. Count of elements                        : 1704
  58. Stream size                              : 50.1 KiB (0%)
  59. Title                                    : SDH
  60. Language                                 : English
  61. Default                                  : Yes
  62. Forced                                   : No
复制代码

支离破碎 Pretty.Broken.2018.1080p.AMZN.WEBRip.DDP5.1.x264-GLI 7.25GB-2.png 支离破碎 Pretty.Broken.2018.1080p.AMZN.WEBRip.DDP5.1.x264-GLI 7.25GB-3.png 支离破碎 Pretty.Broken.2018.1080p.AMZN.WEBRip.DDP5.1.x264-GLI 7.25GB-4.png







回复

使用道具 举报

懒得打字嘛,点击右侧快捷回复 【右侧内容,后台自定义】
您需要登录后才可以回帖 登录 | 立即加入

本版积分规则

现在加入蓝光电影网,注册一个账号

QQ| 手机版|小黑屋| 蓝光电影网 |网站地图 

Copyright © 2015-2019 Comsenz Inc.  Template by 蓝光电影论坛 All Rights Reserved.

Powered by 蓝光电影网 X3.4

特别声明:本站所有资源均由网上收集而来,版权归原影音公司所有,如果侵犯了你的权益,请通知我们,我们会及时删除侵权内容.

快速回复 返回顶部 返回列表