找回密码

蓝光电影网

查看: 803|回复: 31

[REMUX.HEVC] 在黑暗中讲述的恐怖故事/在黑暗中说的鬼故事 Scary.Stories.to.Tell.in.the.Dark.2019.2160p.BluRay.REMUX.HEVC.DTS-HD.MA.TrueHD.5.1-FGT 59.07GB

[复制链接]

 成长值: 23215

发表于 2019-10-28 22:13:29 | 显示全部楼层 |阅读模式
在黑暗中讲述的恐怖故事/在黑暗中说的鬼故事 Scary.Stories.to.Tell.in.the.Dark.2019.2160p.BluRay.REMUX.HEVC.DTS-HD.MA.TrueHD.5.1-FGT 59.07GB-1.png

译  名 在黑暗中讲述的恐怖故事 / 在黑暗中说的鬼故事(台) / 讲鬼故(港) / 黑暗恐怖故事
片  名 Scary Stories to Tell in the Dark
年  代 2019
产  地 美国
类  别 恐怖
语  言 英语
上映日期 2019-08-09(美国)
IMDb评分  6.4/10 from 20523 users
IMDb链接  https://www.imdb.com/title/tt3387520
豆瓣评分 6.1/10 from 2971 users
豆瓣链接 https://movie.douban.com/subject/26278747/
片  长 108分钟
导  演 安德烈·艾弗道夫 André ?vredal
编  剧 约翰·奥古斯特 John August / 马库斯·邓斯坦 Marcus Dunstan / 丹·哈格曼 Dan Hageman / 凯文·哈格曼 Kevin Hageman / 帕特里克·梅尔顿 Patrick Melton / 艾尔文·史瓦兹 Alvin Schwartz / 吉尔莫·德尔·托罗 Guillermo del Toro
主  演 佐伊·玛格丽特·科莱蒂 Zoe Margaret Colletti
       迈克尔·加尔扎 Michael Garza
       加布里埃尔·拉什 Gabriel Rush
       吉尔·贝罗斯 Gil Bellows
       哈维尔·博泰特 Javier Botet
       迪恩·诺里斯 Dean Norris
       洛莱妮·图桑特 Lorraine Toussaint
       奥斯汀·艾布拉姆斯 Austin Abrams
       马克·斯达格 Mark Steger
       斯蒂芬妮·贝尔丁 Stephanie Belding
       简·莫凡特 Jane Moffat


标  签 恐怖 | 惊悚 | 美国 | 2019 | 灵异 | 改编 | 在黑暗中讲述的恐怖故事 | 科幻

简  介  

  安德烈·艾弗道夫([无名女尸])接替吉尔莫·德尔·托罗执导[在黑暗中讲述的恐怖故事],丹·哈格曼、凯文·哈格曼操刀剧本,CBS负责影片制作。而托罗将担任制片人。该片根据艾文·施瓦兹的同名小说改编,故事围绕一群年轻人展开,小镇频发死亡事件,他们必须找出背后的秘密。本片明年夏天开拍。
  1. Video #1
  2. ID                                       : 1
  3. Format                                   : HEVC
  4. Format/Info                              : High Efficiency Video Coding
  5. Format profile                           : Main High@L4@High
  6. HDR format                               : SMPTE ST 2086, HDR10 compatible
  7. Codec ID                                 : V_MPEGH/ISO/HEVC
  8. Duration                                 : 1 h 47 min
  9. Bit rate                                 : 64.2 Mb/s
  10. Width                                    : 3 840 pixels
  11. Height                                   : 2 160 pixels
  12. Display aspect ratio                     : 16:9
  13. Frame rate mode                          : Constant
  14. Frame rate                               : 23.976 (24000/1001) FPS
  15. Color space                              : YUV
  16. Chroma subsampling                       : 4:2:0 (Type 2)
  17. Bit depth                                : 10 bits
  18. Bits/(Pixel*Frame)                       : 0.323
  19. Stream size                              : 48.4 GiB (82%)
  20. Title                                    : Scary.Stories.to.Tell.in.the.Dark.2019.2160p.BluRay.REMUX.HEVC.DTS-HD.MA.TrueHD.5.1-FGT
  21. Language                                 : English
  22. Default                                  : Yes
  23. Forced                                   : No
  24. Color range                              : Limited
  25. Color primaries                          : BT.2020
  26. Transfer characteristics                 : PQ
  27. Matrix coefficients                      : BT.2020 non-constant
  28. Mastering display color primaries        : Display P3
  29. Mastering display luminance              : min: 0.0000 cd/m2, max: 1000 cd/m2
  30. Maximum Content Light Level              : 1000 cd/m2
  31. Maximum Frame-Average Light Level        : 235 cd/m2


  32. Video #2
  33. ID                                       : 2
  34. Format                                   : HEVC
  35. Format/Info                              : High Efficiency Video Coding
  36. Format profile                           : Main High@L4@High
  37. HDR format                               : SMPTE ST 2086, HDR10 compatible
  38. Codec ID                                 : V_MPEGH/ISO/HEVC
  39. Duration                                 : 1 h 47 min
  40. Bit rate                                 : 7 962 kb/s
  41. Width                                    : 1 920 pixels
  42. Height                                   : 1 080 pixels
  43. Display aspect ratio                     : 16:9
  44. Frame rate mode                          : Constant
  45. Frame rate                               : 23.976 (24000/1001) FPS
  46. Color space                              : YUV
  47. Chroma subsampling                       : 4:2:0 (Type 2)
  48. Bit depth                                : 10 bits
  49. Bits/(Pixel*Frame)                       : 0.160
  50. Stream size                              : 6.00 GiB (10%)
  51. Title                                    : Scary.Stories.to.Tell.in.the.Dark.2019.2160p.BluRay.REMUX.HEVC.DTS-HD.MA.TrueHD.5.1-FGT
  52. Language                                 : English
  53. Default                                  : No
  54. Forced                                   : No
  55. Color range                              : Limited
  56. Color primaries                          : BT.2020
  57. Transfer characteristics                 : PQ
  58. Matrix coefficients                      : BT.2020 non-constant
  59. Mastering display color primaries        : Display P3
  60. Mastering display luminance              : min: 0.0000 cd/m2, max: 1000 cd/m2

  61. Audio #1
  62. ID                                       : 3
  63. Format                                   : MLP FBA
  64. Format/Info                              : Meridian Lossless Packing FBA
  65. Commercial name                          : Dolby TrueHD
  66. Codec ID                                 : A_TRUEHD
  67. Duration                                 : 1 h 47 min
  68. Bit rate mode                            : Variable
  69. Bit rate                                 : 1 714 kb/s
  70. Maximum bit rate                         : 3 150 kb/s
  71. Channel(s)                               : 6 channels
  72. Channel layout                           : L R C LFE Ls Rs
  73. Sampling rate                            : 48.0 kHz
  74. Frame rate                               : 1 200.000 FPS (40 SPF)
  75. Compression mode                         : Lossless
  76. Stream size                              : 1.29 GiB (2%)
  77. Title                                    : Scary.Stories.to.Tell.in.the.Dark.2019.2160p.BluRay.REMUX.HEVC.DTS-HD.MA.TrueHD.5.1-FGT
  78. Language                                 : English
  79. Default                                  : Yes
  80. Forced                                   : No

  81. Audio #2
  82. ID                                       : 4
  83. Format                                   : DTS XLL
  84. Format/Info                              : Digital Theater Systems
  85. Commercial name                          : DTS-HD Master Audio
  86. Codec ID                                 : A_DTS
  87. Duration                                 : 1 h 47 min
  88. Bit rate mode                            : Variable
  89. Bit rate                                 : 3 061 kb/s
  90. Channel(s)                               : 6 channels
  91. Channel layout                           : C L R Ls Rs LFE
  92. Sampling rate                            : 48.0 kHz
  93. Frame rate                               : 93.750 FPS (512 SPF)
  94. Bit depth                                : 24 bits
  95. Compression mode                         : Lossless
  96. Stream size                              : 2.31 GiB (4%)
  97. Title                                    : Scary.Stories.to.Tell.in.the.Dark.2019.2160p.BluRay.REMUX.HEVC.DTS-HD.MA.TrueHD.5.1-FGT
  98. Language                                 : English
  99. Default                                  : No
  100. Forced                                   : No

  101. Audio #3
  102. ID                                       : 5
  103. Format                                   : AC-3
  104. Format/Info                              : Audio Coding 3
  105. Commercial name                          : Dolby Digital
  106. Codec ID                                 : A_AC3
  107. Duration                                 : 1 h 47 min
  108. Bit rate mode                            : Constant
  109. Bit rate                                 : 640 kb/s
  110. Channel(s)                               : 6 channels
  111. Channel layout                           : L R C LFE Ls Rs
  112. Sampling rate                            : 48.0 kHz
  113. Frame rate                               : 31.250 FPS (1536 SPF)
  114. Bit depth                                : 16 bits
  115. Compression mode                         : Lossy
  116. Stream size                              : 494 MiB (1%)
  117. Title                                    : Scary.Stories.to.Tell.in.the.Dark.2019.2160p.BluRay.REMUX.HEVC.DTS-HD.MA.TrueHD.5.1-FGT
  118. Language                                 : English
  119. Service kind                             : Complete Main
  120. Default                                  : No
  121. Forced                                   : No

  122. Audio #4
  123. ID                                       : 6
  124. Format                                   : AC-3
  125. Format/Info                              : Audio Coding 3
  126. Commercial name                          : Dolby Digital
  127. Codec ID                                 : A_AC3
  128. Duration                                 : 1 h 47 min
  129. Bit rate mode                            : Constant
  130. Bit rate                                 : 448 kb/s
  131. Channel(s)                               : 6 channels
  132. Channel layout                           : L R C LFE Ls Rs
  133. Sampling rate                            : 48.0 kHz
  134. Frame rate                               : 31.250 FPS (1536 SPF)
  135. Bit depth                                : 16 bits
  136. Compression mode                         : Lossy
  137. Stream size                              : 346 MiB (1%)
  138. Title                                    : Scary.Stories.to.Tell.in.the.Dark.2019.2160p.BluRay.REMUX.HEVC.DTS-HD.MA.TrueHD.5.1-FGT
  139. Language                                 : Spanish
  140. Service kind                             : Complete Main
  141. Default                                  : No
  142. Forced                                   : No

  143. Audio #5
  144. ID                                       : 7
  145. Format                                   : AC-3
  146. Format/Info                              : Audio Coding 3
  147. Commercial name                          : Dolby Digital
  148. Codec ID                                 : A_AC3
  149. Duration                                 : 1 h 47 min
  150. Bit rate mode                            : Constant
  151. Bit rate                                 : 192 kb/s
  152. Channel(s)                               : 2 channels
  153. Channel layout                           : L R
  154. Sampling rate                            : 48.0 kHz
  155. Frame rate                               : 31.250 FPS (1536 SPF)
  156. Bit depth                                : 16 bits
  157. Compression mode                         : Lossy
  158. Stream size                              : 148 MiB (0%)
  159. Title                                    : Scary.Stories.to.Tell.in.the.Dark.2019.2160p.BluRay.REMUX.HEVC.DTS-HD.MA.TrueHD.5.1-FGT
  160. Language                                 : English
  161. Service kind                             : Complete Main
  162. Default                                  : No
  163. Forced                                   : No

  164. Text #1
  165. ID                                       : 8
  166. Format                                   : UTF-8
  167. Codec ID                                 : S_TEXT/UTF8
  168. Codec ID/Info                            : UTF-8 Plain Text
  169. Duration                                 : 1 h 39 min
  170. Bit rate                                 : 45 b/s
  171. Count of elements                        : 1244
  172. Stream size                              : 32.8 KiB (0%)
  173. Title                                    : English-SRT
  174. Language                                 : English
  175. Default                                  : Yes
  176. Forced                                   : No

  177. Text #2
  178. ID                                       : 9
  179. Format                                   : PGS
  180. Muxing mode                              : zlib
  181. Codec ID                                 : S_HDMV/PGS
  182. Codec ID/Info                            : Picture based subtitle format used on BDs/HD-DVDs
  183. Duration                                 : 1 h 43 min
  184. Bit rate                                 : 30.3 kb/s
  185. Count of elements                        : 2304
  186. Stream size                              : 22.5 MiB (0%)
  187. Title                                    : English-PGS
  188. Language                                 : English
  189. Default                                  : No
  190. Forced                                   : No

  191. Text #3
  192. ID                                       : 10
  193. Format                                   : PGS
  194. Muxing mode                              : zlib
  195. Codec ID                                 : S_HDMV/PGS
  196. Codec ID/Info                            : Picture based subtitle format used on BDs/HD-DVDs
  197. Duration                                 : 1 h 43 min
  198. Bit rate                                 : 36.0 kb/s
  199. Count of elements                        : 2630
  200. Stream size                              : 26.8 MiB (0%)
  201. Title                                    : English-SDH-PGS
  202. Language                                 : English
  203. Default                                  : No
  204. Forced                                   : No

  205. Text #4
  206. ID                                       : 11
  207. Format                                   : PGS
  208. Muxing mode                              : zlib
  209. Codec ID                                 : S_HDMV/PGS
  210. Codec ID/Info                            : Picture based subtitle format used on BDs/HD-DVDs
  211. Duration                                 : 1 h 39 min
  212. Bit rate                                 : 28.2 kb/s
  213. Count of elements                        : 2194
  214. Stream size                              : 20.1 MiB (0%)
  215. Title                                    : Spanish-PGS
  216. Language                                 : Spanish
  217. Default                                  : No
  218. Forced                                   : No

  219. Text #5
  220. ID                                       : 12
  221. Format                                   : PGS
  222. Muxing mode                              : zlib
  223. Codec ID                                 : S_HDMV/PGS
  224. Codec ID/Info                            : Picture based subtitle format used on BDs/HD-DVDs
  225. Duration                                 : 1 h 37 min
  226. Bit rate                                 : 802 b/s
  227. Count of elements                        : 54
  228. Stream size                              : 574 KiB (0%)
  229. Title                                    : Spanish-FORCED-PGS
  230. Language                                 : Spanish
  231. Default                                  : No
  232. Forced                                   : No

  233. Menu
  234. 00:00:00.000                             : en:Chapter 01
  235. 00:05:44.385                             : en:Chapter 02
  236. 00:13:23.052                             : en:Chapter 03
  237. 00:18:52.131                             : en:Chapter 04
  238. 00:25:34.449                             : en:Chapter 05
  239. 00:28:31.167                             : en:Chapter 06
  240. 00:36:17.133                             : en:Chapter 07
  241. 00:47:06.156                             : en:Chapter 08
  242. 00:54:17.170                             : en:Chapter 09
  243. 00:58:36.304                             : en:Chapter 10
  244. 01:02:36.377                             : en:Chapter 11
  245. 01:11:04.343                             : en:Chapter 12
  246. 01:17:59.424                             : en:Chapter 13
  247. 01:24:33.902                             : en:Chapter 14
  248. 01:29:53.179                             : en:Chapter 15
  249. 01:38:30.154                             : en:Chapter 16
复制代码

在黑暗中讲述的恐怖故事/在黑暗中说的鬼故事 Scary.Stories.to.Tell.in.the.Dark.2019.2160p.BluRay.REMUX.HEVC.DTS-HD.MA.TrueHD.5.1-FGT 59.07GB-2.png 221031r20u231euuu27etq.png 在黑暗中讲述的恐怖故事/在黑暗中说的鬼故事 Scary.Stories.to.Tell.in.the.Dark.2019.2160p.BluRay.REMUX.HEVC.DTS-HD.MA.TrueHD.5.1-FGT 59.07GB-4.png







回复

使用道具 举报

发表于 2019-10-28 22:39:48 | 显示全部楼层
楼主发贴辛苦了,谢谢楼主分享!我觉得蓝光电影网是注册对了!
回复 支持 反对

使用道具 举报

发表于 2019-10-28 22:46:40 | 显示全部楼层
的确够惊悚!挺刺激!非常感谢热心分享!!!!
回复 支持 反对

使用道具 举报

 成长值: 1690

发表于 2019-10-29 00:28:32 | 显示全部楼层

这个帖子不回对不起自己!我想我是一天也不能离开蓝光电影网
回复 支持 反对

使用道具 举报

发表于 2019-10-29 09:12:05 | 显示全部楼层
感谢楼主精彩分享。
回复 支持 反对

使用道具 举报

发表于 2019-10-29 10:15:34 | 显示全部楼层

楼主太厉害了!楼主,电影应该很好看我觉得蓝光电影网真是个好地方!
回复 支持 反对

使用道具 举报

发表于 2019-10-29 12:29:30 | 显示全部楼层
楼主发贴辛苦了,谢谢楼主分享!我觉得蓝光电影网是注册对了!
回复 支持 反对

使用道具 举报

发表于 2019-10-29 15:49:32 | 显示全部楼层
看看再说 貌似不错
回复 支持 反对

使用道具 举报

发表于 2019-10-29 16:27:52 | 显示全部楼层
非常感谢热心分享!
回复 支持 反对

使用道具 举报

发表于 2019-10-29 18:33:30 来自手机 | 显示全部楼层
感谢楼主精彩分享。
回复 支持 反对

使用道具 举报

懒得打字嘛,点击右侧快捷回复 【右侧内容,后台自定义】
您需要登录后才可以回帖 登录 | 立即加入

本版积分规则

现在加入蓝光电影网,注册一个账号

QQ| 手机版|小黑屋| 蓝光电影网 |网站地图 

Copyright © 2015-2019 Comsenz Inc.  Template by 蓝光电影论坛 All Rights Reserved.

Powered by 蓝光电影网 X3.4

特别声明:本站所有资源均由网上收集而来,版权归原影音公司所有,如果侵犯了你的权益,请通知我们,我们会及时删除侵权内容.

快速回复 返回顶部 返回列表