找回密码

蓝光电影网

查看: 518|回复: 20

[REMUX.HEVC] 速度与激情:特别行动 Fast.and.Furious.Presents.Hobbs.and.Shaw.2019.2160p.BluRay.REMUX.HEVC.DTS-HD.MA.TrueHD.7.1.Atmos-FGT 77.41GB

[复制链接]

 成长值: 23155

发表于 2019-10-27 12:11:44 | 显示全部楼层 |阅读模式
速度与激情:特别行动 Fast.and.Furious.Presents.Hobbs.and.Shaw.2019.2160p.BluRay.REMUX.HEVC.DTS-HD.MA.TrueHD.7.1.Atmos-FGT 77.41GB-1.png

译  名 速度与激情:特别行动 / Hobbs and Shaw / The Fast and the Furious Spinoff / 狂野时速:双雄联盟(港) / 玩命关头:特别行动(台) / 速度与基情(豆友译名) / 速度与激情外传 / 速度与激情衍生片 / 霍布斯与肖
片  名 Fast & Furious Presents: Hobbs & Shaw
年  代 2019
产  地 美国
类  别 动作 / 犯罪
语  言 英语
上映日期 2019-08-02(美国) / 2019-08-23(中国大陆)
IMDb评分  6.8/10 from 64451 users
IMDb链接  http://www.imdb.com/title/tt6806448
豆瓣评分 6.4/10 from 122826 users
豆瓣链接 https://movie.douban.com/subject/27163278/
片  长 137分钟
导  演 大卫·雷奇 David Leitch
编  剧 克里斯·摩根 Chris Morgan / 盖瑞·斯科特·汤普森 Gary Scott Thompson / 德鲁·皮尔斯 Drew Pearce
主  演 道恩·强森 Dwayne Johnson
       杰森·斯坦森 Jason Statham
       伊德里斯·艾尔巴 Idris Elba
       凡妮莎·柯比 Vanessa Kirby
       艾莎·冈萨雷斯 Eiza González
       海伦·米伦 Helen Mirren
       瑞恩·雷诺兹 Ryan Reynolds
       凯文·哈特 Kevin Hart
       埃迪·马森 Eddie Marsan
       罗曼·雷恩斯 Roman Reigns
       斯蒂芬妮·沃格特 Stephanie Vogt
       维克托里娅·菲斯 Viktorija Faith
       康兰·卡萨尔 Conlan Casal
       海伦娜·福尔摩斯 Helena Holmes
       伯纳多·桑托斯 Bernardo Santos
       露丝·霍洛克斯 Ruth Horrocks
       大卫·穆梅尼 David Mumeni
       马诺伊·阿南德 Manoj Anand
       阿玛尔·阿达蒂亚 Amar Adatia
       朱利安·费罗 Julian Ferro
       丹尼尔·厄根 Daniel Eghan
       拉普洛斯·卡伦福佐斯 Lampros Kalfuntzos
       阿克塞尔·努 Axel Nu
       史蒂夫·莱温顿 Steve Lewington
       安东尼奥·曼奇诺 Antonio Mancino
       斯特拉·斯托克尔 Stella Stocker
       克利夫·柯蒂斯 Cliff Curtis


标  签 动作 | 速度与激情:特别行动 | 美国 | 飙车 | 2019 | 犯罪 | 冒险 | 赛车

简  介  

  一个是美国外交安全局的忠诚特工、身材魁梧的执法者霍布斯(强森饰),一个是前英国军事特工精英、无法无天的恶棍肖(斯坦森饰)。在2015年的《速度与激情7》中首次对峙之后,两人不论言语还是肢体都冲突不断,一直试图打倒对方。
  然而,通过高科技进行了基因增强的无政府主义者布里克斯顿(伊德瑞斯·艾尔巴饰)控制了一种可能永远改变人类命运的不为人知的生化武器,并且还打败了一位大胆优秀又特立独行的军情六处特工(曾出演《王冠》的凡妮莎·科比饰)——她恰好是肖的妹妹,为了扳倒这个世界上唯一可能比他们更厉害的敌人,这两个不共戴天的宿敌不得不联手。
  《速度与激情:特别行动》一片在《速度与激情》系列的宇宙中推开了一扇全新的大门。从洛杉矶到伦敦,从切尔诺贝利的有毒废墟到美丽的南太平洋岛国萨摩亚,本次特别行动席卷全球。
  该片由大卫·雷奇执导(《死侍2》导演),由《速度与激情》系列故事的缔造者克里斯·摩根编剧,摩根、强森、斯坦森和海拉姆·加西亚共同担纲制片。丹尼·加西亚、凯利·麦考密克、 、史蒂文·查斯曼、伊森·史密斯和安斯利·戴维斯担任监制。

  1. Video #1
  2. ID                                       : 1
  3. Format                                   : HEVC
  4. Format/Info                              : High Efficiency Video Coding
  5. Format profile                           : Main High@L4@High
  6. HDR format                               : SMPTE ST 2094 App 4, Version 1, HDR10+ Profile B compatible
  7. Codec ID                                 : V_MPEGH/ISO/HEVC
  8. Duration                                 : 2 h 16 min
  9. Bit rate                                 : 63.7 Mb/s
  10. Width                                    : 3 840 pixels
  11. Height                                   : 2 160 pixels
  12. Display aspect ratio                     : 16:9
  13. Frame rate mode                          : Constant
  14. Frame rate                               : 23.976 (24000/1001) FPS
  15. Color space                              : YUV
  16. Chroma subsampling                       : 4:2:0 (Type 2)
  17. Bit depth                                : 10 bits
  18. Bits/(Pixel*Frame)                       : 0.320
  19. Stream size                              : 60.8 GiB (79%)
  20. Title                                    : Fast.and.Furious.Presents.Hobbs.and.Shaw.2019.2160p.BluRay.REMUX.HEVC.DTS-HD.MA.TrueHD.7.1.Atmos-FGT
  21. Language                                 : English
  22. Default                                  : No
  23. Forced                                   : No
  24. Color range                              : Limited
  25. Color primaries                          : BT.2020
  26. Transfer characteristics                 : PQ
  27. Matrix coefficients                      : BT.2020 non-constant
  28. Mastering display color primaries        : Display P3
  29. Mastering display luminance              : min: 0.0050 cd/m2, max: 4000 cd/m2
  30. Maximum Content Light Level              : 1000 cd/m2
  31. Maximum Frame-Average Light Level        : 419 cd/m2

  32. Video #2
  33. ID                                       : 2
  34. Format                                   : HEVC
  35. Format/Info                              : High Efficiency Video Coding
  36. Format profile                           : Main High@L4@High
  37. HDR format                               : SMPTE ST 2086, HDR10 compatible
  38. Codec ID                                 : V_MPEGH/ISO/HEVC
  39. Duration                                 : 2 h 16 min
  40. Bit rate                                 : 6 988 kb/s
  41. Width                                    : 1 920 pixels
  42. Height                                   : 1 080 pixels
  43. Display aspect ratio                     : 16:9
  44. Frame rate mode                          : Constant
  45. Frame rate                               : 23.976 (24000/1001) FPS
  46. Color space                              : YUV
  47. Chroma subsampling                       : 4:2:0 (Type 2)
  48. Bit depth                                : 10 bits
  49. Bits/(Pixel*Frame)                       : 0.141
  50. Stream size                              : 6.67 GiB (9%)
  51. Title                                    : Fast.and.Furious.Presents.Hobbs.and.Shaw.2019.2160p.BluRay.REMUX.HEVC.DTS-HD.MA.TrueHD.7.1.Atmos-FGT
  52. Language                                 : English
  53. Default                                  : No
  54. Forced                                   : No
  55. Color range                              : Limited
  56. Color primaries                          : BT.2020
  57. Transfer characteristics                 : PQ
  58. Matrix coefficients                      : BT.2020 non-constant
  59. Mastering display color primaries        : Display P3
  60. Mastering display luminance              : min: 0.0050 cd/m2, max: 4000 cd/m2

  61. Audio #1
  62. ID                                       : 3
  63. Format                                   : MLP FBA 16-ch
  64. Format/Info                              : Meridian Lossless Packing FBA with 16-channel presentation
  65. Commercial name                          : Dolby TrueHD with Dolby Atmos
  66. Codec ID                                 : A_TRUEHD
  67. Duration                                 : 2 h 16 min
  68. Bit rate mode                            : Variable
  69. Bit rate                                 : 3 141 kb/s
  70. Maximum bit rate                         : 5 394 kb/s
  71. Channel(s)                               : 8 channels
  72. Channel layout                           : L R C LFE Ls Rs Lb Rb
  73. Sampling rate                            : 48.0 kHz
  74. Frame rate                               : 1 200.000 FPS (40 SPF)
  75. Compression mode                         : Lossless
  76. Stream size                              : 3.00 GiB (4%)
  77. Title                                    : Fast.and.Furious.Presents.Hobbs.and.Shaw.2019.2160p.BluRay.REMUX.HEVC.DTS-HD.MA.TrueHD.7.1.Atmos-FGT
  78. Language                                 : English
  79. Default                                  : Yes
  80. Forced                                   : No
  81. Number of dynamic objects                : 11
  82. Bed channel count                        : 1 channel
  83. Bed channel configuration                : LFE

  84. Audio #2
  85. ID                                       : 4
  86. Format                                   : DTS XLL
  87. Format/Info                              : Digital Theater Systems
  88. Commercial name                          : DTS-HD Master Audio
  89. Codec ID                                 : A_DTS
  90. Duration                                 : 2 h 16 min
  91. Bit rate mode                            : Variable
  92. Bit rate                                 : 3 995 kb/s
  93. Channel(s)                               : 8 channels
  94. Channel layout                           : C L R LFE Lb Rb Lss Rss
  95. Sampling rate                            : 48.0 kHz
  96. Frame rate                               : 93.750 FPS (512 SPF)
  97. Bit depth                                : 24 bits
  98. Compression mode                         : Lossless
  99. Stream size                              : 3.81 GiB (5%)
  100. Title                                    : Fast.and.Furious.Presents.Hobbs.and.Shaw.2019.2160p.BluRay.REMUX.HEVC.DTS-HD.MA.TrueHD.7.1.Atmos-FGT
  101. Default                                  : No
  102. Forced                                   : No

  103. Audio #3
  104. ID                                       : 5
  105. Format                                   : AC-3
  106. Format/Info                              : Audio Coding 3
  107. Commercial name                          : Dolby Digital
  108. Codec ID                                 : A_AC3
  109. Duration                                 : 2 h 16 min
  110. Bit rate mode                            : Constant
  111. Bit rate                                 : 448 kb/s
  112. Channel(s)                               : 6 channels
  113. Channel layout                           : L R C LFE Ls Rs
  114. Sampling rate                            : 48.0 kHz
  115. Frame rate                               : 31.250 FPS (1536 SPF)
  116. Bit depth                                : 16 bits
  117. Compression mode                         : Lossy
  118. Stream size                              : 438 MiB (1%)
  119. Title                                    : Fast.and.Furious.Presents.Hobbs.and.Shaw.2019.2160p.BluRay.REMUX.HEVC.DTS-HD.MA.TrueHD.7.1.Atmos-FGT
  120. Language                                 : English
  121. Service kind                             : Complete Main
  122. Default                                  : No
  123. Forced                                   : No

  124. Audio #4
  125. ID                                       : 6
  126. Format                                   : E-AC-3
  127. Format/Info                              : Enhanced AC-3
  128. Commercial name                          : Dolby Digital Plus
  129. Format profile                           : Blu-ray Disc
  130. Codec ID                                 : A_EAC3
  131. Duration                                 : 2 h 16 min
  132. Bit rate mode                            : Constant
  133. Bit rate                                 : 768 kb/s
  134. Channel(s)                               : 8 channels
  135. Channel layout                           : L R C LFE Ls Rs Lb Rb
  136. Sampling rate                            : 48.0 kHz
  137. Frame rate                               : 31.250 FPS (1536 SPF)
  138. Compression mode                         : Lossy
  139. Stream size                              : 751 MiB (1%)
  140. Title                                    : Fast.and.Furious.Presents.Hobbs.and.Shaw.2019.2160p.BluRay.REMUX.HEVC.DTS-HD.MA.TrueHD.7.1.Atmos-FGT
  141. Language                                 : Spanish
  142. Service kind                             : Complete Main
  143. Default                                  : No
  144. Forced                                   : No

  145. Audio #5
  146. ID                                       : 7
  147. Format                                   : AC-3
  148. Format/Info                              : Audio Coding 3
  149. Commercial name                          : Dolby Digital
  150. Codec ID                                 : A_AC3
  151. Duration                                 : 2 h 16 min
  152. Bit rate mode                            : Constant
  153. Bit rate                                 : 448 kb/s
  154. Channel(s)                               : 6 channels
  155. Channel layout                           : L R C LFE Ls Rs
  156. Sampling rate                            : 48.0 kHz
  157. Frame rate                               : 31.250 FPS (1536 SPF)
  158. Bit depth                                : 16 bits
  159. Compression mode                         : Lossy
  160. Stream size                              : 438 MiB (1%)
  161. Title                                    : Fast.and.Furious.Presents.Hobbs.and.Shaw.2019.2160p.BluRay.REMUX.HEVC.DTS-HD.MA.TrueHD.7.1.Atmos-FGT
  162. Language                                 : Spanish
  163. Service kind                             : Complete Main
  164. Default                                  : No
  165. Forced                                   : No

  166. Audio #6
  167. ID                                       : 8
  168. Format                                   : E-AC-3
  169. Format/Info                              : Enhanced AC-3
  170. Commercial name                          : Dolby Digital Plus
  171. Format profile                           : Blu-ray Disc
  172. Codec ID                                 : A_EAC3
  173. Duration                                 : 2 h 16 min
  174. Bit rate mode                            : Constant
  175. Bit rate                                 : 768 kb/s
  176. Channel(s)                               : 8 channels
  177. Channel layout                           : L R C LFE Ls Rs Lb Rb
  178. Sampling rate                            : 48.0 kHz
  179. Frame rate                               : 31.250 FPS (1536 SPF)
  180. Compression mode                         : Lossy
  181. Stream size                              : 751 MiB (1%)
  182. Title                                    : Fast.and.Furious.Presents.Hobbs.and.Shaw.2019.2160p.BluRay.REMUX.HEVC.DTS-HD.MA.TrueHD.7.1.Atmos-FGT
  183. Language                                 : French
  184. Service kind                             : Complete Main
  185. Default                                  : No
  186. Forced                                   : No

  187. Audio #7
  188. ID                                       : 9
  189. Format                                   : AC-3
  190. Format/Info                              : Audio Coding 3
  191. Commercial name                          : Dolby Digital
  192. Codec ID                                 : A_AC3
  193. Duration                                 : 2 h 16 min
  194. Bit rate mode                            : Constant
  195. Bit rate                                 : 448 kb/s
  196. Channel(s)                               : 6 channels
  197. Channel layout                           : L R C LFE Ls Rs
  198. Sampling rate                            : 48.0 kHz
  199. Frame rate                               : 31.250 FPS (1536 SPF)
  200. Bit depth                                : 16 bits
  201. Compression mode                         : Lossy
  202. Stream size                              : 438 MiB (1%)
  203. Title                                    : Fast.and.Furious.Presents.Hobbs.and.Shaw.2019.2160p.BluRay.REMUX.HEVC.DTS-HD.MA.TrueHD.7.1.Atmos-FGT
  204. Language                                 : French
  205. Service kind                             : Complete Main
  206. Default                                  : No
  207. Forced                                   : No

  208. Audio #8
  209. ID                                       : 10
  210. Format                                   : AC-3
  211. Format/Info                              : Audio Coding 3
  212. Commercial name                          : Dolby Digital
  213. Codec ID                                 : A_AC3
  214. Duration                                 : 2 h 16 min
  215. Bit rate mode                            : Constant
  216. Bit rate                                 : 192 kb/s
  217. Channel(s)                               : 2 channels
  218. Channel layout                           : L R
  219. Sampling rate                            : 48.0 kHz
  220. Frame rate                               : 31.250 FPS (1536 SPF)
  221. Bit depth                                : 16 bits
  222. Compression mode                         : Lossy
  223. Stream size                              : 188 MiB (0%)
  224. Title                                    : Fast.and.Furious.Presents.Hobbs.and.Shaw.2019.2160p.BluRay.REMUX.HEVC.DTS-HD.MA.TrueHD.7.1.Atmos-FGT
  225. Language                                 : English
  226. Service kind                             : Complete Main
  227. Default                                  : No
  228. Forced                                   : No

  229. Text #1
  230. ID                                       : 11
  231. Format                                   : UTF-8
  232. Codec ID                                 : S_TEXT/UTF8
  233. Codec ID/Info                            : UTF-8 Plain Text
  234. Duration                                 : 2 h 16 min
  235. Bit rate                                 : 71 b/s
  236. Count of elements                        : 1916
  237. Stream size                              : 71.7 KiB (0%)
  238. Title                                    : English-SRT
  239. Language                                 : English
  240. Default                                  : Yes
  241. Forced                                   : No

  242. Text #2
  243. ID                                       : 12
  244. Format                                   : PGS
  245. Muxing mode                              : zlib
  246. Codec ID                                 : S_HDMV/PGS
  247. Codec ID/Info                            : Picture based subtitle format used on BDs/HD-DVDs
  248. Duration                                 : 2 h 16 min
  249. Bit rate                                 : 53.8 kb/s
  250. Count of elements                        : 4408
  251. Stream size                              : 52.6 MiB (0%)
  252. Title                                    : English-PGS
  253. Language                                 : English
  254. Default                                  : No
  255. Forced                                   : No

  256. Text #3
  257. ID                                       : 13
  258. Format                                   : PGS
  259. Muxing mode                              : zlib
  260. Codec ID                                 : S_HDMV/PGS
  261. Codec ID/Info                            : Picture based subtitle format used on BDs/HD-DVDs
  262. Duration                                 : 2 h 16 min
  263. Bit rate                                 : 41.7 kb/s
  264. Count of elements                        : 3334
  265. Stream size                              : 40.6 MiB (0%)
  266. Title                                    : Spanosh-PGS
  267. Language                                 : Spanish
  268. Default                                  : No
  269. Forced                                   : No

  270. Text #4
  271. ID                                       : 14
  272. Format                                   : PGS
  273. Muxing mode                              : zlib
  274. Codec ID                                 : S_HDMV/PGS
  275. Codec ID/Info                            : Picture based subtitle format used on BDs/HD-DVDs
  276. Duration                                 : 2 h 16 min
  277. Bit rate                                 : 35.9 kb/s
  278. Count of elements                        : 3309
  279. Stream size                              : 34.9 MiB (0%)
  280. Title                                    : French-PGS
  281. Language                                 : French
  282. Default                                  : No
  283. Forced                                   : No

  284. Text #5
  285. ID                                       : 15
  286. Format                                   : PGS
  287. Muxing mode                              : zlib
  288. Codec ID                                 : S_HDMV/PGS
  289. Codec ID/Info                            : Picture based subtitle format used on BDs/HD-DVDs
  290. Duration                                 : 2 h 14 min
  291. Bit rate                                 : 556 b/s
  292. Count of elements                        : 56
  293. Stream size                              : 549 KiB (0%)
  294. Title                                    : Spanish-FORCED-PGS
  295. Language                                 : Spanish
  296. Default                                  : No
  297. Forced                                   : No

  298. Text #6
  299. ID                                       : 16
  300. Format                                   : PGS
  301. Muxing mode                              : zlib
  302. Codec ID                                 : S_HDMV/PGS
  303. Codec ID/Info                            : Picture based subtitle format used on BDs/HD-DVDs
  304. Duration                                 : 2 h 14 min
  305. Bit rate                                 : 957 b/s
  306. Count of elements                        : 98
  307. Stream size                              : 946 KiB (0%)
  308. Title                                    : French-FORCED-PGS
  309. Language                                 : French
  310. Default                                  : No
  311. Forced                                   : No

  312. Menu
  313. 00:00:00.000                             : en:Chapter 01
  314. 00:04:57.880                             : en:Chapter 02
  315. 00:13:43.489                             : en:Chapter 03
  316. 00:19:21.451                             : en:Chapter 04
  317. 00:26:45.979                             : en:Chapter 05
  318. 00:35:41.514                             : en:Chapter 06
  319. 00:40:12.952                             : en:Chapter 07
  320. 00:46:22.029                             : en:Chapter 08
  321. 00:51:33.840                             : en:Chapter 09
  322. 00:57:51.801                             : en:Chapter 10
  323. 01:01:53.000                             : en:Chapter 11
  324. 01:08:45.162                             : en:Chapter 12
  325. 01:14:22.833                             : en:Chapter 13
  326. 01:19:48.074                             : en:Chapter 14
  327. 01:24:59.177                             : en:Chapter 15
  328. 01:32:58.114                             : en:Chapter 16
  329. 01:38:49.214                             : en:Chapter 17
  330. 01:46:32.928                             : en:Chapter 18
  331. 01:53:29.594                             : en:Chapter 19
  332. 02:01:14.809                             : en:Chapter 20
复制代码


速度与激情:特别行动 Fast.and.Furious.Presents.Hobbs.and.Shaw.2019.2160p.BluRay.REMUX.HEVC.DTS-HD.MA.TrueHD.7.1.Atmos-FGT 77.41GB-2.png 121044as4kgstkgvgis2kp.png 速度与激情:特别行动 Fast.and.Furious.Presents.Hobbs.and.Shaw.2019.2160p.BluRay.REMUX.HEVC.DTS-HD.MA.TrueHD.7.1.Atmos-FGT 77.41GB-4.png








回复

使用道具 举报

发表于 2019-10-27 12:15:55 | 显示全部楼层
楼主发贴辛苦了,谢谢楼主分享!我觉得蓝光电影网是注册对了!
回复 支持 反对

使用道具 举报

发表于 2019-10-27 12:49:38 | 显示全部楼层
哎 又是会员才能下
回复 支持 反对

使用道具 举报

发表于 2019-10-27 13:35:33 来自手机 | 显示全部楼层
感谢感谢感谢感谢
回复 支持 反对

使用道具 举报

发表于 2019-10-27 15:24:57 | 显示全部楼层
楼主发贴辛苦了,谢谢楼主分享!我觉得蓝光电影网是注册对了!
回复 支持 反对

使用道具 举报

发表于 2019-10-27 18:29:59 | 显示全部楼层
楼主发贴辛苦了,谢谢楼主分享!我觉得蓝光电影网是注册对了!
回复 支持 反对

使用道具 举报

发表于 2019-10-27 18:51:52 | 显示全部楼层
trexstrdxytcrd6rcdvytbguujo,kpo
回复 支持 反对

使用道具 举报

发表于 2019-10-27 19:10:16 | 显示全部楼层
谢谢楼主分享!
回复 支持 反对

使用道具 举报

发表于 2019-10-27 21:35:11 | 显示全部楼层
谢谢楼主分享
回复 支持 反对

使用道具 举报

 成长值: 2775

发表于 2019-10-28 00:14:42 | 显示全部楼层
楼主发贴辛苦了,谢谢楼主分享!我觉得蓝光电影网是注册对了!
回复 支持 反对

使用道具 举报

懒得打字嘛,点击右侧快捷回复 【右侧内容,后台自定义】
您需要登录后才可以回帖 登录 | 立即加入

本版积分规则

现在加入蓝光电影网,注册一个账号

QQ| 手机版|小黑屋| 蓝光电影网 |网站地图

Copyright © 2015-2019 Comsenz Inc.  Template by 蓝光电影论坛 All Rights Reserved.

Powered by 蓝光电影网 X3.4

特别声明:本站所有资源均由网上收集而来,版权归原影音公司所有,如果侵犯了你的权益,请通知我们,我们会及时删除侵权内容.

快速回复 返回顶部 返回列表