找回密码

蓝光电影网

查看: 351|回复: 7

[8bit.SDR] 魔发奇缘/缠结 Tangled.2010.2160p.BluRay.x264.8bit.SDR.TrueHD.7.1.Atmos-SWTYBLZ 16.33GB

[复制链接]

 成长值: 23245

发表于 2019-10-27 10:47:26 | 显示全部楼层 |阅读模式
魔发奇缘/缠结 Tangled.2010.2160p.BluRay.x264.8bit.SDR.TrueHD.7.1.Atmos-SWTYBLZ 16.33GB-1.png

译  名 魔发奇缘 / 缠结 / 莴苣公主 / 长发公主 / 长发姑娘
片  名 Tangled
年  代 2010
产  地 美国
类  别 喜剧 / 动画 / 冒险
语  言 英语
上映日期 2010-11-24(美国) / 2011-02-03(中国台湾)
IMDb评分  7.7/10 from 374579 users
IMDb链接  https://www.imdb.com/title/tt0398286
豆瓣评分 8.2/10 from 167650 users
豆瓣链接 https://movie.douban.com/subject/1863766/
片  长 100分钟
导  演 内森·格雷诺 Nathan Greno / 拜伦·霍华德 Byron Howard
编  剧 雅各布·格林 Jacob Grimm / 威廉·格林 Wilhelm Grimm / 丹·福格尔曼 Dan Fogelman
主  演 曼迪·摩尔 Mandy Moore
       扎克瑞·莱维 Zachary Levi
       唐纳·墨菲 Donna Murphy
       朗·普尔曼 Ron Perlman
       迈克·康纳·盖尼 M.C. Gainey
       杰弗里·塔伯 Jeffrey Tambor
       布拉德·加内特 Brad Garrett
       保罗·F·汤普金斯 Paul F. Tompkins
       理查德·基尔 Richard Kiel
       德莱尼·罗斯·斯坦 Delaney Rose Stein
       内森·格雷诺 Nathan Greno
       拜伦·霍华德 Byron Howard
       蒂姆·梅尔滕斯 Tim Mertens


标  签 动画 | 迪斯尼 | 童话 | 美国 | 爱情 | 迪士尼 | 喜剧 | 2010

简  介  

  女巫Gothel(唐纳·墨菲 Donna Murphy 配音)靠着一朵神奇的金色花朵保持青春。王后重病,国王派人找到了这朵金花给王后治病,王后病愈,生下了一个一头金发的小女孩Rapunzel(曼迪·摩尔 Mandy Moore 配音)。女巫失去金花,却发现小公主的金发有 着同样的魔力,因此她偷走Rapunzel,把她关到森林中的一座没有楼梯高塔之上。
  十八年后,Rapunzel在女巫的抚养下长成一个拥有长长金发的美人,她越发渴望外面的世界,女巫为了自己青春永驻,想方设法把Rapunzel留在身边。一天,窃贼Flynn(扎克瑞·莱维 Zachary Levi 配音)盗取公主王冠后逃入森林,在好奇心趋势下登上了这座神秘的高塔,误打误撞见到了塔中的长发公主。在Flynn的陪伴下,Rapunzel走下高塔,开始了人生和爱情的大冒险。
  本片为迪斯尼公司第50部动画长片,改编自经典格林童话《长发公主》,由迪士尼元老级画师格兰·基恩首次担任动画片导演。

获奖情况  

  第83届奥斯卡金像奖(2011)
  最佳原创歌曲(提名) 格伦·斯莱特 / 艾伦·曼肯

  第68届金球奖(2011)
  电影类 最佳动画长片(提名)
  电影类 最佳原创歌曲(提名) 格伦·斯莱特 / 艾伦·曼肯

  第38届动画安妮奖(2011)
  最佳动画长片(提名)
  最佳编剧(提名) 丹·福格尔曼

  第9届华盛顿影评人协会奖(2010)
  最佳动画片(提名)

  第15届圣地亚哥影评人协会奖(2010)
  最佳动画片(提名)

  第23届芝加哥影评人协会奖(2010)
  最佳动画片(提名)

  第10届凤凰城影评人协会奖(2010)
  最佳原创歌曲(提名) 格伦·斯莱特 / 艾伦·曼肯
  最佳动画片(提名)

  第13届美国青少年选择奖(2011)
  最佳动画配音(提名) 扎克瑞·莱维
  1. Video
  2. ID                                       : 1
  3. Format                                   : AVC
  4. Format/Info                              : Advanced Video Codec
  5. Format profile                           : High@L4
  6. Format settings                          : CABAC / 5 Ref Frames
  7. Format settings, CABAC                   : Yes
  8. Format settings, Reference frames        : 5 frames
  9. Codec ID                                 : V_MPEG4/ISO/AVC
  10. Duration                                 : 1 h 40 min
  11. Bit rate                                 : 14.7 Mb/s
  12. Width                                    : 3 840 pixels
  13. Height                                   : 2 160 pixels
  14. Display aspect ratio                     : 16:9
  15. Frame rate mode                          : Constant
  16. Frame rate                               : 23.976 (24000/1001) FPS
  17. Color space                              : YUV
  18. Chroma subsampling                       : 4:2:0
  19. Bit depth                                : 8 bits
  20. Scan type                                : Progressive
  21. Bits/(Pixel*Frame)                       : 0.074
  22. Stream size                              : 10.3 GiB (63%)
  23. Title                                    : Tangled.2010.2160p.BluRay.x264.8bit.SDR.TrueHD.7.1.Atmos-SWTYBLZ
  24. Writing library                          : x264 core 157 r2935 545de2f
  25. Encoding settings                        : cabac=1 / ref=5 / deblock=1:1:1 / analyse=0x3:0x113 / me=umh / subme=10 / psy=1 / psy_rd=0.40:0.00 / mixed_ref=1 / me_range=48 / chroma_me=1 / trellis=2 / 8x8dct=1 / cqm=0 / deadzone=21,11 / fast_pskip=1 / chroma_qp_offset=-2 / threads=48 / lookahead_threads=5 / sliced_threads=0 / nr=0 / decimate=0 / interlaced=0 / bluray_compat=0 / constrained_intra=0 / bframes=5 / b_pyramid=2 / b_adapt=2 / b_bias=0 / direct=3 / weightb=1 / open_gop=0 / weightp=2 / keyint=250 / keyint_min=23 / scenecut=40 / intra_refresh=0 / rc_lookahead=50 / rc=crf / mbtree=1 / crf=16.0 / qcomp=0.60 / qpmin=0 / qpmax=69 / qpstep=4 / ip_ratio=1.40 / aq=1:0.60
  26. Default                                  : Yes
  27. Forced                                   : No

  28. Audio #1
  29. ID                                       : 2
  30. Format                                   : MLP FBA 16-ch
  31. Format/Info                              : Meridian Lossless Packing FBA with 16-channel presentation
  32. Commercial name                          : Dolby TrueHD with Dolby Atmos
  33. Codec ID                                 : A_TRUEHD
  34. Duration                                 : 1 h 40 min
  35. Bit rate mode                            : Variable
  36. Bit rate                                 : 7 753 kb/s
  37. Maximum bit rate                         : 9 480 kb/s
  38. Channel(s)                               : 8 channels
  39. Channel layout                           : L R C LFE Ls Rs Lb Rb
  40. Sampling rate                            : 48.0 kHz
  41. Frame rate                               : 1 200.000 FPS (40 SPF)
  42. Compression mode                         : Lossless
  43. Stream size                              : 5.43 GiB (33%)
  44. Title                                    : Tangled.2010.2160p.BluRay.x264.8bit.SDR.TrueHD.7.1.Atmos-SWTYBLZ
  45. Language                                 : English
  46. Default                                  : Yes
  47. Forced                                   : No
  48. Number of dynamic objects                : 13
  49. Bed channel count                        : 1 channel
  50. Bed channel configuration                : LFE

  51. Audio #2
  52. ID                                       : 3
  53. Format                                   : AC-3
  54. Format/Info                              : Audio Coding 3
  55. Commercial name                          : Dolby Digital
  56. Codec ID                                 : A_AC3
  57. Duration                                 : 1 h 40 min
  58. Bit rate mode                            : Constant
  59. Bit rate                                 : 640 kb/s
  60. Channel(s)                               : 6 channels
  61. Channel layout                           : L R C LFE Ls Rs
  62. Sampling rate                            : 48.0 kHz
  63. Frame rate                               : 31.250 FPS (1536 SPF)
  64. Bit depth                                : 16 bits
  65. Compression mode                         : Lossy
  66. Stream size                              : 459 MiB (3%)
  67. Title                                    : Tangled.2010.2160p.BluRay.x264.8bit.SDR.TrueHD.7.1.Atmos-SWTYBLZ
  68. Language                                 : English
  69. Service kind                             : Complete Main
  70. Default                                  : No
  71. Forced                                   : No

  72. Text #1
  73. ID                                       : 4
  74. Format                                   : UTF-8
  75. Codec ID                                 : S_TEXT/UTF8
  76. Codec ID/Info                            : UTF-8 Plain Text
  77. Duration                                 : 1 h 39 min
  78. Bit rate                                 : 42 b/s
  79. Count of elements                        : 918
  80. Stream size                              : 30.8 KiB (0%)
  81. Title                                    : English-SRT
  82. Language                                 : English
  83. Default                                  : Yes
  84. Forced                                   : No

  85. Text #2
  86. ID                                       : 5
  87. Format                                   : PGS
  88. Muxing mode                              : zlib
  89. Codec ID                                 : S_HDMV/PGS
  90. Codec ID/Info                            : Picture based subtitle format used on BDs/HD-DVDs
  91. Duration                                 : 1 h 39 min
  92. Bit rate                                 : 34.2 kb/s
  93. Count of elements                        : 2538
  94. Stream size                              : 24.3 MiB (0%)
  95. Title                                    : English-PGS
  96. Language                                 : English
  97. Default                                  : No
  98. Forced                                   : No

  99. Text #3
  100. ID                                       : 6
  101. Format                                   : PGS
  102. Muxing mode                              : zlib
  103. Codec ID                                 : S_HDMV/PGS
  104. Codec ID/Info                            : Picture based subtitle format used on BDs/HD-DVDs
  105. Duration                                 : 1 h 39 min
  106. Bit rate                                 : 28.2 kb/s
  107. Count of elements                        : 1850
  108. Stream size                              : 20.0 MiB (0%)
  109. Title                                    : French-PGS
  110. Language                                 : French
  111. Default                                  : No
  112. Forced                                   : No

  113. Text #4
  114. ID                                       : 7
  115. Format                                   : PGS
  116. Muxing mode                              : zlib
  117. Codec ID                                 : S_HDMV/PGS
  118. Codec ID/Info                            : Picture based subtitle format used on BDs/HD-DVDs
  119. Duration                                 : 1 h 39 min
  120. Bit rate                                 : 25.1 kb/s
  121. Count of elements                        : 1814
  122. Stream size                              : 17.8 MiB (0%)
  123. Title                                    : Spanish-PGS
  124. Language                                 : Spanish
  125. Default                                  : No
  126. Forced                                   : No

  127. Text #5
  128. ID                                       : 8
  129. Format                                   : PGS
  130. Muxing mode                              : zlib
  131. Codec ID                                 : S_HDMV/PGS
  132. Codec ID/Info                            : Picture based subtitle format used on BDs/HD-DVDs
  133. Duration                                 : 1 h 30 min
  134. Bit rate                                 : 24.4 kb/s
  135. Count of elements                        : 2014
  136. Stream size                              : 15.7 MiB (0%)
  137. Title                                    : Japanese-PGS
  138. Language                                 : Japanese
  139. Default                                  : No
  140. Forced                                   : No

  141. Menu
  142. 00:00:00.000                             : en:Chapter 01
  143. 00:08:20.958                             : en:Chapter 02
  144. 00:15:43.275                             : en:Chapter 03
  145. 00:24:41.021                             : en:Chapter 04
  146. 00:34:41.788                             : en:Chapter 05
  147. 00:42:30.881                             : en:Chapter 06
  148. 00:50:25.939                             : en:Chapter 07
  149. 00:59:21.641                             : en:Chapter 08
  150. 01:10:35.522                             : en:Chapter 09
  151. 01:19:23.216                             : en:Chapter 10
  152. 01:25:22.033                             : en:Chapter 11
  153. 01:31:20.808                             : en:Chapter 12
复制代码

魔发奇缘/缠结 Tangled.2010.2160p.BluRay.x264.8bit.SDR.TrueHD.7.1.Atmos-SWTYBLZ 16.33GB-2.png c6b97d03f944e.png 魔发奇缘/缠结 Tangled.2010.2160p.BluRay.x264.8bit.SDR.TrueHD.7.1.Atmos-SWTYBLZ 16.33GB-4.png 魔发奇缘/缠结 Tangled.2010.2160p.BluRay.x264.8bit.SDR.TrueHD.7.1.Atmos-SWTYBLZ 16.33GB-5.png 魔发奇缘/缠结 Tangled.2010.2160p.BluRay.x264.8bit.SDR.TrueHD.7.1.Atmos-SWTYBLZ 16.33GB-6.png 魔发奇缘/缠结 Tangled.2010.2160p.BluRay.x264.8bit.SDR.TrueHD.7.1.Atmos-SWTYBLZ 16.33GB-7.png 魔发奇缘/缠结 Tangled.2010.2160p.BluRay.x264.8bit.SDR.TrueHD.7.1.Atmos-SWTYBLZ 16.33GB-8.png







回复

使用道具 举报

发表于 2019-10-27 10:51:37 | 显示全部楼层
谢谢分享!!!!!
回复

使用道具 举报

发表于 2019-10-27 11:09:31 | 显示全部楼层

既然你诚信诚意的推荐了,那我就勉为其难的看看吧!蓝光电影网不走平凡路。
回复 支持 反对

使用道具 举报

发表于 2019-10-28 08:45:03 | 显示全部楼层
楼主发贴辛苦了,谢谢楼主分享!我觉得蓝光电影网是注册对了!
回复 支持 反对

使用道具 举报

发表于 2019-10-28 10:32:15 | 显示全部楼层

这东西我收了!谢谢楼主!蓝光电影网真好!
回复 支持 反对

使用道具 举报

发表于 2019-10-28 15:59:29 | 显示全部楼层

这东西我收了!谢谢楼主!蓝光电影网真好!
回复 支持 反对

使用道具 举报

发表于 2019-10-29 14:52:47 | 显示全部楼层
又是一个适合孩子看的!谢谢分享
回复 支持 反对

使用道具 举报

发表于 2019-10-29 21:24:44 | 显示全部楼层
楼主发贴辛苦了,谢谢楼主分享!我觉得蓝光电影网是注册对了!
回复 支持 反对

使用道具 举报

懒得打字嘛,点击右侧快捷回复 【右侧内容,后台自定义】
您需要登录后才可以回帖 登录 | 立即加入

本版积分规则

现在加入蓝光电影网,注册一个账号

QQ| 手机版|小黑屋| 蓝光电影网 |网站地图 

Copyright © 2015-2019 Comsenz Inc.  Template by 蓝光电影论坛 All Rights Reserved.

Powered by 蓝光电影网 X3.4

特别声明:本站所有资源均由网上收集而来,版权归原影音公司所有,如果侵犯了你的权益,请通知我们,我们会及时删除侵权内容.

快速回复 返回顶部 返回列表