找回密码

蓝光电影网

查看: 241|回复: 7

[REMUX.HEVC] 绿野仙踪/OZ国历险记 The.Wizard.of.Oz.1939.2160p.BluRay.REMUX.HEVC.DTS-HD.MA.5.1-FGT 50.44GB

[复制链接]

 成长值: 23155

发表于 2019-10-25 16:44:44 | 显示全部楼层 |阅读模式
绿野仙踪/OZ国历险记 The.Wizard.of.Oz.1939.2160p.BluRay.REMUX.HEVC.DTS-HD.MA.5.1-FGT 50.44GB-1.png

译  名 绿野仙踪 / OZ国历险记 / The Wizard of Oz 3D / IMAX / Wizard of Oz
片  名 The Wizard of Oz
年  代 1939
产  地 美国
类  别 歌舞 / 奇幻 / 冒险
语  言 英语
上映日期 1939-08-12(威斯康星首映) / 1939-08-25(美国)
IMDb评分  8.0/10 from 356752 users
IMDb链接  https://www.imdb.com/title/tt0032138
豆瓣评分 8.2/10 from 32644 users
豆瓣链接 https://movie.douban.com/subject/1292625/
片  长 101分钟
导  演 维克多·弗莱明 Victor Fleming
编  剧 Noel Langley / Florence Ryerson / Edgar Allan Woolf
主  演 朱迪·加兰 Judy Garland
       Frank Morgan
       雷·博尔格 Ray Bolger
       Bert Lahr
       杰克·黑利 Jack Haley
       碧莉·伯克 Billie Burke
       玛格丽特·哈米尔顿 Margaret Hamilton


标  签 美国 | 童话 | 歌舞 | 经典 | 美国电影 | 魔幻 | 儿童 | 歌舞片

简  介  

  小女孩桃乐丝·盖尔(Judy Garland 饰)随叔叔、婶婶住在堪萨斯州中部的农场。某天,龙卷风袭来,为找到心爱的小狗,桃乐丝没能及时躲藏。强大的龙卷风将桃乐丝藏身的小木屋卷入空中。不知经过多久,小木屋终于落到地面,而且把一个邪恶的女巫也给压死了。在善良的北方女巫的指点下,桃乐丝和小狗启程前往魔法师奥兹(Frank Morgan 饰)所居住的翡翠城,祈求他能帮助自己回家。路上,桃乐丝遇见了没有脑子的稻草人(Ray Bolger 饰)、缺少心脏的铁皮人(Jack Haley 饰)以及胆小如鼠的狮子(Bert Lahr 饰),为了实现各自的愿望,他们随桃乐丝一同前行。一路上经历千难万险,更有邪恶的西方女巫处处阻挠,他们的愿望最终能否实现呢?
  本片根据美国同名童话改编。

获奖情况  

  第12届奥斯卡金像奖(1940)
  最佳影片(提名)
  彩色片最佳摄影(提名) 哈罗德·罗森
  最佳特效(提名) 道格拉斯·希勒 / A. Arnold Gillespie
  最佳艺术指导(提名) William A. Horning / 塞德里克·吉本森
  最佳原创配乐 Herbert Stothart
  最佳原创歌曲 E.Y. Harburg / 哈罗德·阿伦
  1. Video #1
  2. ID                                       : 1
  3. Format                                   : HEVC
  4. Format/Info                              : High Efficiency Video Coding
  5. Format profile                           : Main High@L4@High
  6. HDR format                               : SMPTE ST 2094 App 4, Version 1, HDR10+ Profile B compatible
  7. Codec ID                                 : V_MPEGH/ISO/HEVC
  8. Duration                                 : 1 h 41 min
  9. Bit rate                                 : 63.3 Mb/s
  10. Width                                    : 3 840 pixels
  11. Height                                   : 2 160 pixels
  12. Display aspect ratio                     : 16:9
  13. Frame rate mode                          : Constant
  14. Frame rate                               : 23.976 (24000/1001) FPS
  15. Color space                              : YUV
  16. Chroma subsampling                       : 4:2:0 (Type 2)
  17. Bit depth                                : 10 bits
  18. Bits/(Pixel*Frame)                       : 0.318
  19. Stream size                              : 45.0 GiB (89%)
  20. Title                                    : The.Wizard.of.Oz.1939.2160p.BluRay.REMUX.HEVC.DTS-HD.MA.5.1-FGT
  21. Language                                 : English
  22. Default                                  : No
  23. Forced                                   : No
  24. Color range                              : Limited
  25. Color primaries                          : BT.2020
  26. Transfer characteristics                 : PQ
  27. Matrix coefficients                      : BT.2020 non-constant
  28. Mastering display color primaries        : Display P3
  29. Mastering display luminance              : min: 0.0050 cd/m2, max: 4000 cd/m2
  30. Maximum Content Light Level              : 2000 cd/m2
  31. Maximum Frame-Average Light Level        : 76 cd/m2

  32. Video #2
  33. ID                                       : 2
  34. Format                                   : HEVC
  35. Format/Info                              : High Efficiency Video Coding
  36. Format profile                           : Main High@L4@High
  37. HDR format                               : SMPTE ST 2086, HDR10 compatible
  38. Codec ID                                 : V_MPEGH/ISO/HEVC
  39. Duration                                 : 1 h 41 min
  40. Bit rate                                 : 63.1 kb/s
  41. Width                                    : 1 920 pixels
  42. Height                                   : 1 080 pixels
  43. Display aspect ratio                     : 16:9
  44. Frame rate mode                          : Constant
  45. Frame rate                               : 23.976 (24000/1001) FPS
  46. Color space                              : YUV
  47. Chroma subsampling                       : 4:2:0 (Type 2)
  48. Bit depth                                : 10 bits
  49. Bits/(Pixel*Frame)                       : 0.001
  50. Stream size                              : 45.9 MiB (0%)
  51. Title                                    : The.Wizard.of.Oz.1939.2160p.BluRay.REMUX.HEVC.DTS-HD.MA.5.1-FGT
  52. Default                                  : No
  53. Forced                                   : No
  54. Color range                              : Limited
  55. Color primaries                          : BT.2020
  56. Transfer characteristics                 : PQ
  57. Matrix coefficients                      : BT.2020 non-constant
  58. Mastering display color primaries        : Display P3
  59. Mastering display luminance              : min: 0.0050 cd/m2, max: 4000 cd/m2

  60. Audio #1
  61. ID                                       : 3
  62. Format                                   : DTS XLL
  63. Format/Info                              : Digital Theater Systems
  64. Commercial name                          : DTS-HD Master Audio
  65. Codec ID                                 : A_DTS
  66. Duration                                 : 1 h 41 min
  67. Bit rate mode                            : Variable
  68. Bit rate                                 : 3 679 kb/s
  69. Channel(s)                               : 6 channels
  70. Channel layout                           : C L R Ls Rs LFE
  71. Sampling rate                            : 48.0 kHz
  72. Frame rate                               : 93.750 FPS (512 SPF)
  73. Bit depth                                : 24 bits
  74. Compression mode                         : Lossless
  75. Stream size                              : 2.61 GiB (5%)
  76. Title                                    : The.Wizard.of.Oz.1939.2160p.BluRay.REMUX.HEVC.DTS-HD.MA.5.1-FGT
  77. Language                                 : English
  78. Default                                  : Yes
  79. Forced                                   : No

  80. Audio #2
  81. ID                                       : 4
  82. Format                                   : AC-3
  83. Format/Info                              : Audio Coding 3
  84. Commercial name                          : Dolby Digital
  85. Codec ID                                 : A_AC3
  86. Duration                                 : 1 h 41 min
  87. Bit rate mode                            : Constant
  88. Bit rate                                 : 640 kb/s
  89. Channel(s)                               : 6 channels
  90. Channel layout                           : L R C LFE Ls Rs
  91. Sampling rate                            : 48.0 kHz
  92. Frame rate                               : 31.250 FPS (1536 SPF)
  93. Bit depth                                : 16 bits
  94. Compression mode                         : Lossy
  95. Stream size                              : 466 MiB (1%)
  96. Title                                    : The.Wizard.of.Oz.1939.2160p.BluRay.REMUX.HEVC.DTS-HD.MA.5.1-FGT
  97. Language                                 : French
  98. Service kind                             : Complete Main
  99. Default                                  : No
  100. Forced                                   : No

  101. Audio #3
  102. ID                                       : 5
  103. Format                                   : AC-3
  104. Format/Info                              : Audio Coding 3
  105. Commercial name                          : Dolby Digital
  106. Codec ID                                 : A_AC3
  107. Duration                                 : 1 h 41 min
  108. Bit rate mode                            : Constant
  109. Bit rate                                 : 640 kb/s
  110. Channel(s)                               : 6 channels
  111. Channel layout                           : L R C LFE Ls Rs
  112. Sampling rate                            : 48.0 kHz
  113. Frame rate                               : 31.250 FPS (1536 SPF)
  114. Bit depth                                : 16 bits
  115. Compression mode                         : Lossy
  116. Stream size                              : 466 MiB (1%)
  117. Title                                    : The.Wizard.of.Oz.1939.2160p.BluRay.REMUX.HEVC.DTS-HD.MA.5.1-FGT
  118. Language                                 : German
  119. Service kind                             : Complete Main
  120. Default                                  : No
  121. Forced                                   : No

  122. Audio #4
  123. ID                                       : 6
  124. Format                                   : AC-3
  125. Format/Info                              : Audio Coding 3
  126. Commercial name                          : Dolby Digital
  127. Codec ID                                 : A_AC3
  128. Duration                                 : 1 h 41 min
  129. Bit rate mode                            : Constant
  130. Bit rate                                 : 192 kb/s
  131. Channel(s)                               : 1 channel
  132. Channel layout                           : C
  133. Sampling rate                            : 48.0 kHz
  134. Frame rate                               : 31.250 FPS (1536 SPF)
  135. Bit depth                                : 16 bits
  136. Compression mode                         : Lossy
  137. Stream size                              : 140 MiB (0%)
  138. Title                                    : The.Wizard.of.Oz.1939.2160p.BluRay.REMUX.HEVC.DTS-HD.MA.5.1-FGT
  139. Language                                 : Spanish
  140. Service kind                             : Complete Main
  141. Default                                  : No
  142. Forced                                   : No

  143. Audio #5
  144. ID                                       : 7
  145. Format                                   : AC-3
  146. Format/Info                              : Audio Coding 3
  147. Commercial name                          : Dolby Digital
  148. Codec ID                                 : A_AC3
  149. Duration                                 : 1 h 41 min
  150. Bit rate mode                            : Constant
  151. Bit rate                                 : 192 kb/s
  152. Channel(s)                               : 2 channels
  153. Channel layout                           : L R
  154. Sampling rate                            : 48.0 kHz
  155. Frame rate                               : 31.250 FPS (1536 SPF)
  156. Bit depth                                : 16 bits
  157. Compression mode                         : Lossy
  158. Stream size                              : 140 MiB (0%)
  159. Title                                    : The.Wizard.of.Oz.1939.2160p.BluRay.REMUX.HEVC.DTS-HD.MA.5.1-FGT
  160. Language                                 : Spanish
  161. Service kind                             : Complete Main
  162. Default                                  : No
  163. Forced                                   : No

  164. Audio #6
  165. ID                                       : 8
  166. Format                                   : AC-3
  167. Format/Info                              : Audio Coding 3
  168. Commercial name                          : Dolby Digital
  169. Codec ID                                 : A_AC3
  170. Duration                                 : 1 h 41 min
  171. Bit rate mode                            : Constant
  172. Bit rate                                 : 192 kb/s
  173. Channel(s)                               : 1 channel
  174. Channel layout                           : C
  175. Sampling rate                            : 48.0 kHz
  176. Frame rate                               : 31.250 FPS (1536 SPF)
  177. Bit depth                                : 16 bits
  178. Compression mode                         : Lossy
  179. Stream size                              : 140 MiB (0%)
  180. Title                                    : The.Wizard.of.Oz.1939.2160p.BluRay.REMUX.HEVC.DTS-HD.MA.5.1-FGT
  181. Language                                 : Czech
  182. Service kind                             : Complete Main
  183. Default                                  : No
  184. Forced                                   : No

  185. Audio #7
  186. ID                                       : 9
  187. Format                                   : AC-3
  188. Format/Info                              : Audio Coding 3
  189. Commercial name                          : Dolby Digital
  190. Codec ID                                 : A_AC3
  191. Duration                                 : 1 h 41 min
  192. Bit rate mode                            : Constant
  193. Bit rate                                 : 192 kb/s
  194. Channel(s)                               : 1 channel
  195. Channel layout                           : C
  196. Sampling rate                            : 48.0 kHz
  197. Frame rate                               : 31.250 FPS (1536 SPF)
  198. Bit depth                                : 16 bits
  199. Compression mode                         : Lossy
  200. Stream size                              : 140 MiB (0%)
  201. Title                                    : The.Wizard.of.Oz.1939.2160p.BluRay.REMUX.HEVC.DTS-HD.MA.5.1-FGT
  202. Language                                 : Hungarian
  203. Service kind                             : Complete Main
  204. Default                                  : No
  205. Forced                                   : No

  206. Audio #8
  207. ID                                       : 10
  208. Format                                   : AC-3
  209. Format/Info                              : Audio Coding 3
  210. Commercial name                          : Dolby Digital
  211. Codec ID                                 : A_AC3
  212. Duration                                 : 1 h 41 min
  213. Bit rate mode                            : Constant
  214. Bit rate                                 : 192 kb/s
  215. Channel(s)                               : 1 channel
  216. Channel layout                           : C
  217. Sampling rate                            : 48.0 kHz
  218. Frame rate                               : 31.250 FPS (1536 SPF)
  219. Bit depth                                : 16 bits
  220. Compression mode                         : Lossy
  221. Stream size                              : 140 MiB (0%)
  222. Title                                    : The.Wizard.of.Oz.1939.2160p.BluRay.REMUX.HEVC.DTS-HD.MA.5.1-FGT
  223. Language                                 : Polish
  224. Service kind                             : Complete Main
  225. Default                                  : No
  226. Forced                                   : No

  227. Audio #9
  228. ID                                       : 11
  229. Format                                   : AC-3
  230. Format/Info                              : Audio Coding 3
  231. Commercial name                          : Dolby Digital
  232. Codec ID                                 : A_AC3
  233. Duration                                 : 1 h 41 min
  234. Bit rate mode                            : Constant
  235. Bit rate                                 : 640 kb/s
  236. Channel(s)                               : 6 channels
  237. Channel layout                           : L R C LFE Ls Rs
  238. Sampling rate                            : 48.0 kHz
  239. Frame rate                               : 31.250 FPS (1536 SPF)
  240. Bit depth                                : 16 bits
  241. Compression mode                         : Lossy
  242. Stream size                              : 466 MiB (1%)
  243. Title                                    : The.Wizard.of.Oz.1939.2160p.BluRay.REMUX.HEVC.DTS-HD.MA.5.1-FGT
  244. Language                                 : Russian
  245. Service kind                             : Complete Main
  246. Default                                  : No
  247. Forced                                   : No

  248. Audio #10
  249. ID                                       : 12
  250. Format                                   : AC-3
  251. Format/Info                              : Audio Coding 3
  252. Commercial name                          : Dolby Digital
  253. Codec ID                                 : A_AC3
  254. Duration                                 : 1 h 41 min
  255. Bit rate mode                            : Constant
  256. Bit rate                                 : 640 kb/s
  257. Channel(s)                               : 6 channels
  258. Channel layout                           : L R C LFE Ls Rs
  259. Sampling rate                            : 48.0 kHz
  260. Frame rate                               : 31.250 FPS (1536 SPF)
  261. Bit depth                                : 16 bits
  262. Compression mode                         : Lossy
  263. Stream size                              : 466 MiB (1%)
  264. Title                                    : The.Wizard.of.Oz.1939.2160p.BluRay.REMUX.HEVC.DTS-HD.MA.5.1-FGT
  265. Language                                 : Thai
  266. Service kind                             : Complete Main
  267. Default                                  : No
  268. Forced                                   : No

  269. Audio #11
  270. ID                                       : 13
  271. Format                                   : AC-3
  272. Format/Info                              : Audio Coding 3
  273. Commercial name                          : Dolby Digital
  274. Codec ID                                 : A_AC3
  275. Duration                                 : 1 h 41 min
  276. Bit rate mode                            : Constant
  277. Bit rate                                 : 192 kb/s
  278. Channel(s)                               : 2 channels
  279. Channel layout                           : L R
  280. Sampling rate                            : 48.0 kHz
  281. Frame rate                               : 31.250 FPS (1536 SPF)
  282. Bit depth                                : 16 bits
  283. Compression mode                         : Lossy
  284. Stream size                              : 140 MiB (0%)
  285. Title                                    : The.Wizard.of.Oz.1939.2160p.BluRay.REMUX.HEVC.DTS-HD.MA.5.1-FGT
  286. Language                                 : English
  287. Service kind                             : Complete Main
  288. Default                                  : No
  289. Forced                                   : No

  290. Text #1
  291. ID                                       : 14
  292. Format                                   : UTF-8
  293. Codec ID                                 : S_TEXT/UTF8
  294. Codec ID/Info                            : UTF-8 Plain Text
  295. Duration                                 : 1 h 39 min
  296. Bit rate                                 : 66 b/s
  297. Count of elements                        : 1386
  298. Stream size                              : 48.5 KiB (0%)
  299. Title                                    : English-SRT
  300. Language                                 : English
  301. Default                                  : Yes
  302. Forced                                   : No

  303. Text #2
  304. ID                                       : 15
  305. Format                                   : PGS
  306. Muxing mode                              : zlib
  307. Codec ID                                 : S_HDMV/PGS
  308. Codec ID/Info                            : Picture based subtitle format used on BDs/HD-DVDs
  309. Duration                                 : 1 h 39 min
  310. Bit rate                                 : 38.6 kb/s
  311. Count of elements                        : 3000
  312. Stream size                              : 27.4 MiB (0%)
  313. Title                                    : English-PGS
  314. Language                                 : English
  315. Default                                  : No
  316. Forced                                   : No

  317. Text #3
  318. ID                                       : 16
  319. Format                                   : PGS
  320. Muxing mode                              : zlib
  321. Codec ID                                 : S_HDMV/PGS
  322. Codec ID/Info                            : Picture based subtitle format used on BDs/HD-DVDs
  323. Duration                                 : 1 h 41 min
  324. Bit rate                                 : 29.7 kb/s
  325. Count of elements                        : 2578
  326. Stream size                              : 21.6 MiB (0%)
  327. Title                                    : French-PGS
  328. Language                                 : French
  329. Default                                  : No
  330. Forced                                   : No

  331. Text #4
  332. ID                                       : 17
  333. Format                                   : PGS
  334. Muxing mode                              : zlib
  335. Codec ID                                 : S_HDMV/PGS
  336. Codec ID/Info                            : Picture based subtitle format used on BDs/HD-DVDs
  337. Duration                                 : 1 h 39 min
  338. Bit rate                                 : 38.1 kb/s
  339. Count of elements                        : 3058
  340. Stream size                              : 27.1 MiB (0%)
  341. Title                                    : German-PGS
  342. Language                                 : German
  343. Default                                  : No
  344. Forced                                   : No

  345. Text #5
  346. ID                                       : 18
  347. Format                                   : PGS
  348. Muxing mode                              : zlib
  349. Codec ID                                 : S_HDMV/PGS
  350. Codec ID/Info                            : Picture based subtitle format used on BDs/HD-DVDs
  351. Duration                                 : 1 h 40 min
  352. Bit rate                                 : 31.8 kb/s
  353. Count of elements                        : 2778
  354. Stream size                              : 23.0 MiB (0%)
  355. Title                                    : Spanish-PGS
  356. Language                                 : Spanish
  357. Default                                  : No
  358. Forced                                   : No

  359. Text #6
  360. ID                                       : 19
  361. Format                                   : PGS
  362. Muxing mode                              : zlib
  363. Codec ID                                 : S_HDMV/PGS
  364. Codec ID/Info                            : Picture based subtitle format used on BDs/HD-DVDs
  365. Duration                                 : 1 h 39 min
  366. Bit rate                                 : 30.0 kb/s
  367. Count of elements                        : 2102
  368. Stream size                              : 21.4 MiB (0%)
  369. Title                                    : Dutch-PGS
  370. Language                                 : Dutch
  371. Default                                  : No
  372. Forced                                   : No

  373. Text #7
  374. ID                                       : 20
  375. Format                                   : PGS
  376. Muxing mode                              : zlib
  377. Codec ID                                 : S_HDMV/PGS
  378. Codec ID/Info                            : Picture based subtitle format used on BDs/HD-DVDs
  379. Duration                                 : 1 h 41 min
  380. Bit rate                                 : 30.8 kb/s
  381. Count of elements                        : 2850
  382. Stream size                              : 22.3 MiB (0%)
  383. Title                                    : Chinese-PGS
  384. Language                                 : Chinese
  385. Default                                  : No
  386. Forced                                   : No

  387. Text #8
  388. ID                                       : 21
  389. Format                                   : PGS
  390. Muxing mode                              : zlib
  391. Codec ID                                 : S_HDMV/PGS
  392. Codec ID/Info                            : Picture based subtitle format used on BDs/HD-DVDs
  393. Duration                                 : 1 h 41 min
  394. Bit rate                                 : 30.6 kb/s
  395. Count of elements                        : 2830
  396. Stream size                              : 22.2 MiB (0%)
  397. Title                                    : Chinese-PGS
  398. Language                                 : Chinese
  399. Default                                  : No
  400. Forced                                   : No

  401. Text #9
  402. ID                                       : 22
  403. Format                                   : PGS
  404. Muxing mode                              : zlib
  405. Codec ID                                 : S_HDMV/PGS
  406. Codec ID/Info                            : Picture based subtitle format used on BDs/HD-DVDs
  407. Duration                                 : 1 h 41 min
  408. Bit rate                                 : 25.0 kb/s
  409. Count of elements                        : 2850
  410. Stream size                              : 18.1 MiB (0%)
  411. Title                                    : Korean-PGS
  412. Language                                 : Korean
  413. Default                                  : No
  414. Forced                                   : No

  415. Text #10
  416. ID                                       : 23
  417. Format                                   : PGS
  418. Muxing mode                              : zlib
  419. Codec ID                                 : S_HDMV/PGS
  420. Codec ID/Info                            : Picture based subtitle format used on BDs/HD-DVDs
  421. Duration                                 : 1 h 41 min
  422. Bit rate                                 : 32.8 kb/s
  423. Count of elements                        : 2794
  424. Stream size                              : 23.7 MiB (0%)
  425. Title                                    : Spanish-PGS
  426. Language                                 : Spanish
  427. Default                                  : No
  428. Forced                                   : No

  429. Text #11
  430. ID                                       : 24
  431. Format                                   : PGS
  432. Muxing mode                              : zlib
  433. Codec ID                                 : S_HDMV/PGS
  434. Codec ID/Info                            : Picture based subtitle format used on BDs/HD-DVDs
  435. Duration                                 : 1 h 40 min
  436. Bit rate                                 : 17.5 kb/s
  437. Count of elements                        : 2658
  438. Stream size                              : 12.6 MiB (0%)
  439. Title                                    : Arabic-PGS
  440. Language                                 : Arabic
  441. Default                                  : No
  442. Forced                                   : No

  443. Text #12
  444. ID                                       : 25
  445. Format                                   : PGS
  446. Muxing mode                              : zlib
  447. Codec ID                                 : S_HDMV/PGS
  448. Codec ID/Info                            : Picture based subtitle format used on BDs/HD-DVDs
  449. Duration                                 : 1 h 40 min
  450. Bit rate                                 : 28.2 kb/s
  451. Count of elements                        : 2662
  452. Stream size                              : 20.4 MiB (0%)
  453. Title                                    : Czech-PGS
  454. Language                                 : Czech
  455. Default                                  : No
  456. Forced                                   : No

  457. Text #13
  458. ID                                       : 26
  459. Format                                   : PGS
  460. Muxing mode                              : zlib
  461. Codec ID                                 : S_HDMV/PGS
  462. Codec ID/Info                            : Picture based subtitle format used on BDs/HD-DVDs
  463. Duration                                 : 1 h 40 min
  464. Bit rate                                 : 30.2 kb/s
  465. Count of elements                        : 2802
  466. Stream size                              : 21.8 MiB (0%)
  467. Title                                    : Hungarian-PGS
  468. Language                                 : Hungarian
  469. Default                                  : No
  470. Forced                                   : No

  471. Text #14
  472. ID                                       : 27
  473. Format                                   : PGS
  474. Muxing mode                              : zlib
  475. Codec ID                                 : S_HDMV/PGS
  476. Codec ID/Info                            : Picture based subtitle format used on BDs/HD-DVDs
  477. Duration                                 : 1 h 40 min
  478. Bit rate                                 : 29.2 kb/s
  479. Count of elements                        : 2800
  480. Stream size                              : 21.1 MiB (0%)
  481. Title                                    : Polish-PGS
  482. Language                                 : Polish
  483. Default                                  : No
  484. Forced                                   : No

  485. Text #15
  486. ID                                       : 28
  487. Format                                   : PGS
  488. Muxing mode                              : zlib
  489. Codec ID                                 : S_HDMV/PGS
  490. Codec ID/Info                            : Picture based subtitle format used on BDs/HD-DVDs
  491. Duration                                 : 1 h 40 min
  492. Bit rate                                 : 32.6 kb/s
  493. Count of elements                        : 2802
  494. Stream size                              : 23.6 MiB (0%)
  495. Title                                    : Russian-PGS
  496. Language                                 : Russian
  497. Default                                  : No
  498. Forced                                   : No

  499. Text #16
  500. ID                                       : 29
  501. Format                                   : PGS
  502. Muxing mode                              : zlib
  503. Codec ID                                 : S_HDMV/PGS
  504. Codec ID/Info                            : Picture based subtitle format used on BDs/HD-DVDs
  505. Duration                                 : 1 h 41 min
  506. Bit rate                                 : 33.4 kb/s
  507. Count of elements                        : 2884
  508. Stream size                              : 24.2 MiB (0%)
  509. Title                                    : Thai-PGS
  510. Language                                 : Thai
  511. Default                                  : No
  512. Forced                                   : No

  513. Text #17
  514. ID                                       : 30
  515. Format                                   : PGS
  516. Muxing mode                              : zlib
  517. Codec ID                                 : S_HDMV/PGS
  518. Codec ID/Info                            : Picture based subtitle format used on BDs/HD-DVDs
  519. Duration                                 : 1 h 11 min
  520. Bit rate                                 : 547 b/s
  521. Count of elements                        : 26
  522. Stream size                              : 287 KiB (0%)
  523. Title                                    : French-FORCED-PGS
  524. Language                                 : French
  525. Default                                  : No
  526. Forced                                   : No

  527. Text #18
  528. ID                                       : 31
  529. Format                                   : PGS
  530. Muxing mode                              : zlib
  531. Codec ID                                 : S_HDMV/PGS
  532. Codec ID/Info                            : Picture based subtitle format used on BDs/HD-DVDs
  533. Duration                                 : 1 h 11 min
  534. Bit rate                                 : 383 b/s
  535. Count of elements                        : 16
  536. Stream size                              : 201 KiB (0%)
  537. Title                                    : German-FORCED-PGS
  538. Language                                 : German
  539. Default                                  : No
  540. Forced                                   : No

  541. Text #19
  542. ID                                       : 32
  543. Format                                   : PGS
  544. Muxing mode                              : zlib
  545. Codec ID                                 : S_HDMV/PGS
  546. Codec ID/Info                            : Picture based subtitle format used on BDs/HD-DVDs
  547. Duration                                 : 1 h 11 min
  548. Bit rate                                 : 578 b/s
  549. Count of elements                        : 24
  550. Stream size                              : 303 KiB (0%)
  551. Title                                    : Spanish-FORCED-PGS
  552. Language                                 : Spanish
  553. Default                                  : No
  554. Forced                                   : No

  555. Menu
  556. 00:00:00.000                             : en:Chapter 01
  557. 00:01:35.303                             : en:Chapter 02
  558. 00:01:54.823                             : en:Chapter 03
  559. 00:05:48.348                             : en:Chapter 04
  560. 00:08:02.064                             : en:Chapter 05
  561. 00:10:20.578                             : en:Chapter 06
  562. 00:11:02.370                             : en:Chapter 07
  563. 00:12:46.390                             : en:Chapter 08
  564. 00:15:05.988                             : en:Chapter 09
  565. 00:17:01.186                             : en:Chapter 10
  566. 00:19:26.456                             : en:Chapter 11
  567. 00:22:58.752                             : en:Chapter 12
  568. 00:23:43.338                             : en:Chapter 13
  569. 00:24:41.563                             : en:Chapter 14
  570. 00:27:35.153                             : en:Chapter 15
  571. 00:28:03.264                             : en:Chapter 16
  572. 00:29:06.619                             : en:Chapter 17
  573. 00:31:05.530                             : en:Chapter 18
  574. 00:32:34.661                             : en:Chapter 19
  575. 00:33:13.908                             : en:Chapter 20
  576. 00:34:03.750                             : en:Chapter 21
  577. 00:36:32.315                             : en:Chapter 22
  578. 00:38:38.607                             : en:Chapter 23
  579. 00:39:15.603                             : en:Chapter 24
  580. 00:40:29.343                             : en:Chapter 25
  581. 00:42:46.021                             : en:Chapter 26
  582. 00:45:55.294                             : en:Chapter 27
  583. 00:47:00.317                             : en:Chapter 28
  584. 00:47:56.123                             : en:Chapter 29
  585. 00:49:04.816                             : en:Chapter 30
  586. 00:52:07.124                             : en:Chapter 31
  587. 00:52:51.042                             : en:Chapter 32
  588. 00:53:53.605                             : en:Chapter 33
  589. 00:57:20.019                             : en:Chapter 34
  590. 00:58:23.500                             : en:Chapter 35
  591. 01:00:34.213                             : en:Chapter 36
  592. 01:02:14.021                             : en:Chapter 37
  593. 01:03:58.417                             : en:Chapter 38
  594. 01:08:45.663                             : en:Chapter 39
  595. 01:12:44.735                             : en:Chapter 40
  596. 01:14:31.133                             : en:Chapter 41
  597. 01:16:11.400                             : en:Chapter 42
  598. 01:17:24.973                             : en:Chapter 43
  599. 01:20:38.959                             : en:Chapter 44
  600. 01:23:19.494                             : en:Chapter 45
  601. 01:24:50.835                             : en:Chapter 46
  602. 01:25:55.066                             : en:Chapter 47
  603. 01:26:59.255                             : en:Chapter 48
  604. 01:28:23.214                             : en:Chapter 49
  605. 01:29:23.274                             : en:Chapter 50
  606. 01:33:47.913                             : en:Chapter 51
  607. 01:35:50.244                             : en:Chapter 52
  608. 01:37:33.264                             : en:Chapter 53
  609. 01:38:39.455                             : en:Chapter 54
  610. 01:41:23.952                             : en:Chapter 55
复制代码

绿野仙踪/OZ国历险记 The.Wizard.of.Oz.1939.2160p.BluRay.REMUX.HEVC.DTS-HD.MA.5.1-FGT 50.44GB-2.png 绿野仙踪/OZ国历险记 The.Wizard.of.Oz.1939.2160p.BluRay.REMUX.HEVC.DTS-HD.MA.5.1-FGT 50.44GB-3.png 绿野仙踪/OZ国历险记 The.Wizard.of.Oz.1939.2160p.BluRay.REMUX.HEVC.DTS-HD.MA.5.1-FGT 50.44GB-4.png 绿野仙踪/OZ国历险记 The.Wizard.of.Oz.1939.2160p.BluRay.REMUX.HEVC.DTS-HD.MA.5.1-FGT 50.44GB-5.png 绿野仙踪/OZ国历险记 The.Wizard.of.Oz.1939.2160p.BluRay.REMUX.HEVC.DTS-HD.MA.5.1-FGT 50.44GB-6.png 绿野仙踪/OZ国历险记 The.Wizard.of.Oz.1939.2160p.BluRay.REMUX.HEVC.DTS-HD.MA.5.1-FGT 50.44GB-7.png







回复

使用道具 举报

发表于 2019-10-25 16:52:50 | 显示全部楼层
楼主发贴辛苦了,谢谢楼主分享!我觉得蓝光电影网是注册对了!
回复 支持 反对

使用道具 举报

发表于 2019-10-25 17:20:23 | 显示全部楼层

我看不错噢 谢谢楼主!蓝光电影网越来越好!
回复 支持 反对

使用道具 举报

发表于 2019-10-25 19:04:50 | 显示全部楼层
感谢分享 谢谢 收下了
回复 支持 反对

使用道具 举报

发表于 2019-10-25 20:27:03 | 显示全部楼层

感谢楼主的无私分享!要想蓝光电影网好 就靠你我他
回复 支持 反对

使用道具 举报

发表于 2019-10-25 21:19:12 | 显示全部楼层
楼主发贴辛苦了,谢谢楼主分享!我觉得蓝光电影网是注册对了!
回复 支持 反对

使用道具 举报

发表于 2019-10-25 22:47:49 | 显示全部楼层
楼主发贴辛苦了,谢谢楼主分享!我觉得蓝光电影网是注册对了!
回复 支持 反对

使用道具 举报

发表于 2019-10-29 00:40:09 | 显示全部楼层
这么老的电影还能修复成4K版本,牛逼。
回复 支持 反对

使用道具 举报

懒得打字嘛,点击右侧快捷回复 【右侧内容,后台自定义】
您需要登录后才可以回帖 登录 | 立即加入

本版积分规则

现在加入蓝光电影网,注册一个账号

QQ| 手机版|小黑屋| 蓝光电影网 |网站地图

Copyright © 2015-2019 Comsenz Inc.  Template by 蓝光电影论坛 All Rights Reserved.

Powered by 蓝光电影网 X3.4

特别声明:本站所有资源均由网上收集而来,版权归原影音公司所有,如果侵犯了你的权益,请通知我们,我们会及时删除侵权内容.

快速回复 返回顶部 返回列表