找回密码

蓝光电影网

查看: 3265|回复: 92

[动画] 愤怒的小鸟2 The.Angry.Birds.Movie.2.2019.1080p.BluRay.x264-GECKOS 5.46GB

  [复制链接]

 成长值: 23230

发表于 2019-10-25 16:43:08 | 显示全部楼层 |阅读模式
愤怒的小鸟2 The.Angry.Birds.Movie.2.2019.1080p.BluRay.x264-GECKOS 5.46GB-1.png

译  名 愤怒的小鸟2 / Angry Birds 2 / 愤怒的小鸟大电影2 / 愤怒鸟大电影2(港) / 愤怒鸟玩电影2(台)
片  名 The Angry Birds Movie 2
年  代 2019
产  地 芬兰 / 美国
类  别 喜剧 / 动画 / 冒险
语  言 英语
上映日期 2019-08-14(美国) / 2019-08-16(中国大陆)
IMDb评分  6.5/10 from 4645 users
IMDb链接  https://www.imdb.com/title/tt6095472
豆瓣评分 7.2/10 from 15287 users
豆瓣链接 https://movie.douban.com/subject/26863060/
片  长 96分钟
导  演 图鲁普·范·奥尔曼 Thurop Van Orman
编  剧 彼得·阿克曼 Peter Ackerman
主  演 杰森·苏戴奇斯 Jason Sudeikis
       比尔·哈德尔 Bill Hader
       乔什·加德 Josh Gad
       丹尼·麦克布莱德 Danny McBride
       彼特·丁拉基 Peter Dinklage
       妮琪·米娜 Nicki Minaj
       斯特林·K·布朗 Sterling K. Brown
       莱斯莉·琼斯 Leslie Jones
       奥卡菲娜 Awkwafina
       蕾切尔·布鲁姆 Rachel Bloom
       扎克·伍兹 Zach Woods
       欧赫尼奥·德尔维斯 Eugenio Derbez
       里尔·莱尔·哈瓦瑞 Lil Rel Howery
       德芙·卡梅隆 Dove Cameron
       贝克·班尼特 Beck Bennett
       布鲁克琳·普林斯 Brooklynn Prince
       阿尔玛·瓦萨诺 Alma Varsano
       菲丝·玛格丽特·基德曼-厄本 Faith Margaret Kidman-Urban
       桑迪·萝丝·厄本 Sunday Rose Urban
       吉妮西丝·坦尼翁 Genesis Tennon


标  签 动画 | 喜剧 | 搞笑 | 游戏改编 | 2019 | 美国 | 芬兰 | 经典手游

简  介  

  十年“欢喜冤家”猪鸟依旧如往常一样“互相拆台”。然而,“不速之客”发射冰球袭击了小鸟岛和猪猪岛,令双方不得不放下芥蒂,小鸟岛昔日英雄胖红联合小鸟伙伴们与曾经的对手“捣蛋猪”雷纳德一行组建了临时联盟,他们将前往全新冰封岛屿上阻止神秘反派的灭世计划。
  1. Video
  2. ID                                       : 1
  3. Format                                   : AVC
  4. Format/Info                              : Advanced Video Codec
  5. Format profile                           : High@L4
  6. Format settings                          : CABAC / 4 Ref Frames
  7. Format settings, CABAC                   : Yes
  8. Format settings, Reference frames        : 4 frames
  9. Codec ID                                 : V_MPEG4/ISO/AVC
  10. Duration                                 : 1 h 36 min
  11. Bit rate                                 : 6 571 kb/s
  12. Width                                    : 1 920 pixels
  13. Height                                   : 1 040 pixels
  14. Display aspect ratio                     : 1.85:1
  15. Frame rate mode                          : Constant
  16. Frame rate                               : 23.976 (24000/1001) FPS
  17. Color space                              : YUV
  18. Chroma subsampling                       : 4:2:0
  19. Bit depth                                : 8 bits
  20. Scan type                                : Progressive
  21. Bits/(Pixel*Frame)                       : 0.137
  22. Stream size                              : 4.44 GiB (81%)
  23. Writing library                          : x264 core 158 r2984 3759fcb
  24. Encoding settings                        : cabac=1 / ref=4 / deblock=1:-3:-3 / analyse=0x3:0x113 / me=umh / subme=8 / psy=1 / psy_rd=1.00:0.00 / mixed_ref=1 / me_range=16 / chroma_me=1 / trellis=1 / 8x8dct=1 / cqm=0 / deadzone=21,11 / fast_pskip=1 / chroma_qp_offset=-2 / threads=24 / lookahead_threads=4 / sliced_threads=0 / nr=0 / decimate=1 / interlaced=0 / bluray_compat=0 / constrained_intra=0 / bframes=3 / b_pyramid=2 / b_adapt=1 / b_bias=0 / direct=3 / weightb=1 / open_gop=0 / weightp=2 / keyint=250 / keyint_min=23 / scenecut=40 / intra_refresh=0 / rc_lookahead=50 / rc=2pass / mbtree=1 / bitrate=6571 / ratetol=1.0 / qcomp=0.60 / qpmin=0 / qpmax=69 / qpstep=4 / cplxblur=20.0 / qblur=0.5 / ip_ratio=1.40 / aq=1:1.00
  25. Language                                 : English
  26. Default                                  : Yes
  27. Forced                                   : No

  28. Audio
  29. ID                                       : 2
  30. Format                                   : DTS
  31. Format/Info                              : Digital Theater Systems
  32. Codec ID                                 : A_DTS
  33. Duration                                 : 1 h 36 min
  34. Bit rate mode                            : Constant
  35. Bit rate                                 : 1 509 kb/s
  36. Channel(s)                               : 6 channels
  37. Channel layout                           : C L R Ls Rs LFE
  38. Sampling rate                            : 48.0 kHz
  39. Frame rate                               : 93.750 FPS (512 SPF)
  40. Bit depth                                : 24 bits
  41. Compression mode                         : Lossy
  42. Stream size                              : 1.02 GiB (19%)
  43. Language                                 : English
  44. Default                                  : Yes
  45. Forced                                   : No

  46. Text
  47. ID                                       : 3
  48. Format                                   : UTF-8
  49. Codec ID                                 : S_TEXT/UTF8
  50. Codec ID/Info                            : UTF-8 Plain Text
  51. Duration                                 : 4 s 87 ms
  52. Bit rate                                 : 68 b/s
  53. Count of elements                        : 2
  54. Stream size                              : 35.0 Bytes (0%)
  55. Title                                    : English Forced
  56. Language                                 : English
  57. Default                                  : No
  58. Forced                                   : Yes
复制代码

愤怒的小鸟2 The.Angry.Birds.Movie.2.2019.1080p.BluRay.x264-GECKOS 5.46GB-2.png







回复

使用道具 举报

发表于 2019-10-25 16:57:45 | 显示全部楼层
cool~~~~~·
回复

使用道具 举报

发表于 2019-10-25 17:04:34 | 显示全部楼层
谢谢楼主分享
回复 支持 反对

使用道具 举报

 成长值: 770

发表于 2019-10-25 17:18:08 | 显示全部楼层
新资源用BT软件都完全没有速度
回复 支持 反对

使用道具 举报

发表于 2019-10-25 18:52:03 | 显示全部楼层

我看不错噢 谢谢楼主!蓝光电影网越来越好!
回复 支持 反对

使用道具 举报

发表于 2019-10-25 18:52:13 | 显示全部楼层
谢谢楼主分享
回复 支持 反对

使用道具 举报

发表于 2019-10-25 18:58:01 | 显示全部楼层
hhhhhhhhhhhhhhh
回复 支持 反对

使用道具 举报

发表于 2019-10-25 21:15:31 | 显示全部楼层
谢谢分享下
回复 支持 反对

使用道具 举报

发表于 2019-10-25 23:04:17 | 显示全部楼层
楼主发贴辛苦了,谢谢楼主分享!我觉得蓝光电影网是注册对了! 非常感谢你!!!
回复 支持 反对

使用道具 举报

发表于 2019-10-25 23:45:14 | 显示全部楼层
楼主发贴辛苦了,谢谢楼主分享!我觉得蓝光电影网是注册对了! 非常感谢你!!!
回复 支持 反对

使用道具 举报

懒得打字嘛,点击右侧快捷回复 【右侧内容,后台自定义】
您需要登录后才可以回帖 登录 | 立即加入

本版积分规则

现在加入蓝光电影网,注册一个账号

QQ| 手机版|小黑屋| 蓝光电影网 |网站地图 

Copyright © 2015-2019 Comsenz Inc.  Template by 蓝光电影论坛 All Rights Reserved.

Powered by 蓝光电影网 X3.4

特别声明:本站所有资源均由网上收集而来,版权归原影音公司所有,如果侵犯了你的权益,请通知我们,我们会及时删除侵权内容.

快速回复 返回顶部 返回列表