找回密码

蓝光电影网

查看: 583|回复: 34

[REMUX.HEVC] 红色警探/冲出生死线 Red.Heat.1988.2160p.BluRay.REMUX.HEVC.DTS-HD.MA.5.1-FGT 54.96GB

[复制链接]

 成长值: 23155

发表于 2019-10-22 21:53:39 | 显示全部楼层 |阅读模式
红色警探/冲出生死线 Red.Heat.1988.2160p.BluRay.REMUX.HEVC.DTS-HD.MA.5.1-FGT 54.96GB-1.png

译  名 红色警探 / 冲出生死线 / 红场特警 / 魔鬼红星
片  名 Red Heat
年  代 1988
产  地 美国
类  别 喜剧 / 动作 / 惊悚 / 犯罪
语  言 英语 / 俄语
上映日期 1988-06-17
IMDb评分  6.1/10 from 58995 users
IMDb链接  http://www.imdb.com/title/tt0095963
豆瓣评分 6.4/10 from 1910 users
豆瓣链接 https://movie.douban.com/subject/1296875/
片  长 104 分钟
导  演 沃尔特·希尔 Walter Hill
编  剧 Harry Kleiner / 沃尔特·希尔 Walter Hill
主  演 阿诺·施瓦辛格 Arnold Schwarzenegger
      詹姆斯·贝鲁什 James Belushi
      彼得·博伊尔 Peter Boyle
      吉娜·格申 Gina Gershon
      劳伦斯·菲什伯恩 Laurence Fishburne


标  签 动作 | 美国 | 施瓦辛格 | 美国电影 | 1988 | 阿诺德·施瓦辛格 | 红场特警 | 警匪

简  介  

  八十年代,苏联国内的毒枭从美国大量进口毒品,上尉德戈(阿诺·施瓦辛格 Arnold Schwarzenegger 饰)奉命捉拿乔治亚毒贩集团,然而在围捕行动中,德戈战友身亡,毒贩头目逃脱出国。不久,在美国芝加哥,苏联毒贩维特落网,美苏两国达成协议,德戈由莫斯科赴美押送维特回国,美国方面派出警探雷塞克(詹姆斯·贝鲁什 James Belushi 饰)担任其助手和翻译。不料维特再次在同伙的配合下成功逃脱,德戈至此不得不向美国方面吐露了维特的真实身份,并与雷塞克合力追踪维特。苏美两国的差异在德戈和雷塞克身上不时体现,然而两员悍将很快弥合差异,精诚合作追索毒枭……

  1. Video #1
  2. ID                                       : 1
  3. Format                                   : HEVC
  4. Format/Info                              : High Efficiency Video Coding
  5. Format profile                           : Main High@L4@High
  6. HDR format                               : SMPTE ST 2086, HDR10 compatible
  7. Codec ID                                 : V_MPEGH/ISO/HEVC
  8. Duration                                 : 1 h 44 min
  9. Bit rate                                 : 63.0 Mb/s
  10. Width                                    : 3 840 pixels
  11. Height                                   : 2 160 pixels
  12. Display aspect ratio                     : 16:9
  13. Frame rate mode                          : Constant
  14. Frame rate                               : 24.000 FPS
  15. Color space                              : YUV
  16. Chroma subsampling                       : 4:2:0 (Type 2)
  17. Bit depth                                : 10 bits
  18. Bits/(Pixel*Frame)                       : 0.316
  19. Stream size                              : 45.8 GiB (83%)
  20. Title                                    : Red.Heat.1988.2160p.BluRay.REMUX.HEVC.DTS-HD.MA.5.1-FGT
  21. Language                                 : English
  22. Default                                  : Yes
  23. Forced                                   : No
  24. Color range                              : Limited
  25. Color primaries                          : BT.2020
  26. Transfer characteristics                 : PQ
  27. Matrix coefficients                      : BT.2020 non-constant
  28. Mastering display color primaries        : BT.2020
  29. Mastering display luminance              : min: 0.0001 cd/m2, max: 1000 cd/m2

  30. Video #2
  31. ID                                       : 2
  32. Format                                   : HEVC
  33. Format/Info                              : High Efficiency Video Coding
  34. Format profile                           : Main High@L4@High
  35. HDR format                               : SMPTE ST 2086, HDR10 compatible
  36. Codec ID                                 : V_MPEGH/ISO/HEVC
  37. Duration                                 : 1 h 44 min
  38. Bit rate                                 : 3 149 kb/s
  39. Width                                    : 1 920 pixels
  40. Height                                   : 1 080 pixels
  41. Display aspect ratio                     : 16:9
  42. Frame rate mode                          : Constant
  43. Frame rate                               : 24.000 FPS
  44. Color space                              : YUV
  45. Chroma subsampling                       : 4:2:0 (Type 2)
  46. Bit depth                                : 10 bits
  47. Bits/(Pixel*Frame)                       : 0.063
  48. Stream size                              : 2.29 GiB (4%)
  49. Title                                    : Red.Heat.1988.2160p.BluRay.REMUX.HEVC.DTS-HD.MA.5.1-FGT
  50. Language                                 : English
  51. Default                                  : No
  52. Forced                                   : No
  53. Color range                              : Limited
  54. Color primaries                          : BT.2020
  55. Transfer characteristics                 : PQ
  56. Matrix coefficients                      : BT.2020 non-constant
  57. Mastering display color primaries        : BT.2020
  58. Mastering display luminance              : min: 0.0001 cd/m2, max: 1000 cd/m2

  59. Audio #1
  60. ID                                       : 3
  61. Format                                   : DTS XLL
  62. Format/Info                              : Digital Theater Systems
  63. Commercial name                          : DTS-HD Master Audio
  64. Codec ID                                 : A_DTS
  65. Duration                                 : 1 h 44 min
  66. Bit rate mode                            : Variable
  67. Bit rate                                 : 4 275 kb/s
  68. Channel(s)                               : 6 channels
  69. Channel layout                           : C L R Ls Rs LFE
  70. Sampling rate                            : 48.0 kHz
  71. Frame rate                               : 93.750 FPS (512 SPF)
  72. Bit depth                                : 24 bits
  73. Compression mode                         : Lossless
  74. Stream size                              : 3.11 GiB (6%)
  75. Title                                    : Red.Heat.1988.2160p.BluRay.REMUX.HEVC.DTS-HD.MA.5.1-FGT
  76. Language                                 : English
  77. Default                                  : Yes
  78. Forced                                   : No

  79. Audio #2
  80. ID                                       : 4
  81. Format                                   : DTS XLL
  82. Format/Info                              : Digital Theater Systems
  83. Commercial name                          : DTS-HD Master Audio
  84. Codec ID                                 : A_DTS
  85. Duration                                 : 1 h 44 min
  86. Bit rate mode                            : Variable
  87. Bit rate                                 : 1 608 kb/s
  88. Channel(s)                               : 2 channels
  89. Channel layout                           : L R
  90. Sampling rate                            : 48.0 kHz
  91. Frame rate                               : 93.750 FPS (512 SPF)
  92. Bit depth                                : 24 bits
  93. Compression mode                         : Lossless
  94. Stream size                              : 1.17 GiB (2%)
  95. Title                                    : Red.Heat.1988.2160p.BluRay.REMUX.HEVC.DTS-HD.MA.5.1-FGT
  96. Language                                 : French
  97. Default                                  : No
  98. Forced                                   : No

  99. Audio #3
  100. ID                                       : 5
  101. Format                                   : DTS XLL
  102. Format/Info                              : Digital Theater Systems
  103. Commercial name                          : DTS-HD Master Audio
  104. Codec ID                                 : A_DTS
  105. Duration                                 : 1 h 44 min
  106. Bit rate mode                            : Variable
  107. Bit rate                                 : 3 554 kb/s
  108. Channel(s)                               : 6 channels
  109. Channel layout                           : C L R Ls Rs LFE
  110. Sampling rate                            : 48.0 kHz
  111. Frame rate                               : 93.750 FPS (512 SPF)
  112. Bit depth                                : 24 bits
  113. Compression mode                         : Lossless
  114. Stream size                              : 2.58 GiB (5%)
  115. Title                                    : Red.Heat.1988.2160p.BluRay.REMUX.HEVC.DTS-HD.MA.5.1-FGT
  116. Language                                 : German
  117. Default                                  : No
  118. Forced                                   : No

  119. Text #1
  120. ID                                       : 6
  121. Format                                   : UTF-8
  122. Codec ID                                 : S_TEXT/UTF8
  123. Codec ID/Info                            : UTF-8 Plain Text
  124. Duration                                 : 56 min 36 s
  125. Bit rate                                 : 6 b/s
  126. Count of elements                        : 90
  127. Stream size                              : 2.90 KiB (0%)
  128. Title                                    : English-FORCED-SRT
  129. Language                                 : English
  130. Default                                  : Yes
  131. Forced                                   : No

  132. Text #2
  133. ID                                       : 7
  134. Format                                   : UTF-8
  135. Codec ID                                 : S_TEXT/UTF8
  136. Codec ID/Info                            : UTF-8 Plain Text
  137. Duration                                 : 1 h 36 min
  138. Bit rate                                 : 59 b/s
  139. Count of elements                        : 1129
  140. Stream size                              : 42.2 KiB (0%)
  141. Title                                    : English-SRT
  142. Language                                 : English
  143. Default                                  : No
  144. Forced                                   : No

  145. Text #3
  146. ID                                       : 8
  147. Format                                   : UTF-8
  148. Codec ID                                 : S_TEXT/UTF8
  149. Codec ID/Info                            : UTF-8 Plain Text
  150. Duration                                 : 1 h 39 min
  151. Bit rate                                 : 64 b/s
  152. Count of elements                        : 1279
  153. Stream size                              : 46.7 KiB (0%)
  154. Title                                    : English-SDH-SRT
  155. Language                                 : English
  156. Default                                  : No
  157. Forced                                   : No

  158. Text #4
  159. ID                                       : 9
  160. Format                                   : PGS
  161. Muxing mode                              : zlib
  162. Codec ID                                 : S_HDMV/PGS
  163. Codec ID/Info                            : Picture based subtitle format used on BDs/HD-DVDs
  164. Duration                                 : 1 h 39 min
  165. Bit rate                                 : 32.9 kb/s
  166. Count of elements                        : 2558
  167. Stream size                              : 23.4 MiB (0%)
  168. Title                                    : English-PGS
  169. Language                                 : English
  170. Default                                  : No
  171. Forced                                   : No

  172. Text #5
  173. ID                                       : 10
  174. Format                                   : PGS
  175. Muxing mode                              : zlib
  176. Codec ID                                 : S_HDMV/PGS
  177. Codec ID/Info                            : Picture based subtitle format used on BDs/HD-DVDs
  178. Duration                                 : 1 h 40 min
  179. Bit rate                                 : 21.3 kb/s
  180. Count of elements                        : 2158
  181. Stream size                              : 15.3 MiB (0%)
  182. Title                                    : French-PGS
  183. Language                                 : French
  184. Default                                  : No
  185. Forced                                   : No

  186. Text #6
  187. ID                                       : 11
  188. Format                                   : PGS
  189. Muxing mode                              : zlib
  190. Codec ID                                 : S_HDMV/PGS
  191. Codec ID/Info                            : Picture based subtitle format used on BDs/HD-DVDs
  192. Duration                                 : 1 h 40 min
  193. Bit rate                                 : 26.3 kb/s
  194. Count of elements                        : 1680
  195. Stream size                              : 18.9 MiB (0%)
  196. Title                                    : German-PGS
  197. Language                                 : German
  198. Default                                  : No
  199. Forced                                   : No

  200. Text #7
  201. ID                                       : 12
  202. Format                                   : PGS
  203. Muxing mode                              : zlib
  204. Codec ID                                 : S_HDMV/PGS
  205. Codec ID/Info                            : Picture based subtitle format used on BDs/HD-DVDs
  206. Duration                                 : 1 h 40 min
  207. Bit rate                                 : 2 146 b/s
  208. Count of elements                        : 206
  209. Stream size                              : 1.54 MiB (0%)
  210. Title                                    : French-FORCED-PGS
  211. Language                                 : French
  212. Default                                  : No
  213. Forced                                   : No

  214. Text #8
  215. ID                                       : 13
  216. Format                                   : PGS
  217. Muxing mode                              : zlib
  218. Codec ID                                 : S_HDMV/PGS
  219. Codec ID/Info                            : Picture based subtitle format used on BDs/HD-DVDs
  220. Duration                                 : 56 min 36 s
  221. Bit rate                                 : 3 652 b/s
  222. Count of elements                        : 180
  223. Stream size                              : 1.48 MiB (0%)
  224. Title                                    : English-FORCED-PGS
  225. Language                                 : English
  226. Default                                  : No
  227. Forced                                   : No

  228. Text #9
  229. ID                                       : 14
  230. Format                                   : PGS
  231. Muxing mode                              : zlib
  232. Codec ID                                 : S_HDMV/PGS
  233. Codec ID/Info                            : Picture based subtitle format used on BDs/HD-DVDs
  234. Duration                                 : 1 h 40 min
  235. Bit rate                                 : 2 635 b/s
  236. Count of elements                        : 164
  237. Stream size                              : 1.89 MiB (0%)
  238. Title                                    : German-FORCED-PGS
  239. Language                                 : German
  240. Default                                  : No
  241. Forced                                   : No

  242. Menu
  243. 00:00:00.000                             : en:Chapter 01
  244. 00:07:50.458                             : en:Chapter 02
  245. 00:19:23.000                             : en:Chapter 03
  246. 00:26:07.583                             : en:Chapter 04
  247. 00:35:07.500                             : en:Chapter 05
  248. 00:45:06.000                             : en:Chapter 06
  249. 00:54:04.000                             : en:Chapter 07
  250. 01:02:52.500                             : en:Chapter 08
  251. 01:12:15.416                             : en:Chapter 09
  252. 01:21:59.458                             : en:Chapter 10
  253. 01:28:36.833                             : en:Chapter 11
  254. 01:37:27.000                             : en:Chapter 12
复制代码

红色警探/冲出生死线 Red.Heat.1988.2160p.BluRay.REMUX.HEVC.DTS-HD.MA.5.1-FGT 54.96GB-2.png 红色警探/冲出生死线 Red.Heat.1988.2160p.BluRay.REMUX.HEVC.DTS-HD.MA.5.1-FGT 54.96GB-3.png 红色警探/冲出生死线 Red.Heat.1988.2160p.BluRay.REMUX.HEVC.DTS-HD.MA.5.1-FGT 54.96GB-4.png







回复

使用道具 举报

发表于 2019-10-22 22:41:09 | 显示全部楼层
铁汉还得看施瓦辛格!非常感谢热心分享!!!!
回复 支持 反对

使用道具 举报

 成长值: 2775

发表于 2019-10-22 23:08:20 | 显示全部楼层
楼主发贴辛苦了,谢谢楼主分享!我觉得蓝光电影网是注册对了!
回复 支持 反对

使用道具 举报

发表于 2019-10-22 23:42:12 | 显示全部楼层
沙发啦,不知道有么有字幕
回复 支持 反对

使用道具 举报

发表于 2019-10-23 08:02:16 | 显示全部楼层

其实我一直觉得楼主的品味不错!呵呵!蓝光电影网太棒了!
回复 支持 反对

使用道具 举报

发表于 2019-10-23 09:12:07 | 显示全部楼层
谢谢楼主分享
回复 支持 反对

使用道具 举报

发表于 2019-10-23 09:14:13 | 显示全部楼层
谢谢发片。
回复

使用道具 举报

发表于 2019-10-23 09:32:32 | 显示全部楼层

既然你诚信诚意的推荐了,那我就勉为其难的看看吧!蓝光电影网不走平凡路。
回复 支持 反对

使用道具 举报

发表于 2019-10-23 10:00:04 | 显示全部楼层

楼主太厉害了!楼主,电影应该很好看我觉得蓝光电影网真是个好地方!
回复 支持 反对

使用道具 举报

发表于 2019-10-23 11:06:32 来自手机 | 显示全部楼层
强烈支持楼主
回复 支持 反对

使用道具 举报

懒得打字嘛,点击右侧快捷回复 【右侧内容,后台自定义】
您需要登录后才可以回帖 登录 | 立即加入

本版积分规则

现在加入蓝光电影网,注册一个账号

QQ| 手机版|小黑屋| 蓝光电影网 |网站地图

Copyright © 2015-2019 Comsenz Inc.  Template by 蓝光电影论坛 All Rights Reserved.

Powered by 蓝光电影网 X3.4

特别声明:本站所有资源均由网上收集而来,版权归原影音公司所有,如果侵犯了你的权益,请通知我们,我们会及时删除侵权内容.

快速回复 返回顶部 返回列表