找回密码

蓝光电影网

查看: 219|回复: 5

[8bit.SDR] 007:大战皇家赌场/007大战皇家赌场 Casino.Royale.2006.2160p.BluRay.x264.8bit.SDR.DTS-HD.MA.5.1-SWTYBLZ 46.85GB

[复制链接]

 成长值: 23245

发表于 2019-10-20 16:44:22 | 显示全部楼层 |阅读模式
007:大战皇家赌场/007大战皇家赌场 Casino.Royale.2006.2160p.BluRay.x264.8bit.SDR.DTS-HD.MA.5.1-SWTYBLZ 46.85GB-1.png

译  名 007:大战皇家赌场 / 007大战皇家赌场 / 007系列21:大战皇家赌场 / 007首部曲:皇家夜总会(台) / James Bond 007 - Casino Royale / 新铁金刚智破皇家赌场(港) / 邦德21
片  名 Casino Royale
年  代 2006
产  地 美国 / 英国 / 德国 / 捷克 Czech Republic / 巴哈马 Bahamas
类  别 动作 / 惊悚 / 犯罪
语  言 英语
上映日期 2006-11-16(英国) / 2006-11-17(美国) / 2007-01-30(中国大陆)
IMDb评分  8.0/10 from 543625 users
IMDb链接  http://www.imdb.com/title/tt0381061
豆瓣评分 7.5/10 from 115486 users
豆瓣链接 https://movie.douban.com/subject/1418190/
片  长 144分钟
导  演 马丁·坎贝尔 Martin Campbell
编  剧 尼尔·珀维斯 Neal Purvis / 罗伯特·韦德 Robert Wade / 保罗·哈吉斯 Paul Haggis / 伊恩·弗莱明 Ian Fleming
主  演 丹尼尔·克雷格 Daniel Craig
       伊娃·格林 Eva Green
       麦德斯·米科尔森 Mads Mikkelsen
       朱迪·丹奇 Judi Dench
       杰弗里·怀特 Jeffrey Wright
       吉安卡罗·吉安尼尼 Giancarlo Giannini


标  签 007 | 动作 | 美国 | 间谍 | 英国 | 2006 | 特工 | 犯罪

简  介  

  英国军情六处特工詹姆斯?邦德(丹尼尔?克雷格饰)这一次的任务是在赌场上赢取俄罗斯间谍手中的巨额财富,让其背后的恐怖组织势力无法达成阴谋并且击垮恐怖组织。这次,邦德有了一个漂亮的得力女助手琳德(伊娃?格林饰)。邦德经过了赌场上的种种训练,最终来到了皇家赌场。随着赌注越来越大,这场赌局也愈来愈显示出背后交错的阴谋。邦德甚至险些死于非命。
  在共同的合作中,邦德和琳德不知不觉拥有了信任和默契,这种感情,将会何去何从呢?
  1. Video
  2. ID                                       : 1
  3. Format                                   : AVC
  4. Format/Info                              : Advanced Video Codec
  5. Format profile                           : High@L4
  6. Format settings                          : CABAC / 5 Ref Frames
  7. Format settings, CABAC                   : Yes
  8. Format settings, Reference frames        : 5 frames
  9. Codec ID                                 : V_MPEG4/ISO/AVC
  10. Duration                                 : 2 h 24 min
  11. Bit rate                                 : 41.6 Mb/s
  12. Width                                    : 3 840 pixels
  13. Height                                   : 1 606 pixels
  14. Display aspect ratio                     : 2.40:1
  15. Frame rate mode                          : Constant
  16. Frame rate                               : 23.976 (24000/1001) FPS
  17. Color space                              : YUV
  18. Chroma subsampling                       : 4:2:0
  19. Bit depth                                : 8 bits
  20. Scan type                                : Progressive
  21. Bits/(Pixel*Frame)                       : 0.282
  22. Stream size                              : 42.0 GiB (90%)
  23. Title                                    : Casino.Royale.2006.2160p.BluRay.x264.8bit.SDR.DTS-HD.MA.5.1-SWTYBLZ
  24. Writing library                          : x264 core 157 r2935 545de2f
  25. Encoding settings                        : cabac=1 / ref=5 / deblock=1:-1:-1 / analyse=0x3:0x113 / me=umh / subme=10 / psy=1 / psy_rd=1.00:0.15 / mixed_ref=1 / me_range=48 / chroma_me=1 / trellis=2 / 8x8dct=1 / cqm=0 / deadzone=21,11 / fast_pskip=1 / chroma_qp_offset=-3 / threads=48 / lookahead_threads=4 / sliced_threads=0 / nr=0 / decimate=0 / interlaced=0 / bluray_compat=0 / constrained_intra=0 / bframes=3 / b_pyramid=2 / b_adapt=2 / b_bias=0 / direct=3 / weightb=1 / open_gop=0 / weightp=2 / keyint=250 / keyint_min=23 / scenecut=40 / intra_refresh=0 / rc_lookahead=50 / rc=crf / mbtree=1 / crf=18.0 / qcomp=0.60 / qpmin=0 / qpmax=69 / qpstep=4 / ip_ratio=1.40 / aq=1:1.00
  26. Language                                 : English
  27. Default                                  : Yes
  28. Forced                                   : No

  29. Audio #1
  30. ID                                       : 2
  31. Format                                   : DTS XLL
  32. Format/Info                              : Digital Theater Systems
  33. Commercial name                          : DTS-HD Master Audio
  34. Codec ID                                 : A_DTS
  35. Duration                                 : 2 h 24 min
  36. Bit rate mode                            : Variable
  37. Bit rate                                 : 3 887 kb/s
  38. Channel(s)                               : 6 channels
  39. Channel layout                           : C L R Ls Rs LFE
  40. Sampling rate                            : 48.0 kHz
  41. Frame rate                               : 93.750 FPS (512 SPF)
  42. Bit depth                                : 24 bits
  43. Compression mode                         : Lossless
  44. Stream size                              : 3.92 GiB (8%)
  45. Title                                    : Casino.Royale.2006.2160p.BluRay.x264.8bit.SDR.DTS-HD.MA.5.1-SWTYBLZ
  46. Language                                 : English
  47. Default                                  : Yes
  48. Forced                                   : No

  49. Audio #2
  50. ID                                       : 3
  51. Format                                   : AC-3
  52. Format/Info                              : Audio Coding 3
  53. Commercial name                          : Dolby Digital
  54. Codec ID                                 : A_AC3
  55. Duration                                 : 2 h 24 min
  56. Bit rate mode                            : Constant
  57. Bit rate                                 : 640 kb/s
  58. Channel(s)                               : 6 channels
  59. Channel layout                           : L R C LFE Ls Rs
  60. Sampling rate                            : 48.0 kHz
  61. Frame rate                               : 31.250 FPS (1536 SPF)
  62. Bit depth                                : 16 bits
  63. Compression mode                         : Lossy
  64. Stream size                              : 662 MiB (1%)
  65. Title                                    : Casino.Royale.2006.2160p.BluRay.x264.8bit.SDR.DTS-HD.MA.5.1-SWTYBLZ
  66. Language                                 : English
  67. Service kind                             : Complete Main
  68. Default                                  : No
  69. Forced                                   : No

  70. Text #1
  71. ID                                       : 4
  72. Format                                   : UTF-8
  73. Codec ID                                 : S_TEXT/UTF8
  74. Codec ID/Info                            : UTF-8 Plain Text
  75. Duration                                 : 2 h 23 min
  76. Bit rate                                 : 31 b/s
  77. Count of elements                        : 1041
  78. Stream size                              : 33.4 KiB (0%)
  79. Title                                    : English-SRT
  80. Language                                 : English
  81. Default                                  : Yes
  82. Forced                                   : No

  83. Text #2
  84. ID                                       : 5
  85. Format                                   : PGS
  86. Muxing mode                              : zlib
  87. Codec ID                                 : S_HDMV/PGS
  88. Codec ID/Info                            : Picture based subtitle format used on BDs/HD-DVDs
  89. Duration                                 : 2 h 23 min
  90. Bit rate                                 : 20.1 kb/s
  91. Count of elements                        : 2084
  92. Stream size                              : 20.6 MiB (0%)
  93. Title                                    : English-PGS
  94. Language                                 : English
  95. Default                                  : No
  96. Forced                                   : No

  97. Text #3
  98. ID                                       : 6
  99. Format                                   : PGS
  100. Muxing mode                              : zlib
  101. Codec ID                                 : S_HDMV/PGS
  102. Codec ID/Info                            : Picture based subtitle format used on BDs/HD-DVDs
  103. Duration                                 : 2 h 23 min
  104. Bit rate                                 : 18.4 kb/s
  105. Count of elements                        : 2100
  106. Stream size                              : 19.0 MiB (0%)
  107. Title                                    : Spanish-PGS
  108. Language                                 : Spanish
  109. Default                                  : No
  110. Forced                                   : No

  111. Text #4
  112. ID                                       : 7
  113. Format                                   : PGS
  114. Muxing mode                              : zlib
  115. Codec ID                                 : S_HDMV/PGS
  116. Codec ID/Info                            : Picture based subtitle format used on BDs/HD-DVDs
  117. Duration                                 : 2 h 23 min
  118. Bit rate                                 : 15.8 kb/s
  119. Count of elements                        : 1840
  120. Stream size                              : 16.3 MiB (0%)
  121. Title                                    : French-PGS
  122. Language                                 : French
  123. Default                                  : No
  124. Forced                                   : No

  125. Text #5
  126. ID                                       : 8
  127. Format                                   : PGS
  128. Muxing mode                              : zlib
  129. Codec ID                                 : S_HDMV/PGS
  130. Codec ID/Info                            : Picture based subtitle format used on BDs/HD-DVDs
  131. Duration                                 : 2 h 23 min
  132. Bit rate                                 : 18.4 kb/s
  133. Count of elements                        : 1972
  134. Stream size                              : 18.9 MiB (0%)
  135. Title                                    : Spanish-PGS
  136. Language                                 : Spanish
  137. Default                                  : No
  138. Forced                                   : No

  139. Text #6
  140. ID                                       : 9
  141. Format                                   : PGS
  142. Muxing mode                              : zlib
  143. Codec ID                                 : S_HDMV/PGS
  144. Codec ID/Info                            : Picture based subtitle format used on BDs/HD-DVDs
  145. Duration                                 : 2 h 23 min
  146. Bit rate                                 : 17.6 kb/s
  147. Count of elements                        : 1700
  148. Stream size                              : 18.2 MiB (0%)
  149. Title                                    : Danish-PGS
  150. Language                                 : Danish
  151. Default                                  : No
  152. Forced                                   : No

  153. Text #7
  154. ID                                       : 10
  155. Format                                   : PGS
  156. Muxing mode                              : zlib
  157. Codec ID                                 : S_HDMV/PGS
  158. Codec ID/Info                            : Picture based subtitle format used on BDs/HD-DVDs
  159. Duration                                 : 2 h 23 min
  160. Bit rate                                 : 18.6 kb/s
  161. Count of elements                        : 1948
  162. Stream size                              : 19.2 MiB (0%)
  163. Title                                    : Dutch-PGS
  164. Language                                 : Dutch
  165. Default                                  : No
  166. Forced                                   : No

  167. Text #8
  168. ID                                       : 11
  169. Format                                   : PGS
  170. Muxing mode                              : zlib
  171. Codec ID                                 : S_HDMV/PGS
  172. Codec ID/Info                            : Picture based subtitle format used on BDs/HD-DVDs
  173. Duration                                 : 2 h 23 min
  174. Bit rate                                 : 16.4 kb/s
  175. Count of elements                        : 1892
  176. Stream size                              : 16.9 MiB (0%)
  177. Title                                    : Finnish-PGS
  178. Language                                 : Finnish
  179. Default                                  : No
  180. Forced                                   : No

  181. Text #9
  182. ID                                       : 12
  183. Format                                   : PGS
  184. Muxing mode                              : zlib
  185. Codec ID                                 : S_HDMV/PGS
  186. Codec ID/Info                            : Picture based subtitle format used on BDs/HD-DVDs
  187. Duration                                 : 2 h 23 min
  188. Bit rate                                 : 17.5 kb/s
  189. Count of elements                        : 1798
  190. Stream size                              : 18.0 MiB (0%)
  191. Title                                    : German-PGS
  192. Language                                 : German
  193. Default                                  : No
  194. Forced                                   : No

  195. Text #10
  196. ID                                       : 13
  197. Format                                   : PGS
  198. Muxing mode                              : zlib
  199. Codec ID                                 : S_HDMV/PGS
  200. Codec ID/Info                            : Picture based subtitle format used on BDs/HD-DVDs
  201. Duration                                 : 2 h 23 min
  202. Bit rate                                 : 20.4 kb/s
  203. Count of elements                        : 2134
  204. Stream size                              : 20.9 MiB (0%)
  205. Title                                    : Italian-PGS
  206. Language                                 : Italian
  207. Default                                  : No
  208. Forced                                   : No

  209. Text #11
  210. ID                                       : 14
  211. Format                                   : PGS
  212. Muxing mode                              : zlib
  213. Codec ID                                 : S_HDMV/PGS
  214. Codec ID/Info                            : Picture based subtitle format used on BDs/HD-DVDs
  215. Duration                                 : 2 h 23 min
  216. Bit rate                                 : 15.2 kb/s
  217. Count of elements                        : 1856
  218. Stream size                              : 15.6 MiB (0%)
  219. Title                                    : Norwegian-PGS
  220. Language                                 : Norwegian
  221. Default                                  : No
  222. Forced                                   : No

  223. Text #12
  224. ID                                       : 15
  225. Format                                   : PGS
  226. Muxing mode                              : zlib
  227. Codec ID                                 : S_HDMV/PGS
  228. Codec ID/Info                            : Picture based subtitle format used on BDs/HD-DVDs
  229. Duration                                 : 2 h 23 min
  230. Bit rate                                 : 15.3 kb/s
  231. Count of elements                        : 1398
  232. Stream size                              : 15.8 MiB (0%)
  233. Title                                    : Swedish-PGS
  234. Language                                 : Swedish
  235. Default                                  : No
  236. Forced                                   : No

  237. Text #13
  238. ID                                       : 16
  239. Format                                   : PGS
  240. Muxing mode                              : zlib
  241. Codec ID                                 : S_HDMV/PGS
  242. Codec ID/Info                            : Picture based subtitle format used on BDs/HD-DVDs
  243. Duration                                 : 2 h 23 min
  244. Bit rate                                 : 17.0 kb/s
  245. Count of elements                        : 2154
  246. Stream size                              : 17.5 MiB (0%)
  247. Title                                    : Chinese-PGS
  248. Language                                 : Chinese
  249. Default                                  : No
  250. Forced                                   : No

  251. Text #14
  252. ID                                       : 17
  253. Format                                   : PGS
  254. Muxing mode                              : zlib
  255. Codec ID                                 : S_HDMV/PGS
  256. Codec ID/Info                            : Picture based subtitle format used on BDs/HD-DVDs
  257. Duration                                 : 2 h 23 min
  258. Bit rate                                 : 18.0 kb/s
  259. Count of elements                        : 2066
  260. Stream size                              : 18.5 MiB (0%)
  261. Title                                    : Czech-PGS
  262. Language                                 : Czech
  263. Default                                  : No
  264. Forced                                   : No

  265. Text #15
  266. ID                                       : 18
  267. Format                                   : PGS
  268. Muxing mode                              : zlib
  269. Codec ID                                 : S_HDMV/PGS
  270. Codec ID/Info                            : Picture based subtitle format used on BDs/HD-DVDs
  271. Duration                                 : 2 h 23 min
  272. Bit rate                                 : 15.5 kb/s
  273. Count of elements                        : 1952
  274. Stream size                              : 15.9 MiB (0%)
  275. Title                                    : Hungarian-PGS
  276. Language                                 : Hungarian
  277. Default                                  : No
  278. Forced                                   : No

  279. Text #16
  280. ID                                       : 19
  281. Format                                   : PGS
  282. Muxing mode                              : zlib
  283. Codec ID                                 : S_HDMV/PGS
  284. Codec ID/Info                            : Picture based subtitle format used on BDs/HD-DVDs
  285. Duration                                 : 2 h 23 min
  286. Bit rate                                 : 9 669 b/s
  287. Count of elements                        : 2004
  288. Stream size                              : 9.95 MiB (0%)
  289. Title                                    : Korean-PGS
  290. Language                                 : Korean
  291. Default                                  : No
  292. Forced                                   : No

  293. Text #17
  294. ID                                       : 20
  295. Format                                   : PGS
  296. Muxing mode                              : zlib
  297. Codec ID                                 : S_HDMV/PGS
  298. Codec ID/Info                            : Picture based subtitle format used on BDs/HD-DVDs
  299. Duration                                 : 2 h 23 min
  300. Bit rate                                 : 14.0 kb/s
  301. Count of elements                        : 2008
  302. Stream size                              : 14.5 MiB (0%)
  303. Title                                    : Chinese-PGS
  304. Language                                 : Chinese
  305. Default                                  : No
  306. Forced                                   : No

  307. Text #18
  308. ID                                       : 21
  309. Format                                   : PGS
  310. Muxing mode                              : zlib
  311. Codec ID                                 : S_HDMV/PGS
  312. Codec ID/Info                            : Picture based subtitle format used on BDs/HD-DVDs
  313. Duration                                 : 2 h 23 min
  314. Bit rate                                 : 15.7 kb/s
  315. Count of elements                        : 1962
  316. Stream size                              : 16.2 MiB (0%)
  317. Title                                    : Polish-PGS
  318. Language                                 : Polish
  319. Default                                  : No
  320. Forced                                   : No

  321. Text #19
  322. ID                                       : 22
  323. Format                                   : PGS
  324. Muxing mode                              : zlib
  325. Codec ID                                 : S_HDMV/PGS
  326. Codec ID/Info                            : Picture based subtitle format used on BDs/HD-DVDs
  327. Duration                                 : 2 h 23 min
  328. Bit rate                                 : 19.3 kb/s
  329. Count of elements                        : 1996
  330. Stream size                              : 19.8 MiB (0%)
  331. Title                                    : Portuguese-PGS
  332. Language                                 : Portuguese
  333. Default                                  : No
  334. Forced                                   : No

  335. Menu
  336. 00:00:00.000                             : en:Chapter 01
  337. 00:09:37.952                             : en:Chapter 02
  338. 00:19:31.170                             : en:Chapter 03
  339. 00:25:35.951                             : en:Chapter 04
  340. 00:35:18.908                             : en:Chapter 05
  341. 00:39:59.397                             : en:Chapter 06
  342. 00:45:22.302                             : en:Chapter 07
  343. 00:57:50.800                             : en:Chapter 08
  344. 01:07:22.246                             : en:Chapter 09
  345. 01:17:12.044                             : en:Chapter 10
  346. 01:30:06.067                             : en:Chapter 11
  347. 01:38:40.831                             : en:Chapter 12
  348. 01:43:29.620                             : en:Chapter 13
  349. 01:54:03.044                             : en:Chapter 14
  350. 02:05:45.371                             : en:Chapter 15
  351. 02:13:19.700                             : en:Chapter 16
复制代码

007:大战皇家赌场/007大战皇家赌场 Casino.Royale.2006.2160p.BluRay.x264.8bit.SDR.DTS-HD.MA.5.1-SWTYBLZ 46.85GB-2.png 007:大战皇家赌场/007大战皇家赌场 Casino.Royale.2006.2160p.BluRay.x264.8bit.SDR.DTS-HD.MA.5.1-SWTYBLZ 46.85GB-3.png 007:大战皇家赌场/007大战皇家赌场 Casino.Royale.2006.2160p.BluRay.x264.8bit.SDR.DTS-HD.MA.5.1-SWTYBLZ 46.85GB-4.png 007:大战皇家赌场/007大战皇家赌场 Casino.Royale.2006.2160p.BluRay.x264.8bit.SDR.DTS-HD.MA.5.1-SWTYBLZ 46.85GB-5.png 007:大战皇家赌场/007大战皇家赌场 Casino.Royale.2006.2160p.BluRay.x264.8bit.SDR.DTS-HD.MA.5.1-SWTYBLZ 46.85GB-6.png 95b66488ae570.png 007:大战皇家赌场/007大战皇家赌场 Casino.Royale.2006.2160p.BluRay.x264.8bit.SDR.DTS-HD.MA.5.1-SWTYBLZ 46.85GB-8.png







回复

使用道具 举报

发表于 2019-10-20 21:12:42 | 显示全部楼层
楼主发贴辛苦了,谢谢楼主分享!我觉得蓝光电影网是注册对了!
回复 支持 反对

使用道具 举报

已抛锚 成长值: 4400

发表于 2019-10-21 14:42:47 | 显示全部楼层
感谢楼主的辛苦分享!谢谢
回复 支持 反对

使用道具 举报

发表于 2019-10-21 17:59:42 | 显示全部楼层

既然你诚信诚意的推荐了,那我就勉为其难的看看吧!蓝光电影网不走平凡路。
回复 支持 反对

使用道具 举报

发表于 2019-10-21 19:40:08 | 显示全部楼层

既然你诚信诚意的推荐了,那我就勉为其难的看看吧!蓝光电影网不走平凡路。
回复 支持 反对

使用道具 举报

发表于 2019-10-21 20:40:25 | 显示全部楼层
楼主发贴辛苦了,谢谢楼主分享!我觉得蓝光电影网是注册对了!
回复 支持 反对

使用道具 举报

懒得打字嘛,点击右侧快捷回复 【右侧内容,后台自定义】
您需要登录后才可以回帖 登录 | 立即加入

本版积分规则

现在加入蓝光电影网,注册一个账号

QQ| 手机版|小黑屋| 蓝光电影网 |网站地图 

Copyright © 2015-2019 Comsenz Inc.  Template by 蓝光电影论坛 All Rights Reserved.

Powered by 蓝光电影网 X3.4

特别声明:本站所有资源均由网上收集而来,版权归原影音公司所有,如果侵犯了你的权益,请通知我们,我们会及时删除侵权内容.

快速回复 返回顶部 返回列表