找回密码

蓝光电影网

查看: 217|回复: 10

[REMUX.HEVC] 007:大破天幕杀机/007之天降杀机 Skyfall.2012.2160p.BluRay.REMUX.HEVC.DTS-HD.MA.5.1-FGT 55.48GB

[复制链接]

 成长值: 23245

发表于 2019-10-20 12:27:01 | 显示全部楼层 |阅读模式
007:大破天幕杀机/007之天降杀机 Skyfall.2012.2160p.BluRay.REMUX.HEVC.DTS-HD.MA.5.1-FGT 55.48GB-1.png

译  名 007:大破天幕杀机 / 007之天降杀机 / 007系列23:大破天幕杀机 / 007:大破天幕危机 / 007:空降危机(台) / Bond 23 / 天幕坠落 / 新铁金刚智破天凶城(港) / 邦德23
片  名 Skyfall
年  代 2012
产  地 英国 / 美国
类  别 动作 / 惊悚 / 犯罪 / 冒险
语  言 英语 / 土耳其语
上映日期 2012-10-26(英国) / 2012-11-09(美国) / 2013-01-21(中国大陆)
IMDb评分  7.7/10 from 596847 users
IMDb链接  http://www.imdb.com/title/tt1074638
豆瓣评分 7.0/10 from 193099 users
豆瓣链接 https://movie.douban.com/subject/2363876/
片  长 143分钟
导  演 萨姆·门德斯 Sam Mendes
编  剧 尼尔·珀维斯 Neal Purvis / 罗伯特·韦德 Robert Wade / 约翰·洛根 John Logan
主  演 丹尼尔·克雷格 Daniel Craig
       朱迪·丹奇 Judi Dench
       哈维尔·巴登 Javier Bardem
       拉尔夫·费因斯 Ralph Fiennes
       娜奥米·哈里斯 Naomie Harris
       贝纳尼丝·玛尔洛 Bérénice Marlohe
       阿尔伯特·芬尼 Albert Finney
       本·卫肖 Ben Whishaw
       罗里·金奈尔 Rory Kinnear
       Ola Rapace
       海伦·麦克洛瑞 Helen McCrory
       尼古拉斯·伍德森 Nicholas Woodeson
       Bill Buckhurst
       Elize du Toit
       伊恩 博纳 Ian Bonar


标  签 007 | 动作 | 英国 | 特工 | 间谍 | 2012 | 美国 | 剧情

简  介  

  数月前军情六处一块记载了潜伏于全世界恐怖组织内部所有特工名单信息的硬盘丢失,而追索硬盘的行动也以失败告终。在此之后,行动主要负责人M(朱迪·丹奇 Judi Dench 饰)被高层解雇,而军情六处也遭到惨烈的袭击,伤亡惨重。为了查到幕后真凶,M召来佯死的传奇特工詹姆士·邦德(丹尼尔·克雷格 Daniel Craig 饰)。经过一轮严苛的特训和测试,邦德重新服役。在伊芙(娜奥米·哈里斯 Naomie Harris 饰)和新搭档Q(本·卫肖 Ben Whishaw 饰)的协助下,邦德追寻着某前CIA特工的踪迹来到繁华大都会上海。
  在这一过程中,特工的名单不断泄露,而邦德最新一次的生死冒险也拉开序幕……

获奖情况  

  第85届奥斯卡金像奖(2013)
  最佳摄影(提名) 罗杰·狄金斯
  最佳混音(提名)
  最佳音效剪辑
  最佳原创配乐(提名) 托马斯·纽曼
  最佳原创歌曲

  第70届金球奖(2013)
  电影类 最佳原创歌曲

  第36届日本电影学院奖(2013)
  最佳外语片(提名)

  第57届意大利大卫奖(2013)
  最佳欧洲电影(提名) 萨姆·门德斯

  第22届MTV电影奖(2013)
  MTV电影奖 最佳打斗(提名) 奥拉·拉佩斯 / 丹尼尔·克雷格
  MTV电影奖 最佳赤膊表演(提名) 丹尼尔·克雷格
  MTV电影奖 最目瞪口呆场面(提名) 哈维尔·巴登
  MTV电影奖 最佳反派(提名) 哈维尔·巴登
  MTV电影奖 最佳拉丁裔演员 哈维尔·巴登

  第19届美国演员工会奖(2013)
  电影奖 最佳男配角(提名) 哈维尔·巴登
  电影最佳特技群戏 Ben Cooke / Hussain Abdullah / 尼科拉·贝尔维克 / Rob Cooper / Dani Biernat

  第18届美国评论家选择电影奖(2013)
  最佳男配角(提名) 哈维尔·巴登
  最佳女配角(提名) 朱迪·丹奇
  最佳动作片
  动作片最佳男主角 丹尼尔·克雷格
  动作片最佳女主角(提名) 朱迪·丹奇
  最佳摄影(提名) 罗杰·狄金斯
  最佳歌曲 阿黛尔 / 保罗·埃普沃思

  第17届金卫星奖(2012)
  电影部门 最佳剧情片(提名)
  电影部门 最佳男配角 哈维尔·巴登
  电影部门 最佳女配角(提名) 朱迪·丹奇
  电影部门 最佳原创配乐(提名) 托马斯·纽曼
  电影部门 最佳原创歌曲(提名) 阿黛尔 / 保罗·埃普沃思
  电影部门 最佳摄影(提名) 罗杰·狄金斯
  电影部门 最佳视觉效果(提名) 史蒂文·贝格 / 安德鲁·怀特赫斯特 / Arundi Asregadoo

  第47届美国国家影评人协会奖(2013)
  最佳摄影(提名) 罗杰·狄金斯

  第11届华盛顿影评人协会奖(2012)
  最佳男配角(提名) 哈维尔·巴登
  最佳摄影(提名) 罗杰·狄金斯

  第38届洛杉矶影评人协会奖(2012)
  最佳摄影 罗杰·狄金斯

  第25届芝加哥影评人协会奖(2012)
  最佳女配角(提名) 朱迪·丹奇
  最佳摄影(提名) 罗杰·狄金斯
  最佳剪辑(提名) 斯图尔特·贝尔德

  第12届凤凰城影评人协会奖(2012)
  最佳男配角(提名) 哈维尔·巴登
  最佳女配角(提名) 朱迪·丹奇
  最佳原创配乐 托马斯·纽曼
  最佳原创歌曲 阿黛尔 / 保罗·埃普沃思
  最佳摄影(提名) 罗杰·狄金斯
  最佳剪辑(提名) 斯图尔特·贝尔德
  最佳特技表演
  十佳影片(提名)

  第21届东南影评人协会奖(2012)
  最佳摄影(提名) 罗杰·狄金斯

  第15届美国青少年选择奖(2013)
  最佳动作片(提名)
  最佳动作片男演员(提名) 丹尼尔·克雷格
  最佳电影反派(提名) 哈维尔·巴登

  第3届豆瓣电影鑫像奖(2013)
  鑫豆单元 最佳歌曲
  1. Video #1
  2. ID                                       : 1
  3. Format                                   : HEVC
  4. Format/Info                              : High Efficiency Video Coding
  5. Format profile                           : Main High@L4@High
  6. HDR format                               : SMPTE ST 2086, HDR10 compatible
  7. Codec ID                                 : V_MPEGH/ISO/HEVC
  8. Duration                                 : 2 h 23 min
  9. Bit rate                                 : 45.5 Mb/s
  10. Width                                    : 3 840 pixels
  11. Height                                   : 2 160 pixels
  12. Display aspect ratio                     : 16:9
  13. Frame rate mode                          : Constant
  14. Frame rate                               : 23.976 (24000/1001) FPS
  15. Color space                              : YUV
  16. Chroma subsampling                       : 4:2:0 (Type 2)
  17. Bit depth                                : 10 bits
  18. Bits/(Pixel*Frame)                       : 0.229
  19. Stream size                              : 45.5 GiB (82%)
  20. Title                                    : Skyfall.2012.2160p.BluRay.REMUX.HEVC.DTS-HD.MA.5.1-FGT
  21. Language                                 : English
  22. Default                                  : Yes
  23. Forced                                   : No
  24. Color range                              : Limited
  25. Color primaries                          : BT.2020
  26. Transfer characteristics                 : PQ
  27. Matrix coefficients                      : BT.2020 non-constant
  28. Mastering display color primaries        : Display P3
  29. Mastering display luminance              : min: 0.0001 cd/m2, max: 1000 cd/m2

  30. Video #2
  31. ID                                       : 2
  32. Format                                   : HEVC
  33. Format/Info                              : High Efficiency Video Coding
  34. Format profile                           : Main High@L4@High
  35. HDR format                               : SMPTE ST 2086, HDR10 compatible
  36. Codec ID                                 : V_MPEGH/ISO/HEVC
  37. Duration                                 : 2 h 23 min
  38. Bit rate                                 : 63.5 kb/s
  39. Width                                    : 1 920 pixels
  40. Height                                   : 1 080 pixels
  41. Display aspect ratio                     : 16:9
  42. Frame rate mode                          : Constant
  43. Frame rate                               : 23.976 (24000/1001) FPS
  44. Color space                              : YUV
  45. Chroma subsampling                       : 4:2:0 (Type 2)
  46. Bit depth                                : 10 bits
  47. Bits/(Pixel*Frame)                       : 0.001
  48. Stream size                              : 65.0 MiB (0%)
  49. Title                                    : Skyfall.2012.2160p.BluRay.REMUX.HEVC.DTS-HD.MA.5.1-FGT
  50. Language                                 : English
  51. Default                                  : No
  52. Forced                                   : No
  53. Color range                              : Limited
  54. Color primaries                          : BT.2020
  55. Transfer characteristics                 : PQ
  56. Matrix coefficients                      : BT.2020 non-constant
  57. Mastering display color primaries        : Display P3
  58. Mastering display luminance              : min: 0.0001 cd/m2, max: 1000 cd/m2

  59. Audio #1
  60. ID                                       : 3
  61. Format                                   : DTS XLL
  62. Format/Info                              : Digital Theater Systems
  63. Commercial name                          : DTS-HD Master Audio
  64. Codec ID                                 : A_DTS
  65. Duration                                 : 2 h 23 min
  66. Bit rate mode                            : Variable
  67. Bit rate                                 : 3 830 kb/s
  68. Channel(s)                               : 6 channels
  69. Channel layout                           : C L R Ls Rs LFE
  70. Sampling rate                            : 48.0 kHz
  71. Frame rate                               : 93.750 FPS (512 SPF)
  72. Bit depth                                : 24 bits
  73. Compression mode                         : Lossless
  74. Stream size                              : 3.83 GiB (7%)
  75. Title                                    : Skyfall.2012.2160p.BluRay.REMUX.HEVC.DTS-HD.MA.5.1-FGT
  76. Language                                 : English
  77. Default                                  : Yes
  78. Forced                                   : No

  79. Audio #2
  80. ID                                       : 4
  81. Format                                   : AC-3
  82. Format/Info                              : Audio Coding 3
  83. Commercial name                          : Dolby Digital
  84. Codec ID                                 : A_AC3
  85. Duration                                 : 2 h 23 min
  86. Bit rate mode                            : Constant
  87. Bit rate                                 : 448 kb/s
  88. Channel(s)                               : 6 channels
  89. Channel layout                           : L R C LFE Ls Rs
  90. Sampling rate                            : 48.0 kHz
  91. Frame rate                               : 31.250 FPS (1536 SPF)
  92. Bit depth                                : 16 bits
  93. Compression mode                         : Lossy
  94. Stream size                              : 459 MiB (1%)
  95. Title                                    : Skyfall.2012.2160p.BluRay.REMUX.HEVC.DTS-HD.MA.5.1-FGT
  96. Language                                 : English
  97. Service kind                             : Complete Main
  98. Default                                  : No
  99. Forced                                   : No

  100. Audio #3
  101. ID                                       : 5
  102. Format                                   : AC-3
  103. Format/Info                              : Audio Coding 3
  104. Commercial name                          : Dolby Digital
  105. Codec ID                                 : A_AC3
  106. Duration                                 : 2 h 23 min
  107. Bit rate mode                            : Constant
  108. Bit rate                                 : 448 kb/s
  109. Channel(s)                               : 6 channels
  110. Channel layout                           : L R C LFE Ls Rs
  111. Sampling rate                            : 48.0 kHz
  112. Frame rate                               : 31.250 FPS (1536 SPF)
  113. Bit depth                                : 16 bits
  114. Compression mode                         : Lossy
  115. Stream size                              : 459 MiB (1%)
  116. Title                                    : Skyfall.2012.2160p.BluRay.REMUX.HEVC.DTS-HD.MA.5.1-FGT
  117. Language                                 : Spanish
  118. Service kind                             : Complete Main
  119. Default                                  : No
  120. Forced                                   : No

  121. Audio #4
  122. ID                                       : 6
  123. Format                                   : DTS
  124. Format/Info                              : Digital Theater Systems
  125. Codec ID                                 : A_DTS
  126. Duration                                 : 2 h 23 min
  127. Bit rate mode                            : Constant
  128. Bit rate                                 : 768 kb/s
  129. Channel(s)                               : 6 channels
  130. Channel layout                           : C L R Ls Rs LFE
  131. Sampling rate                            : 48.0 kHz
  132. Frame rate                               : 93.750 FPS (512 SPF)
  133. Bit depth                                : 24 bits
  134. Compression mode                         : Lossy
  135. Stream size                              : 786 MiB (1%)
  136. Title                                    : Skyfall.2012.2160p.BluRay.REMUX.HEVC.DTS-HD.MA.5.1-FGT
  137. Language                                 : French
  138. Default                                  : No
  139. Forced                                   : No

  140. Audio #5
  141. ID                                       : 7
  142. Format                                   : DTS
  143. Format/Info                              : Digital Theater Systems
  144. Codec ID                                 : A_DTS
  145. Duration                                 : 2 h 23 min
  146. Bit rate mode                            : Constant
  147. Bit rate                                 : 768 kb/s
  148. Channel(s)                               : 6 channels
  149. Channel layout                           : C L R Ls Rs LFE
  150. Sampling rate                            : 48.0 kHz
  151. Frame rate                               : 93.750 FPS (512 SPF)
  152. Bit depth                                : 24 bits
  153. Compression mode                         : Lossy
  154. Stream size                              : 786 MiB (1%)
  155. Title                                    : Skyfall.2012.2160p.BluRay.REMUX.HEVC.DTS-HD.MA.5.1-FGT
  156. Language                                 : Spanish
  157. Default                                  : No
  158. Forced                                   : No

  159. Audio #6
  160. ID                                       : 8
  161. Format                                   : DTS
  162. Format/Info                              : Digital Theater Systems
  163. Codec ID                                 : A_DTS
  164. Duration                                 : 2 h 23 min
  165. Bit rate mode                            : Constant
  166. Bit rate                                 : 768 kb/s
  167. Channel(s)                               : 6 channels
  168. Channel layout                           : C L R Ls Rs LFE
  169. Sampling rate                            : 48.0 kHz
  170. Frame rate                               : 93.750 FPS (512 SPF)
  171. Bit depth                                : 24 bits
  172. Compression mode                         : Lossy
  173. Stream size                              : 786 MiB (1%)
  174. Title                                    : Skyfall.2012.2160p.BluRay.REMUX.HEVC.DTS-HD.MA.5.1-FGT
  175. Language                                 : German
  176. Default                                  : No
  177. Forced                                   : No

  178. Audio #7
  179. ID                                       : 9
  180. Format                                   : DTS
  181. Format/Info                              : Digital Theater Systems
  182. Codec ID                                 : A_DTS
  183. Duration                                 : 2 h 23 min
  184. Bit rate mode                            : Constant
  185. Bit rate                                 : 768 kb/s
  186. Channel(s)                               : 6 channels
  187. Channel layout                           : C L R Ls Rs LFE
  188. Sampling rate                            : 48.0 kHz
  189. Frame rate                               : 93.750 FPS (512 SPF)
  190. Bit depth                                : 24 bits
  191. Compression mode                         : Lossy
  192. Stream size                              : 786 MiB (1%)
  193. Title                                    : Skyfall.2012.2160p.BluRay.REMUX.HEVC.DTS-HD.MA.5.1-FGT
  194. Language                                 : Italian
  195. Default                                  : No
  196. Forced                                   : No

  197. Audio #8
  198. ID                                       : 10
  199. Format                                   : AC-3
  200. Format/Info                              : Audio Coding 3
  201. Commercial name                          : Dolby Digital
  202. Codec ID                                 : A_AC3
  203. Duration                                 : 2 h 23 min
  204. Bit rate mode                            : Constant
  205. Bit rate                                 : 448 kb/s
  206. Channel(s)                               : 6 channels
  207. Channel layout                           : L R C LFE Ls Rs
  208. Sampling rate                            : 48.0 kHz
  209. Frame rate                               : 31.250 FPS (1536 SPF)
  210. Bit depth                                : 16 bits
  211. Compression mode                         : Lossy
  212. Stream size                              : 459 MiB (1%)
  213. Title                                    : Skyfall.2012.2160p.BluRay.REMUX.HEVC.DTS-HD.MA.5.1-FGT
  214. Language                                 : Czech
  215. Service kind                             : Complete Main
  216. Default                                  : No
  217. Forced                                   : No

  218. Audio #9
  219. ID                                       : 11
  220. Format                                   : AC-3
  221. Format/Info                              : Audio Coding 3
  222. Commercial name                          : Dolby Digital
  223. Codec ID                                 : A_AC3
  224. Duration                                 : 2 h 23 min
  225. Bit rate mode                            : Constant
  226. Bit rate                                 : 448 kb/s
  227. Channel(s)                               : 6 channels
  228. Channel layout                           : L R C LFE Ls Rs
  229. Sampling rate                            : 48.0 kHz
  230. Frame rate                               : 31.250 FPS (1536 SPF)
  231. Bit depth                                : 16 bits
  232. Compression mode                         : Lossy
  233. Stream size                              : 459 MiB (1%)
  234. Title                                    : Skyfall.2012.2160p.BluRay.REMUX.HEVC.DTS-HD.MA.5.1-FGT
  235. Language                                 : Hungarian
  236. Service kind                             : Complete Main
  237. Default                                  : No
  238. Forced                                   : No

  239. Audio #10
  240. ID                                       : 12
  241. Format                                   : AC-3
  242. Format/Info                              : Audio Coding 3
  243. Commercial name                          : Dolby Digital
  244. Codec ID                                 : A_AC3
  245. Duration                                 : 2 h 23 min
  246. Bit rate mode                            : Constant
  247. Bit rate                                 : 448 kb/s
  248. Channel(s)                               : 6 channels
  249. Channel layout                           : L R C LFE Ls Rs
  250. Sampling rate                            : 48.0 kHz
  251. Frame rate                               : 31.250 FPS (1536 SPF)
  252. Bit depth                                : 16 bits
  253. Compression mode                         : Lossy
  254. Stream size                              : 459 MiB (1%)
  255. Title                                    : Skyfall.2012.2160p.BluRay.REMUX.HEVC.DTS-HD.MA.5.1-FGT
  256. Language                                 : Polish
  257. Service kind                             : Complete Main
  258. Default                                  : No
  259. Forced                                   : No

  260. Audio #11
  261. ID                                       : 13
  262. Format                                   : AC-3
  263. Format/Info                              : Audio Coding 3
  264. Commercial name                          : Dolby Digital
  265. Codec ID                                 : A_AC3
  266. Duration                                 : 2 h 23 min
  267. Bit rate mode                            : Constant
  268. Bit rate                                 : 224 kb/s
  269. Channel(s)                               : 2 channels
  270. Channel layout                           : L R
  271. Sampling rate                            : 48.0 kHz
  272. Frame rate                               : 31.250 FPS (1536 SPF)
  273. Bit depth                                : 16 bits
  274. Compression mode                         : Lossy
  275. Stream size                              : 229 MiB (0%)
  276. Title                                    : Skyfall.2012.2160p.BluRay.REMUX.HEVC.DTS-HD.MA.5.1-FGT
  277. Language                                 : English
  278. Service kind                             : Complete Main
  279. Default                                  : No
  280. Forced                                   : No

  281. Audio #12
  282. ID                                       : 14
  283. Format                                   : AC-3
  284. Format/Info                              : Audio Coding 3
  285. Commercial name                          : Dolby Digital
  286. Codec ID                                 : A_AC3
  287. Duration                                 : 2 h 23 min
  288. Bit rate mode                            : Constant
  289. Bit rate                                 : 224 kb/s
  290. Channel(s)                               : 2 channels
  291. Channel layout                           : L R
  292. Sampling rate                            : 48.0 kHz
  293. Frame rate                               : 31.250 FPS (1536 SPF)
  294. Bit depth                                : 16 bits
  295. Compression mode                         : Lossy
  296. Stream size                              : 229 MiB (0%)
  297. Title                                    : Skyfall.2012.2160p.BluRay.REMUX.HEVC.DTS-HD.MA.5.1-FGT
  298. Language                                 : English
  299. Service kind                             : Complete Main
  300. Default                                  : No
  301. Forced                                   : No

  302. Text #1
  303. ID                                       : 15
  304. Format                                   : UTF-8
  305. Codec ID                                 : S_TEXT/UTF8
  306. Codec ID/Info                            : UTF-8 Plain Text
  307. Duration                                 : 2 h 16 min
  308. Bit rate                                 : 35 b/s
  309. Count of elements                        : 1171
  310. Stream size                              : 35.4 KiB (0%)
  311. Title                                    : English-SRT
  312. Language                                 : English
  313. Default                                  : Yes
  314. Forced                                   : No

  315. Text #2
  316. ID                                       : 16
  317. Format                                   : UTF-8
  318. Codec ID                                 : S_TEXT/UTF8
  319. Codec ID/Info                            : UTF-8 Plain Text
  320. Duration                                 : 2 h 16 min
  321. Bit rate                                 : 38 b/s
  322. Count of elements                        : 1348
  323. Stream size                              : 38.2 KiB (0%)
  324. Title                                    : English-SDH-SRT
  325. Language                                 : English
  326. Default                                  : No
  327. Forced                                   : No

  328. Text #3
  329. ID                                       : 17
  330. Format                                   : PGS
  331. Muxing mode                              : zlib
  332. Codec ID                                 : S_HDMV/PGS
  333. Codec ID/Info                            : Picture based subtitle format used on BDs/HD-DVDs
  334. Duration                                 : 2 h 16 min
  335. Bit rate                                 : 25.4 kb/s
  336. Count of elements                        : 2696
  337. Stream size                              : 24.9 MiB (0%)
  338. Title                                    : English-PGS
  339. Language                                 : English
  340. Default                                  : No
  341. Forced                                   : No

  342. Text #4
  343. ID                                       : 18
  344. Format                                   : PGS
  345. Muxing mode                              : zlib
  346. Codec ID                                 : S_HDMV/PGS
  347. Codec ID/Info                            : Picture based subtitle format used on BDs/HD-DVDs
  348. Duration                                 : 2 h 21 min
  349. Bit rate                                 : 19.4 kb/s
  350. Count of elements                        : 2068
  351. Stream size                              : 19.6 MiB (0%)
  352. Title                                    : Spanish-PGS
  353. Language                                 : Spanish
  354. Default                                  : No
  355. Forced                                   : No

  356. Text #5
  357. ID                                       : 19
  358. Format                                   : PGS
  359. Muxing mode                              : zlib
  360. Codec ID                                 : S_HDMV/PGS
  361. Codec ID/Info                            : Picture based subtitle format used on BDs/HD-DVDs
  362. Duration                                 : 2 h 9 min
  363. Bit rate                                 : 225 b/s
  364. Count of elements                        : 18
  365. Stream size                              : 214 KiB (0%)
  366. Title                                    : Spanish-FORCED-PGS
  367. Language                                 : Spanish
  368. Default                                  : No
  369. Forced                                   : No

  370. Text #6
  371. ID                                       : 20
  372. Format                                   : PGS
  373. Muxing mode                              : zlib
  374. Codec ID                                 : S_HDMV/PGS
  375. Codec ID/Info                            : Picture based subtitle format used on BDs/HD-DVDs
  376. Duration                                 : 2 h 21 min
  377. Bit rate                                 : 17.9 kb/s
  378. Count of elements                        : 2200
  379. Stream size                              : 18.1 MiB (0%)
  380. Title                                    : French-PGS
  381. Language                                 : French
  382. Default                                  : No
  383. Forced                                   : No

  384. Text #7
  385. ID                                       : 21
  386. Format                                   : PGS
  387. Muxing mode                              : zlib
  388. Codec ID                                 : S_HDMV/PGS
  389. Codec ID/Info                            : Picture based subtitle format used on BDs/HD-DVDs
  390. Duration                                 : 2 h 6 min
  391. Bit rate                                 : 317 b/s
  392. Count of elements                        : 36
  393. Stream size                              : 294 KiB (0%)
  394. Title                                    : French-FORCED-PGS
  395. Language                                 : French
  396. Default                                  : No
  397. Forced                                   : No

  398. Text #8
  399. ID                                       : 22
  400. Format                                   : PGS
  401. Muxing mode                              : zlib
  402. Codec ID                                 : S_HDMV/PGS
  403. Codec ID/Info                            : Picture based subtitle format used on BDs/HD-DVDs
  404. Duration                                 : 2 h 21 min
  405. Bit rate                                 : 19.0 kb/s
  406. Count of elements                        : 2166
  407. Stream size                              : 19.2 MiB (0%)
  408. Title                                    : Spanish-PGS
  409. Language                                 : Spanish
  410. Default                                  : No
  411. Forced                                   : No

  412. Text #9
  413. ID                                       : 23
  414. Format                                   : PGS
  415. Muxing mode                              : zlib
  416. Codec ID                                 : S_HDMV/PGS
  417. Codec ID/Info                            : Picture based subtitle format used on BDs/HD-DVDs
  418. Duration                                 : 2 h 5 min
  419. Bit rate                                 : 177 b/s
  420. Count of elements                        : 22
  421. Stream size                              : 164 KiB (0%)
  422. Title                                    : Spanish-FORCED-PGS
  423. Language                                 : Spanish
  424. Default                                  : No
  425. Forced                                   : No

  426. Text #10
  427. ID                                       : 24
  428. Format                                   : PGS
  429. Muxing mode                              : zlib
  430. Codec ID                                 : S_HDMV/PGS
  431. Codec ID/Info                            : Picture based subtitle format used on BDs/HD-DVDs
  432. Duration                                 : 2 h 21 min
  433. Bit rate                                 : 20.1 kb/s
  434. Count of elements                        : 1990
  435. Stream size                              : 20.3 MiB (0%)
  436. Title                                    : Danish-PGS
  437. Language                                 : Danish
  438. Default                                  : No
  439. Forced                                   : No

  440. Text #11
  441. ID                                       : 25
  442. Format                                   : PGS
  443. Muxing mode                              : zlib
  444. Codec ID                                 : S_HDMV/PGS
  445. Codec ID/Info                            : Picture based subtitle format used on BDs/HD-DVDs
  446. Duration                                 : 2 h 21 min
  447. Bit rate                                 : 17.9 kb/s
  448. Count of elements                        : 1768
  449. Stream size                              : 18.1 MiB (0%)
  450. Title                                    : Dutch-PGS
  451. Language                                 : Dutch
  452. Default                                  : No
  453. Forced                                   : No

  454. Text #12
  455. ID                                       : 26
  456. Format                                   : PGS
  457. Muxing mode                              : zlib
  458. Codec ID                                 : S_HDMV/PGS
  459. Codec ID/Info                            : Picture based subtitle format used on BDs/HD-DVDs
  460. Duration                                 : 2 h 21 min
  461. Bit rate                                 : 16.8 kb/s
  462. Count of elements                        : 2034
  463. Stream size                              : 17.0 MiB (0%)
  464. Title                                    : Finnish-PGS
  465. Language                                 : Finnish
  466. Default                                  : No
  467. Forced                                   : No

  468. Text #13
  469. ID                                       : 27
  470. Format                                   : PGS
  471. Muxing mode                              : zlib
  472. Codec ID                                 : S_HDMV/PGS
  473. Codec ID/Info                            : Picture based subtitle format used on BDs/HD-DVDs
  474. Duration                                 : 2 h 21 min
  475. Bit rate                                 : 21.0 kb/s
  476. Count of elements                        : 2596
  477. Stream size                              : 21.3 MiB (0%)
  478. Title                                    : German-PGS
  479. Language                                 : German
  480. Default                                  : No
  481. Forced                                   : No

  482. Text #14
  483. ID                                       : 28
  484. Format                                   : PGS
  485. Muxing mode                              : zlib
  486. Codec ID                                 : S_HDMV/PGS
  487. Codec ID/Info                            : Picture based subtitle format used on BDs/HD-DVDs
  488. Duration                                 : 2 h 5 min
  489. Bit rate                                 : 142 b/s
  490. Count of elements                        : 10
  491. Stream size                              : 132 KiB (0%)
  492. Title                                    : German-FORCED-PGS
  493. Language                                 : German
  494. Default                                  : No
  495. Forced                                   : No

  496. Text #15
  497. ID                                       : 29
  498. Format                                   : PGS
  499. Muxing mode                              : zlib
  500. Codec ID                                 : S_HDMV/PGS
  501. Codec ID/Info                            : Picture based subtitle format used on BDs/HD-DVDs
  502. Duration                                 : 2 h 21 min
  503. Bit rate                                 : 18.9 kb/s
  504. Count of elements                        : 2032
  505. Stream size                              : 19.2 MiB (0%)
  506. Title                                    : Italian-PGS
  507. Language                                 : Italian
  508. Default                                  : No
  509. Forced                                   : No

  510. Text #16
  511. ID                                       : 30
  512. Format                                   : PGS
  513. Muxing mode                              : zlib
  514. Codec ID                                 : S_HDMV/PGS
  515. Codec ID/Info                            : Picture based subtitle format used on BDs/HD-DVDs
  516. Duration                                 : 2 h 6 min
  517. Bit rate                                 : 327 b/s
  518. Count of elements                        : 26
  519. Stream size                              : 302 KiB (0%)
  520. Title                                    : Italian-FORCED-PGS
  521. Language                                 : Italian
  522. Default                                  : No
  523. Forced                                   : No

  524. Text #17
  525. ID                                       : 31
  526. Format                                   : PGS
  527. Muxing mode                              : zlib
  528. Codec ID                                 : S_HDMV/PGS
  529. Codec ID/Info                            : Picture based subtitle format used on BDs/HD-DVDs
  530. Duration                                 : 2 h 21 min
  531. Bit rate                                 : 18.3 kb/s
  532. Count of elements                        : 1872
  533. Stream size                              : 18.6 MiB (0%)
  534. Title                                    : Norwegian-PGS
  535. Language                                 : Norwegian
  536. Default                                  : No
  537. Forced                                   : No

  538. Text #18
  539. ID                                       : 32
  540. Format                                   : PGS
  541. Muxing mode                              : zlib
  542. Codec ID                                 : S_HDMV/PGS
  543. Codec ID/Info                            : Picture based subtitle format used on BDs/HD-DVDs
  544. Duration                                 : 2 h 21 min
  545. Bit rate                                 : 17.3 kb/s
  546. Count of elements                        : 1580
  547. Stream size                              : 17.6 MiB (0%)
  548. Title                                    : Swedish-PGS
  549. Language                                 : Swedish
  550. Default                                  : No
  551. Forced                                   : No

  552. Text #19
  553. ID                                       : 33
  554. Format                                   : PGS
  555. Muxing mode                              : zlib
  556. Codec ID                                 : S_HDMV/PGS
  557. Codec ID/Info                            : Picture based subtitle format used on BDs/HD-DVDs
  558. Duration                                 : 2 h 21 min
  559. Bit rate                                 : 18.4 kb/s
  560. Count of elements                        : 2106
  561. Stream size                              : 18.6 MiB (0%)
  562. Title                                    : Chinese-PGS
  563. Language                                 : Chinese
  564. Default                                  : No
  565. Forced                                   : No

  566. Text #20
  567. ID                                       : 34
  568. Format                                   : PGS
  569. Muxing mode                              : zlib
  570. Codec ID                                 : S_HDMV/PGS
  571. Codec ID/Info                            : Picture based subtitle format used on BDs/HD-DVDs
  572. Duration                                 : 2 h 21 min
  573. Bit rate                                 : 19.4 kb/s
  574. Count of elements                        : 2094
  575. Stream size                              : 19.7 MiB (0%)
  576. Title                                    : Czech-PGS
  577. Language                                 : Czech
  578. Default                                  : No
  579. Forced                                   : No

  580. Text #21
  581. ID                                       : 35
  582. Format                                   : PGS
  583. Muxing mode                              : zlib
  584. Codec ID                                 : S_HDMV/PGS
  585. Codec ID/Info                            : Picture based subtitle format used on BDs/HD-DVDs
  586. Duration                                 : 2 h 6 min
  587. Bit rate                                 : 207 b/s
  588. Count of elements                        : 24
  589. Stream size                              : 192 KiB (0%)
  590. Title                                    : Czech-FORCED-PGS
  591. Language                                 : Czech
  592. Default                                  : No
  593. Forced                                   : No

  594. Text #22
  595. ID                                       : 36
  596. Format                                   : PGS
  597. Muxing mode                              : zlib
  598. Codec ID                                 : S_HDMV/PGS
  599. Codec ID/Info                            : Picture based subtitle format used on BDs/HD-DVDs
  600. Duration                                 : 2 h 21 min
  601. Bit rate                                 : 19.7 kb/s
  602. Count of elements                        : 1818
  603. Stream size                              : 19.9 MiB (0%)
  604. Title                                    : Hungarian-PGS
  605. Language                                 : Hungarian
  606. Default                                  : No
  607. Forced                                   : No

  608. Text #23
  609. ID                                       : 37
  610. Format                                   : PGS
  611. Muxing mode                              : zlib
  612. Codec ID                                 : S_HDMV/PGS
  613. Codec ID/Info                            : Picture based subtitle format used on BDs/HD-DVDs
  614. Duration                                 : 2 h 9 min
  615. Bit rate                                 : 163 b/s
  616. Count of elements                        : 24
  617. Stream size                              : 156 KiB (0%)
  618. Title                                    : Hungarian-FORCED-PGS
  619. Language                                 : Hungarian
  620. Default                                  : No
  621. Forced                                   : No

  622. Text #24
  623. ID                                       : 38
  624. Format                                   : PGS
  625. Muxing mode                              : zlib
  626. Codec ID                                 : S_HDMV/PGS
  627. Codec ID/Info                            : Picture based subtitle format used on BDs/HD-DVDs
  628. Duration                                 : 2 h 21 min
  629. Bit rate                                 : 11.6 kb/s
  630. Count of elements                        : 2188
  631. Stream size                              : 11.8 MiB (0%)
  632. Title                                    : Korean-PGS
  633. Language                                 : Korean
  634. Default                                  : No
  635. Forced                                   : No

  636. Text #25
  637. ID                                       : 39
  638. Format                                   : PGS
  639. Muxing mode                              : zlib
  640. Codec ID                                 : S_HDMV/PGS
  641. Codec ID/Info                            : Picture based subtitle format used on BDs/HD-DVDs
  642. Duration                                 : 2 h 21 min
  643. Bit rate                                 : 15.0 kb/s
  644. Count of elements                        : 2116
  645. Stream size                              : 15.2 MiB (0%)
  646. Title                                    : Chinese-PGS
  647. Language                                 : Chinese
  648. Default                                  : No
  649. Forced                                   : No

  650. Text #26
  651. ID                                       : 40
  652. Format                                   : PGS
  653. Muxing mode                              : zlib
  654. Codec ID                                 : S_HDMV/PGS
  655. Codec ID/Info                            : Picture based subtitle format used on BDs/HD-DVDs
  656. Duration                                 : 2 h 21 min
  657. Bit rate                                 : 18.3 kb/s
  658. Count of elements                        : 2088
  659. Stream size                              : 18.6 MiB (0%)
  660. Title                                    : Polish-PGS
  661. Language                                 : Polish
  662. Default                                  : No
  663. Forced                                   : No

  664. Text #27
  665. ID                                       : 41
  666. Format                                   : PGS
  667. Muxing mode                              : zlib
  668. Codec ID                                 : S_HDMV/PGS
  669. Codec ID/Info                            : Picture based subtitle format used on BDs/HD-DVDs
  670. Duration                                 : 2 h 22 min
  671. Bit rate                                 : 20.9 kb/s
  672. Count of elements                        : 2206
  673. Stream size                              : 21.4 MiB (0%)
  674. Title                                    : Portuguese-PGS
  675. Language                                 : Portuguese
  676. Default                                  : No
  677. Forced                                   : No

  678. Text #28
  679. ID                                       : 42
  680. Format                                   : PGS
  681. Muxing mode                              : zlib
  682. Codec ID                                 : S_HDMV/PGS
  683. Codec ID/Info                            : Picture based subtitle format used on BDs/HD-DVDs
  684. Duration                                 : 2 h 18 min
  685. Bit rate                                 : 68.2 kb/s
  686. Count of elements                        : 4368
  687. Stream size                              : 67.7 MiB (0%)
  688. Title                                    : English-COMMENTARY-PGS
  689. Language                                 : English
  690. Default                                  : No
  691. Forced                                   : No

  692. Text #29
  693. ID                                       : 43
  694. Format                                   : PGS
  695. Muxing mode                              : zlib
  696. Codec ID                                 : S_HDMV/PGS
  697. Codec ID/Info                            : Picture based subtitle format used on BDs/HD-DVDs
  698. Duration                                 : 2 h 22 min
  699. Bit rate                                 : 58.1 kb/s
  700. Count of elements                        : 4326
  701. Stream size                              : 59.4 MiB (0%)
  702. Title                                    : French-COMMENTARY-PGS
  703. Language                                 : French
  704. Default                                  : No
  705. Forced                                   : No

  706. Text #30
  707. ID                                       : 44
  708. Format                                   : PGS
  709. Muxing mode                              : zlib
  710. Codec ID                                 : S_HDMV/PGS
  711. Codec ID/Info                            : Picture based subtitle format used on BDs/HD-DVDs
  712. Duration                                 : 2 h 22 min
  713. Bit rate                                 : 57.3 kb/s
  714. Count of elements                        : 4322
  715. Stream size                              : 58.6 MiB (0%)
  716. Title                                    : Spanish-COMMENTARY-PGS
  717. Language                                 : Spanish
  718. Default                                  : No
  719. Forced                                   : No

  720. Text #31
  721. ID                                       : 45
  722. Format                                   : PGS
  723. Muxing mode                              : zlib
  724. Codec ID                                 : S_HDMV/PGS
  725. Codec ID/Info                            : Picture based subtitle format used on BDs/HD-DVDs
  726. Duration                                 : 2 h 22 min
  727. Bit rate                                 : 60.3 kb/s
  728. Count of elements                        : 4322
  729. Stream size                              : 61.7 MiB (0%)
  730. Title                                    : German-COMMENTARY-PGS
  731. Language                                 : German
  732. Default                                  : No
  733. Forced                                   : No

  734. Text #32
  735. ID                                       : 46
  736. Format                                   : PGS
  737. Muxing mode                              : zlib
  738. Codec ID                                 : S_HDMV/PGS
  739. Codec ID/Info                            : Picture based subtitle format used on BDs/HD-DVDs
  740. Duration                                 : 2 h 22 min
  741. Bit rate                                 : 58.4 kb/s
  742. Count of elements                        : 4326
  743. Stream size                              : 59.7 MiB (0%)
  744. Title                                    : Italian-COMMENTARY-PGS
  745. Language                                 : Italian
  746. Default                                  : No
  747. Forced                                   : No

  748. Text #33
  749. ID                                       : 47
  750. Format                                   : PGS
  751. Muxing mode                              : zlib
  752. Codec ID                                 : S_HDMV/PGS
  753. Codec ID/Info                            : Picture based subtitle format used on BDs/HD-DVDs
  754. Duration                                 : 2 h 22 min
  755. Bit rate                                 : 58.1 kb/s
  756. Count of elements                        : 4450
  757. Stream size                              : 59.4 MiB (0%)
  758. Title                                    : English-COMMENTARY-PGS
  759. Language                                 : English
  760. Default                                  : No
  761. Forced                                   : No

  762. Text #34
  763. ID                                       : 48
  764. Format                                   : PGS
  765. Muxing mode                              : zlib
  766. Codec ID                                 : S_HDMV/PGS
  767. Codec ID/Info                            : Picture based subtitle format used on BDs/HD-DVDs
  768. Duration                                 : 2 h 22 min
  769. Bit rate                                 : 45.6 kb/s
  770. Count of elements                        : 4118
  771. Stream size                              : 46.6 MiB (0%)
  772. Title                                    : French-COMMENTARY-PGS
  773. Language                                 : French
  774. Default                                  : No
  775. Forced                                   : No

  776. Text #35
  777. ID                                       : 49
  778. Format                                   : PGS
  779. Muxing mode                              : zlib
  780. Codec ID                                 : S_HDMV/PGS
  781. Codec ID/Info                            : Picture based subtitle format used on BDs/HD-DVDs
  782. Duration                                 : 2 h 22 min
  783. Bit rate                                 : 49.0 kb/s
  784. Count of elements                        : 4116
  785. Stream size                              : 50.1 MiB (0%)
  786. Title                                    : Spanish-COMMENTARY-PGS
  787. Language                                 : Spanish
  788. Default                                  : No
  789. Forced                                   : No

  790. Text #36
  791. ID                                       : 50
  792. Format                                   : PGS
  793. Muxing mode                              : zlib
  794. Codec ID                                 : S_HDMV/PGS
  795. Codec ID/Info                            : Picture based subtitle format used on BDs/HD-DVDs
  796. Duration                                 : 2 h 22 min
  797. Bit rate                                 : 49.8 kb/s
  798. Count of elements                        : 4116
  799. Stream size                              : 50.9 MiB (0%)
  800. Title                                    : German-COMMENTARY-PGS
  801. Language                                 : German
  802. Default                                  : No
  803. Forced                                   : No

  804. Text #37
  805. ID                                       : 51
  806. Format                                   : PGS
  807. Muxing mode                              : zlib
  808. Codec ID                                 : S_HDMV/PGS
  809. Codec ID/Info                            : Picture based subtitle format used on BDs/HD-DVDs
  810. Duration                                 : 2 h 22 min
  811. Bit rate                                 : 50.8 kb/s
  812. Count of elements                        : 4110
  813. Stream size                              : 51.9 MiB (0%)
  814. Title                                    : Italian-COMMENTARY-PGS
  815. Language                                 : Italian
  816. Default                                  : No
  817. Forced                                   : No

  818. Menu
  819. 00:00:00.000                             : en:Chapter 01
  820. 00:04:28.977                             : en:Chapter 02
  821. 00:07:33.119                             : en:Chapter 03
  822. 00:12:48.058                             : en:Chapter 04
  823. 00:16:48.173                             : en:Chapter 05
  824. 00:21:38.005                             : en:Chapter 06
  825. 00:25:00.957                             : en:Chapter 07
  826. 00:29:25.513                             : en:Chapter 08
  827. 00:35:06.813                             : en:Chapter 09
  828. 00:38:28.431                             : en:Chapter 10
  829. 00:41:25.107                             : en:Chapter 11
  830. 00:46:23.572                             : en:Chapter 12
  831. 00:50:48.962                             : en:Chapter 13
  832. 00:54:53.957                             : en:Chapter 14
  833. 00:59:39.409                             : en:Chapter 15
  834. 01:05:14.827                             : en:Chapter 16
  835. 01:10:16.962                             : en:Chapter 17
  836. 01:17:10.125                             : en:Chapter 18
  837. 01:20:55.725                             : en:Chapter 19
  838. 01:26:11.040                             : en:Chapter 20
  839. 01:31:50.421                             : en:Chapter 21
  840. 01:37:05.194                             : en:Chapter 22
  841. 01:40:49.418                             : en:Chapter 23
  842. 01:43:46.637                             : en:Chapter 24
  843. 01:45:55.015                             : en:Chapter 25
  844. 01:52:10.974                             : en:Chapter 26
  845. 01:54:46.462                             : en:Chapter 27
  846. 01:58:13.711                             : en:Chapter 28
  847. 02:02:49.779                             : en:Chapter 29
  848. 02:09:39.021                             : en:Chapter 30
  849. 02:14:49.956                             : en:Chapter 31
  850. 02:17:46.967                             : en:Chapter 32
复制代码

007:大破天幕杀机/007之天降杀机 Skyfall.2012.2160p.BluRay.REMUX.HEVC.DTS-HD.MA.5.1-FGT 55.48GB-2.png 007:大破天幕杀机/007之天降杀机 Skyfall.2012.2160p.BluRay.REMUX.HEVC.DTS-HD.MA.5.1-FGT 55.48GB-3.png 007:大破天幕杀机/007之天降杀机 Skyfall.2012.2160p.BluRay.REMUX.HEVC.DTS-HD.MA.5.1-FGT 55.48GB-4.png






回复

使用道具 举报

发表于 2019-10-20 14:20:48 | 显示全部楼层
,4k的电影好多啊,谢谢分享。
回复 支持 反对

使用道具 举报

发表于 2019-10-20 17:19:03 | 显示全部楼层
楼主发贴辛苦了,谢谢楼主分享!我觉得蓝光电影网是注册对了!
回复 支持 反对

使用道具 举报

发表于 2019-10-20 19:05:12 | 显示全部楼层
谢谢楼主分享!
回复 支持 反对

使用道具 举报

发表于 2019-10-21 12:27:48 | 显示全部楼层
楼主辛苦了。
回复 支持 反对

使用道具 举报

 成长值: 1030

发表于 2019-10-21 17:08:18 | 显示全部楼层
谢谢楼主无私分享。
回复 支持 反对

使用道具 举报

发表于 2019-10-22 18:44:47 | 显示全部楼层
谢谢分享
回复

使用道具 举报

发表于 2019-10-24 08:48:48 | 显示全部楼层

我看不错噢 谢谢楼主!蓝光电影网越来越好!
回复 支持 反对

使用道具 举报

已抛锚 成长值: 4840

发表于 2019-11-2 07:35:29 | 显示全部楼层
感谢楼主分享。
回复 支持 反对

使用道具 举报

发表于 2019-11-6 20:58:39 | 显示全部楼层

这东西我收了!谢谢楼主!蓝光电影网真好!
回复 支持 反对

使用道具 举报

懒得打字嘛,点击右侧快捷回复 【右侧内容,后台自定义】
您需要登录后才可以回帖 登录 | 立即加入

本版积分规则

现在加入蓝光电影网,注册一个账号

QQ| 手机版|小黑屋| 蓝光电影网 |网站地图 

Copyright © 2015-2019 Comsenz Inc.  Template by 蓝光电影论坛 All Rights Reserved.

Powered by 蓝光电影网 X3.4

特别声明:本站所有资源均由网上收集而来,版权归原影音公司所有,如果侵犯了你的权益,请通知我们,我们会及时删除侵权内容.

快速回复 返回顶部 返回列表