找回密码

蓝光电影网

查看: 37|回复: 0

[喜剧片] 海豹突击队2 U.S.Seals.2.2001.1080p.AMZN.WEBRip.DDP2.0.x264-QOQ 9.49GB

[复制链接]

 成长值: 22705

发表于 2019-6-17 22:41:59 | 显示全部楼层 |阅读模式
海豹突击队2 U.S.Seals.2.2001.1080p.AMZN.WEBRip.DDP2.0.x264-QOQ 9.49GB-1.png

译  名 海豹突击队2 / U.S. Seals II: The Ultimate Force / 海豹突击队2:终极气力 / 特战连:绝密使命
片  名 U.S. Seals II (V)
年  代 2001
产  地 美国
类  别 笑剧 / 行动 / 冒险
语  言 英语
上映日期 2001-06-21
IMDb评分4.6/10 from 734 users
IMDb链接http://www.imdb.com/title/tt0283652
豆瓣评分 4.7/10 from 114 users
豆瓣链接 https://movie.douban.com/subject/1306927/
片  长 95 分钟
导  演 Isaac Florentine
编  剧 博兹大卫逊 (Boaz Davidson) / Michael D. Weiss
主  演 Michael Worth
      Karen Kim
      Damian Chapa


标  签 行动 | 美国 | 海豹突击队 | 战争 | 肉搏 | 美国电影 | 欧美电影 | 烂片

简  介

  一部冷兵器肉搏电影。
一位前美军海豹特种兵占据一个岛上的原苏联奥秘核武基地,诡计对美国外乡策动核进犯。一样是前海豹特种兵的Casey被告急召集去化解这场危机。由于岛上自然气泄露,一旦用枪就会引发大爆炸,所以Casey率领一群善用军人刀、铁链、弩箭等冷兵器的肉搏精英前往岛上解救被挟持的女科学家,夺回核弹。


  1. Video
  2. ID             : 1
  3. Format           : AVC
  4. Format/Info          : Advanced Video Codec
  5. Format profile         : <a href="/cdn-cgi/l/email-protection" class="__cf_email__" data-cfemail="93dbfaf4fbd3dfa7">High@L4.1</a>
  6. Format settings        : CABAC / 4 Ref Frames
  7. Format settings, CABAC       : Yes
  8. Format settings, ReFrames      : 4 frames
  9. Codec ID           : V_MPEG4/ISO/AVC
  10. Duration           : 1 h 34 min
  11. Bit rate           : 14.1 Mb/s
  12. Width            : 1 920 pixels
  13. Height           : 1 080 pixels
  14. Display aspect ratio       : 16:9
  15. Frame rate mode        : Constant
  16. Frame rate           : 23.976 (24000/1001) FPS
  17. Color space          : YUV
  18. Chroma subsampling       : 4:2:0
  19. Bit depth          : 8 bits
  20. Scan type          : Progressive
  21. Bits/(Pixel*Frame)       : 0.284
  22. Stream size          : 9.34 GiB (98%)
  23. Default            : Yes
  24. Forced           : No
  25. Color range          : Limited
  26. Color primaries        : BT.709
  27. Transfer characteristics     : BT.709
  28. Matrix coefficients        : BT.709

  29. Audio
  30. ID             : 2
  31. Format           : E-AC-3
  32. Format/Info          : Enhanced AC-3
  33. Commercial name        : Dolby Digital Plus
  34. Codec ID           : A_EAC3
  35. Duration           : 1 h 34 min
  36. Bit rate mode          : Constant
  37. Bit rate           : 224 kb/s
  38. Channel(s)           : 2 channels
  39. Channel layout         : L R
  40. Sampling rate          : 48.0 kHz
  41. Frame rate           : 31.250 FPS (1536 SPF)
  42. Compression mode         : Lossy
  43. Stream size          : 152 MiB (2%)
  44. Language           : English
  45. Service kind         : Complete Main
  46. Default            : Yes
  47. Forced           : No

  48. Text
  49. ID             : 3
  50. Format           : UTF-8
  51. Codec ID           : S_TEXT/UTF8
  52. Codec ID/Info          : UTF-8 Plain Text
  53. Duration           : 1 h 30 min
  54. Bit rate           : 35 b/s
  55. Count of elements        : 945
  56. Stream size          : 23.9 KiB (0%)
  57. Title            : SDH
  58. Language           : English
  59. Default            : No
  60. Forced           : No
复制代码

复制代码

海豹突击队2 U.S.Seals.2.2001.1080p.AMZN.WEBRip.DDP2.0.x264-QOQ 9.49GB-2.png 海豹突击队2 U.S.Seals.2.2001.1080p.AMZN.WEBRip.DDP2.0.x264-QOQ 9.49GB-3.png 海豹突击队2 U.S.Seals.2.2001.1080p.AMZN.WEBRip.DDP2.0.x264-QOQ 9.49GB-4.png





开通VIP免费下载本站所有资源---点这里
新手必看:资源下载常见问题---点这里
回复

使用道具 举报

懒得打字嘛,点击右侧快捷回复 【右侧内容,后台自定义】
您需要登录后才可以回帖 登录 | 立即加入

本版积分规则

现在加入蓝光电影网,注册一个账号

QQ| 手机版|小黑屋| 蓝光电影网 |网站地图

Copyright © 2015-2019 Comsenz Inc.  Template by 蓝光电影论坛 All Rights Reserved.

Powered by 蓝光电影网 X3.4

特别声明:本站所有资源均由网上收集而来,版权归原影音公司所有,如果侵犯了你的权益,请通知我们,我们会及时删除侵权内容.

快速回复 返回顶部 返回列表