找回密码

蓝光电影网

查看: 73|回复: 2

[剧情] 钢木兰/钢木兰花 Steel.Magnolias.1989.1080p.BluRay.X264-AMIABLE 8.74GB

[复制链接]

 成长值: 21340

发表于 2019-6-17 21:47:31 | 显示全部楼层 |阅读模式

钢木兰/钢木兰花 Steel.Magnolias.1989.1080p.BluRay.X264-AMIABLE 8.74GB-2.png
译  名 钢木兰 / 钢木兰花
片  名 Steel Magnolias
年  代 1989
产  地 美国
类  别 剧情 / 恋爱
语  言 英语
上映日期 1989-11-15
IMDb评分7.3/10 from 42009 users
IMDb链接http://www.imdb.com/title/tt0098384
豆瓣评分 7.9/10 from 747 users
豆瓣链接 https://movie.douban.com/subject/1300072/
片  长 117 分钟
导  演 Herbert Ross
编  剧 Robert Harling
主  演 莎莉·菲尔德 Sally Field
      多莉·帕顿 Dolly Parton
      雪莉·麦克雷恩 Shirley MacLaine
      达丽尔·汉纳 Daryl Hannah
      奥林匹亚·杜卡基斯 Olympia Dukakis
      朱莉娅·罗伯茨 Julia Roberts
      汤姆·斯凯里特 Tom Skerritt
      山姆·夏普德 Sam Shepard
      迪伦·麦克德莫特 Dylan McDermott
      凯文·J·奥康纳 Kevin J. O'Connor


标  签 美国 | 女性 | 美国电影 | 朱莉娅·罗伯茨 | JuliaRoberts | 剧情 | 恋爱 | 1989

简  介

  这是一个美国再普通不外的小镇。镇上居民露薇(多莉-帕顿Dolly Parton饰)开了一间美容沙龙,和五个顾客女子出格要好,美容沙龙就成为她们嬉笑怒骂家长里短的场所。虽然性情各异,但六个好友聚在一路,时光总是风趣而又温馨。
谢比尔(朱莉娅·罗伯茨 Julia Roberts饰)就是其中一个死党。她得了糖尿病,是以母亲再三劝说她不能生孩子。谢比尔却决然决议要怀孕生育。她凭着顽强的信心,让孩子顺遂诞生,自己却衰竭倒下。母亲承受着白头人送黑头人之痛,谢比尔生前的好友成为了此时现在的强心针。她们配合度过哀痛的光阴,一路乞求雨过晴和的到临,谢比尔的生命在她们心中一向延续着。

获奖情况

  第62届奥斯卡金像奖(1990)
  最好女配角(提名) 朱莉娅·罗伯茨




  1. Video
  2. ID             : 1
  3. Format           : AVC
  4. Format/Info          : Advanced Video Codec
  5. Format profile         : <a href="/cdn-cgi/l/email-protection" class="__cf_email__" data-cfemail="a8e0c1cfc0e8e49c8699">[email protected]</a>
  6. Format settings, CABAC       : Yes
  7. Format settings, ReFrames      : 4 frames
  8. Codec ID           : V_MPEG4/ISO/AVC
  9. Duration           : 1 h 58 min
  10. Bit rate           : 9 082 kb/s
  11. Width            : 1 920 pixels
  12. Height           : 1 040 pixels
  13. Display aspect ratio       : 1.85:1
  14. Frame rate mode        : Constant
  15. Frame rate           : 23.976 (24000/1001) FPS
  16. Color space          : YUV
  17. Chroma subsampling       : 4:2:0
  18. Bit depth          : 8 bits
  19. Scan type          : Progressive
  20. Bits/(Pixel*Frame)       : 0.190
  21. Stream size          : 7.32 GiB (84%)
  22. Writing library        : x264 core 125 r2208 d9d2288
  23. Encoding settings        : cabac=1 / ref=4 / deblock=1:0:0 / analyse=0x3:0x113 / me=umh / subme=8 / psy=1 / psy_rd=1.00:0.00 / mixed_ref=1 / me_range=16 / chroma_me=1 / trellis=1 / 8x8dct=1 / cqm=0 / deadzone=21,11 / fast_pskip=1 / chroma_qp_offset=-2 / threads=12 / lookahead_threads=2 / sliced_threads=0 / nr=0 / decimate=1 / interlaced=0 / bluray_compat=0 / constrained_intra=0 / bframes=3 / b_pyramid=2 / b_adapt=2 / b_bias=0 / direct=3 / weightb=1 / open_gop=0 / weightp=2 / keyint=240 / keyint_min=24 / scenecut=40 / intra_refresh=0 / rc_lookahead=50 / rc=2pass / mbtree=1 / bitrate=9082 / ratetol=1.0 / qcomp=0.60 / qpmin=0 / qpmax=69 / qpstep=4 / cplxblur=20.0 / qblur=0.5 / ip_ratio=1.40 / aq=1:1.00
  24. Language           : English
  25. Default            : Yes
  26. Forced           : No

  27. Audio
  28. ID             : 2
  29. Format           : DTS
  30. Format/Info          : Digital Theater Systems
  31. Mode             : 16
  32. Format settings, Endianness    : Big
  33. Codec ID           : A_DTS
  34. Duration           : 1 h 58 min
  35. Bit rate mode          : Constant
  36. Bit rate           : 1 509 kb/s
  37. Channel(s)           : 6 channels
  38. Channel positions        : Front: L C R, Side: L R, LFE
  39. Sampling rate          : 48.0 kHz
  40. Frame rate           : 93.750 FPS (512 spf)
  41. Bit depth          : 24 bits
  42. Compression mode         : Lossy
  43. Stream size          : 1.25 GiB (14%)
  44. Language           : English
  45. Default            : Yes
  46. Forced           : No

  47. Text
  48. ID             : 3
  49. Format           : UTF-8
  50. Codec ID           : S_TEXT/UTF8
  51. Codec ID/Info          : UTF-8 Plain Text
  52. Language           : English
  53. Default            : No
  54. Forced           : No

  55. Menu
  56. 00:00:00.000         : en:00:00:00.000
  57. 00:12:27.038         : en:00:12:27.038
  58. 00:17:43.187         : en:00:17:43.187
  59. 00:28:24.328         : en:00:28:24.328
  60. 00:37:09.811         : en:00:37:09.811
  61. 00:47:28.387         : en:00:47:28.387
  62. 01:02:30.205         : en:01:02:30.205
  63. 01:21:57.079         : en:01:21:57.079
  64. 01:28:24.466         : en:01:28:24.466
  65. 01:37:32.138         : en:01:37:32.138
  66. 01:46:07.653         : en:01:46:07.653
  67. 01:54:55.097         : en:01:54:55.097
复制代码

复制代码

钢木兰/钢木兰花 Steel.Magnolias.1989.1080p.BluRay.X264-AMIABLE 8.74GB-10.png 钢木兰/钢木兰花 Steel.Magnolias.1989.1080p.BluRay.X264-AMIABLE 8.74GB-9.png 钢木兰/钢木兰花 Steel.Magnolias.1989.1080p.BluRay.X264-AMIABLE 8.74GB-8.png 钢木兰/钢木兰花 Steel.Magnolias.1989.1080p.BluRay.X264-AMIABLE 8.74GB-6.png




开通VIP免费下载本站所有资源---点这里
新手必看:资源下载、资源播放、字幕使用、等常见问题---点这里
回复

使用道具 举报

发表于 2019-6-18 14:50:21 | 显示全部楼层
<font size="1">看到这帖子真是高兴!真是难得给力的帖子啊.楼主传的影片是真正的大片,我受益了.楼主,电影应该很好看我觉得,非常感谢楼主分享精彩好看的高清电影,楼主太厉害了!激动人心,无法言表!真是被感动的痛哭流涕……楼主发贴辛苦了,谢谢楼主分享!感恩无私的分享与奉献强烈支持楼主ing……再次多谢楼主楼主发贴辛苦了,谢谢楼主分享!这个帖子不回对不起自己!我想我是一天也不能离开.论坛里一定要有楼主这样无私甘于奉献的人才,我等才能享受到精品大片.论坛不能没有像楼主这样的人才啊!我会一直支持,楼主加油,我们都看好你哦。蓝光电影网真是个好地方!要想蓝光电影网好 就靠你我他.蓝光电影网真好!蓝光电影网太棒了!蓝光电影网是最棒的!我觉得蓝光电影网是注册对了!蓝光电影网不走平凡路。我会一直支持蓝光电影网。蓝光电影网越来越好!</font>
开通VIP免费下载本站所有资源---点这里
新手必看:资源下载、资源播放、字幕使用、等常见问题---点这里
回复 支持 反对

使用道具 举报

发表于 2019-6-25 15:54:50 | 显示全部楼层
茱莉亚罗伯茨当年还不是巨星,看着相当有沧桑感
开通VIP免费下载本站所有资源---点这里
新手必看:资源下载、资源播放、字幕使用、等常见问题---点这里
回复 支持 反对

使用道具 举报

懒得打字嘛,点击右侧快捷回复 【右侧内容,后台自定义】
您需要登录后才可以回帖 登录 | 立即加入

本版积分规则

现在加入蓝光电影网,注册一个账号

QQ| 手机版|小黑屋| 蓝光电影网 |网站地图

Copyright © 2015-2019 Comsenz Inc.  Template by 蓝光电影网 All Rights Reserved.

Powered by 蓝光电影网 X3.4

特别声明:本站所有资源均由网上收集而来,版权归原影音公司所有,如果侵犯了你的权益,请通知我们,我们会及时删除侵权内容.

快速回复 返回顶部 返回列表