找回密码

蓝光电影网

查看: 58|回复: 2

[喜剧] 十八岁之狼 Teen.Wolf.1985.REMASTERED.1080p.BluRay.X264-AMIABLE 9.84GB

[复制链接]

 成长值: 21340

发表于 2019-6-17 21:39:22 | 显示全部楼层 |阅读模式
十八岁之狼 Teen.Wolf.1985.REMASTERED.1080p.BluRay.X264-AMIABLE 9.84GB-1.png

译  名 十八岁之狼
片  名 Teen Wolf
年  代 1985
产  地 美国
类  别 笑剧 / 恋爱 / 家庭 / 奇异
语  言 英语
上映日期 1986-04-25
IMDb评分6.0/10 from 41738 users
IMDb链接http://www.imdb.com/title/tt0090142
豆瓣评分 6.3/10 from 163 users
豆瓣链接 https://movie.douban.com/subject/1940300/
片  长 91 分钟
导  演 Rod Daniel
编  剧 Joseph Loeb Ⅲ / Matthew Weisman
主  演 Michael J. Fox
      James Hampton
      Susan Ursitti


标  签 笑剧 | 十八岁之狼 | 美国 | 美国电影 | 奇异 | 青春 | 狼人 | 1985

简  介

  高中生Scott发现自己越来越与众分歧,他的满身起头生出长长的毛发,令他忧心又担忧,可是,身材出现的奇异气力,使他忽然成为高校篮球队的闪亮明星,另全校师生另眼相看。究竟,狼人的身世对Scott来说,是福还是祸?


  1. Video
  2. ID             : 1
  3. Format           : AVC
  4. Format/Info          : Advanced Video Codec
  5. Format profile         : <a href="/cdn-cgi/l/email-protection" class="__cf_email__" data-cfemail="2c64454b446c6018021d">[email protected]</a>
  6. Format settings, CABAC       : Yes
  7. Format settings, ReFrames      : 4 frames
  8. Codec ID           : V_MPEG4/ISO/AVC
  9. Duration           : 1h 32mn
  10. Bit rate           : 13.7 Mbps
  11. Width            : 1 920 pixels
  12. Height           : 1 040 pixels
  13. Display aspect ratio       : 1.85:1
  14. Frame rate mode        : Constant
  15. Frame rate           : 23.976 (24000/1001) fps
  16. Color space          : YUV
  17. Chroma subsampling       : 4:2:0
  18. Bit depth          : 8 bits
  19. Scan type          : Progressive
  20. Bits/(Pixel*Frame)       : 0.287
  21. Stream size          : 8.67 GiB (88%)
  22. Writing library        : x264 core 152 r2851 ba24899
  23. Encoding settings        : cabac=1 / ref=4 / deblock=1:-3:-3 / analyse=0x3:0x133 / me=umh / subme=10 / psy=1 / psy_rd=1.10:0.00 / mixed_ref=1 / me_range=32 / chroma_me=1 / trellis=2 / 8x8dct=1 / cqm=0 / deadzone=21,11 / fast_pskip=0 / chroma_qp_offset=-2 / threads=24 / lookahead_threads=4 / sliced_threads=0 / nr=0 / decimate=1 / interlaced=0 / bluray_compat=0 / constrained_intra=0 / bframes=8 / b_pyramid=2 / b_adapt=2 / b_bias=0 / direct=3 / weightb=1 / open_gop=0 / weightp=2 / keyint=240 / keyint_min=24 / scenecut=40 / intra_refresh=0 / rc_lookahead=60 / rc=2pass / mbtree=1 / bitrate=13740 / ratetol=1.0 / qcomp=0.60 / qpmin=0 / qpmax=69 / qpstep=4 / cplxblur=20.0 / qblur=0.5 / ip_ratio=1.30 / aq=3:0.75
  24. Default            : Yes
  25. Forced           : No
  26. Statistics Tags Issue      : no_variable_data 1970-01-01 00:00:00 / no_variable_data 2010-02-22 21:41:29
  27. FromStats_BitRate        : 13737867
  28. FromStats_Duration       : 01:32:21.161000000
  29. FromStats_FrameCount       : 132855
  30. FromStats_StreamSize       : 9515466936

  31. Audio
  32. ID             : 2
  33. Format           : DTS
  34. Format/Info          : Digital Theater Systems
  35. Mode             : 16
  36. Format settings, Endianness    : Big
  37. Codec ID           : A_DTS
  38. Duration           : 1h 32mn
  39. Bit rate mode          : Constant
  40. Bit rate           : 1 509 Kbps
  41. Channel(s)           : 2 channels
  42. Channel positions        : Front: L R
  43. Sampling rate          : 48.0 KHz
  44. Frame rate           : 93.750 fps (512 spf)
  45. Bit depth          : 24 bits
  46. Compression mode         : Lossy
  47. Stream size          : 997 MiB (10%)
  48. Language           : English
  49. Default            : Yes
  50. Forced           : No
  51. Statistics Tags Issue      : no_variable_data 1970-01-01 00:00:00 / no_variable_data 2010-02-22 21:41:29
  52. FromStats_BitRate        : 1508999
  53. FromStats_Duration       : 01:32:22.027000000
  54. FromStats_FrameCount       : 519565
  55. FromStats_StreamSize       : 1045364780

  56. Text #1
  57. ID             : 3
  58. Format           : UTF-8
  59. Codec ID           : S_TEXT/UTF8
  60. Codec ID/Info          : UTF-8 Plain Text
  61. Language           : English
  62. Default            : No
  63. Forced           : No
  64. Statistics Tags Issue      : no_variable_data 1970-01-01 00:00:00 / no_variable_data 2010-02-22 21:41:29
  65. FromStats_BitRate        : 63
  66. FromStats_Duration       : 01:26:30.644000000
  67. FromStats_FrameCount       : 1246
  68. FromStats_StreamSize       : 41010

  69. Text #2
  70. ID             : 4
  71. Format           : UTF-8
  72. Codec ID           : S_TEXT/UTF8
  73. Codec ID/Info          : UTF-8 Plain Text
  74. Title            : SDH
  75. Language           : English
  76. Default            : No
  77. Forced           : No
  78. Statistics Tags Issue      : no_variable_data 1970-01-01 00:00:00 / no_variable_data 2010-02-22 21:41:29
  79. FromStats_BitRate        : 69
  80. FromStats_Duration       : 01:27:09.641000000
  81. FromStats_FrameCount       : 1325
  82. FromStats_StreamSize       : 45482

  83. Menu
  84. 00:00:00.000         : en:00:00:00.000
  85. 00:06:21.047         : en:00:06:21.047
  86. 00:14:33.998         : en:00:14:33.998
  87. 00:20:48.122         : en:00:20:48.122
  88. 00:27:29.106         : en:00:27:29.106
  89. 00:35:17.365         : en:00:35:17.365
  90. 00:42:30.465         : en:00:42:30.465
  91. 00:50:11.550         : en:00:50:11.550
  92. 00:59:01.288         : en:00:59:01.288
  93. 01:07:25.625         : en:01:07:25.625
  94. 01:16:00.806         : en:01:16:00.806
  95. 01:27:43.467         : en:01:27:43.467
复制代码

复制代码

十八岁之狼 Teen.Wolf.1985.REMASTERED.1080p.BluRay.X264-AMIABLE 9.84GB-2.png






开通VIP免费下载本站所有资源---点这里
新手必看:资源下载、资源播放、字幕使用、等常见问题---点这里
回复

使用道具 举报

发表于 2019-6-18 14:45:38 | 显示全部楼层
<font size="1">看到这帖子真是高兴!真是难得给力的帖子啊.楼主传的影片是真正的大片,我受益了.楼主,电影应该很好看我觉得,非常感谢楼主分享精彩好看的高清电影,楼主太厉害了!激动人心,无法言表!真是被感动的痛哭流涕……楼主发贴辛苦了,谢谢楼主分享!感恩无私的分享与奉献强烈支持楼主ing……再次多谢楼主楼主发贴辛苦了,谢谢楼主分享!这个帖子不回对不起自己!我想我是一天也不能离开.论坛里一定要有楼主这样无私甘于奉献的人才,我等才能享受到精品大片.论坛不能没有像楼主这样的人才啊!我会一直支持,楼主加油,我们都看好你哦。蓝光电影网真是个好地方!要想蓝光电影网好 就靠你我他.蓝光电影网真好!蓝光电影网太棒了!蓝光电影网是最棒的!我觉得蓝光电影网是注册对了!蓝光电影网不走平凡路。我会一直支持蓝光电影网。蓝光电影网越来越好!</font>
开通VIP免费下载本站所有资源---点这里
新手必看:资源下载、资源播放、字幕使用、等常见问题---点这里
回复 支持 反对

使用道具 举报

发表于 2019-6-19 21:51:36 | 显示全部楼层

这东西我收了!谢谢楼主!蓝光电影网真好!
开通VIP免费下载本站所有资源---点这里
新手必看:资源下载、资源播放、字幕使用、等常见问题---点这里
回复 支持 反对

使用道具 举报

懒得打字嘛,点击右侧快捷回复 【右侧内容,后台自定义】
您需要登录后才可以回帖 登录 | 立即加入

本版积分规则

现在加入蓝光电影网,注册一个账号

QQ| 手机版|小黑屋| 蓝光电影网 |网站地图

Copyright © 2015-2019 Comsenz Inc.  Template by 蓝光电影网 All Rights Reserved.

Powered by 蓝光电影网 X3.4

特别声明:本站所有资源均由网上收集而来,版权归原影音公司所有,如果侵犯了你的权益,请通知我们,我们会及时删除侵权内容.

快速回复 返回顶部 返回列表