找回密码

蓝光电影网

查看: 70|回复: 4

[喜剧片] 一百样东西 100.Things.2018.720p.BluRay.x264-JustWatch 5.47GB

[复制链接]

 成长值: 21340

发表于 2019-5-30 11:51:29 | 显示全部楼层 |阅读模式
一百样东西 100.Things.2018.720p.BluRay.x264-JustWatch 5.47GB-1.png

◎译  名 一百样工具 / 100 things
◎片  名 100 Dinge
◎年  代 2018
◎产  地 德国
◎类  别 笑剧
◎语  言 德语
◎上映日期 2018-12-06(德国)
◎IMDb评分 6.5/10 from 755 users
◎IMDb链接 http://www.imdb.com/title/tt8129794
◎豆瓣评分 0/10 from 0 users
◎豆瓣链接 https://movie.douban.com/subject/30172751/
◎片  长 111分钟(德国)
◎导  演 弗洛里安·大卫·菲茨 Florian David Fitz
◎主  演 马提亚斯·施维赫夫 Matthias Schweigh?fer
      弗洛里安·大卫·菲茨 Florian David Fitz
      Artjom Gilz


◎标  签 德国 | 德国电影 | 笑剧 | MatthiasSchweigh?fer | 电影 | 2018 | 柏林 | 恋爱

◎简  介

  Best friends Toni and Paul decide to relinquish all of their belongings for 100 days, whereby they receive one of their items back on each day. During this challenge the two realize, that the only thing they cannot be without is their friendship. A story about contemporary materialism and the quest for the truely important things in life.


  1. Video
  2. ID : 1
  3. Format : AVC
  4. Format/Info : Advanced Video Codec
  5. Format profile : [email]High@L4.1[/email]
  6. Format settings : CABAC / 5 Ref Frames
  7. Format settings, CABAC : Yes
  8. Format settings, ReFrames : 5 frames
  9. Codec ID : V_MPEG4/ISO/AVC
  10. Duration : 1 h 50 min
  11. Bit rate : 5 544 kb/s
  12. Width : 1 280 pixels
  13. Height : 536 pixels
  14. Display aspect ratio : 2.40:1
  15. Frame rate mode : Constant
  16. Frame rate : 23.976 (24000/1001) FPS
  17. Color space : YUV
  18. Chroma subsampling : 4:2:0
  19. Bit depth : 8 bits
  20. Scan type : Progressive
  21. Bits/(Pixel*Frame) : 0.337
  22. Stream size : 4.29 GiB (79%)
  23. Writing library : x264 core 157 r2969 d4099dd
  24. Encoding settings : cabac=1 / ref=5 / deblock=1:-2:-2 / analyse=0x3:0x113 / me=umh / subme=8 / psy=1 / psy_rd=1.00:0.00 / mixed_ref=1 / me_range=16 / chroma_me=1 / trellis=2 / 8x8dct=1 / cqm=0 / deadzone=21,11 / fast_pskip=1 / chroma_qp_offset=-2 / threads=17 / lookahead_threads=2 / sliced_threads=0 / nr=0 / decimate=1 / interlaced=0 / bluray_compat=0 / constrained_intra=0 / bframes=3 / b_pyramid=2 / b_adapt=2 / b_bias=0 / direct=3 / weightb=1 / open_gop=0 / weightp=2 / keyint=240 / keyint_min=24 / scenecut=40 / intra_refresh=0 / rc_lookahead=50 / rc=2pass / mbtree=1 / bitrate=5544 / ratetol=1.0 / qcomp=0.60 / qpmin=0 / qpmax=69 / qpstep=4 / cplxblur=20.0 / qblur=0.5 / ip_ratio=1.40 / aq=1:1.00
  25. Language : English
  26. Default : Yes
  27. Forced : No

  28. Audio
  29. ID : 2
  30. Format : DTS
  31. Format/Info : Digital Theater Systems
  32. Codec ID : A_DTS
  33. Duration : 1 h 50 min
  34. Bit rate mode : Constant
  35. Bit rate : 1 509 kb/s
  36. Channel(s) : 6 channels
  37. Channel layout : C L R Ls Rs LFE
  38. Sampling rate : 48.0 kHz
  39. Frame rate : 93.750 FPS (512 SPF)
  40. Bit depth : 24 bits
  41. Compression mode : Lossy
  42. Stream size : 1.17 GiB (21%)
  43. Language : German
  44. Default : Yes
  45. Forced : No

  46. Text
  47. ID : 3
  48. Format : UTF-8
  49. Codec ID : S_TEXT/UTF8
  50. Codec ID/Info : UTF-8 Plain Text
  51. Duration : 1 h 45 min
  52. Bit rate : 58 b/s
  53. Count of elements : 1532
  54. Stream size : 45.1 KiB (0%)
  55. Language : English
  56. Default : Yes
  57. Forced : No

  58. Menu
  59. 00:00:00.000 : :Kapitel 01
  60. 00:08:41.938 : :Kapitel 02
  61. 00:19:55.861 : :Kapitel 03
  62. 00:30:08.056 : :Kapitel 04
  63. 00:41:41.541 : :Kapitel 05
  64. 00:51:22.371 : :Kapitel 06
  65. 01:01:12.711 : :Kapitel 07
  66. 01:09:07.894 : :Kapitel 08
  67. 01:19:33.102 : :Kapitel 09
  68. 01:26:48.870 : :Kapitel 10
  69. 01:33:38.488 : :Kapitel 11
  70. 01:38:46.420 : :Kapitel 12
复制代码

复制代码

一百样东西 100.Things.2018.720p.BluRay.x264-JustWatch 5.47GB-2.png





开通VIP免费下载本站所有资源---点这里
新手必看:资源下载、资源播放、字幕使用、等常见问题---点这里
回复

使用道具 举报

发表于 2019-5-30 18:06:41 | 显示全部楼层
感谢楼主分享
开通VIP免费下载本站所有资源---点这里
新手必看:资源下载、资源播放、字幕使用、等常见问题---点这里
回复 支持 反对

使用道具 举报

发表于 2019-5-31 11:50:49 | 显示全部楼层
看着海报,感觉怕是同志片啊!
开通VIP免费下载本站所有资源---点这里
新手必看:资源下载、资源播放、字幕使用、等常见问题---点这里
回复 支持 反对

使用道具 举报

发表于 2019-5-31 12:04:12 | 显示全部楼层
楼主发贴辛苦了,谢谢楼主分享!我觉得蓝光电影网是注册对了!
开通VIP免费下载本站所有资源---点这里
新手必看:资源下载、资源播放、字幕使用、等常见问题---点这里
回复 支持 反对

使用道具 举报

 成长值: 1220

发表于 2019-6-17 22:24:47 | 显示全部楼层

楼主,我太崇拜你了!我想我是一天也不能离开蓝光电影网
开通VIP免费下载本站所有资源---点这里
新手必看:资源下载、资源播放、字幕使用、等常见问题---点这里
回复 支持 反对

使用道具 举报

懒得打字嘛,点击右侧快捷回复 【右侧内容,后台自定义】
您需要登录后才可以回帖 登录 | 立即加入

本版积分规则

现在加入蓝光电影网,注册一个账号

QQ| 手机版|小黑屋| 蓝光电影网 |网站地图

Copyright © 2015-2019 Comsenz Inc.  Template by 蓝光电影网 All Rights Reserved.

Powered by 蓝光电影网 X3.4

特别声明:本站所有资源均由网上收集而来,版权归原影音公司所有,如果侵犯了你的权益,请通知我们,我们会及时删除侵权内容.

快速回复 返回顶部 返回列表