找回密码

蓝光电影网

查看: 1314|回复: 36

[奇幻片] 海王 Aquaman.2018.IMAX.720p.BluRay.x264-SPARKS 6.56GB

[复制链接]
  • TA的每日心情
    开心
    昨天 00:08
  • 签到天数: 181 天

    [LV.7]常住居民III

     成长值: 20575

    发表于 2019-3-14 16:02:42 | 显示全部楼层 |阅读模式

    马上注册,获取最新影视资讯,享用更多功能,让你轻松玩转蓝光电影网。

    您需要 登录 才可以下载或查看,没有帐号?立即加入

    x
    海王 Aquaman.2018.IMAX.720p.BluRay.x264-SPARKS 6.56GB-1.jpg

    译  名 海王 / 人鱼哥(豆友译名) / 水人 / 水行侠(港 / 台) / 潜水侠
    片  名 Aquaman
    年  代 2018
    产  地 美国 / 澳大利亚
    类  别 行动 / 奇异 / 冒险
    语  言 英语 / 毛利语 / 意大利语 / 俄语
    上映日期 2018-12-07(中国大陆) / 2018-12-21(美国)
    IMDb评分 7.3/10 from 175666 users
    IMDb链接 http://www.imdb.com/title/tt1477834
    豆瓣评分 7.7/10 from 473983 users
    豆瓣链接 https://movie.douban.com/subject/3878007/
    片  长 143分钟
    导  演 温子仁 James Wan
    编  剧 大卫·莱斯利·约翰逊-麦戈德里克 David Leslie Johnson-McGoldrick / 威尔·比尔 Will Beall / 乔夫·琼斯 Geoff Johns / 温子仁 James Wan / 莫尔特·魏辛格 Mort Weisinger / 保罗·诺里斯 Paul Norris
    主  演 杰森·莫玛 Jason Momoa
          艾梅柏·希尔德 Amber Heard
          威廉·达福 Willem Dafoe
          帕特里克·威尔森 Patrick Wilson
          妮可·基德曼 Nicole Kidman
          杜夫·龙格尔 Dolph Lundgren
          叶海亚·阿卜杜勒-迈丁 Yahya Abdul-Mateen II
          特穆拉·莫里森 Temuera Morrison
          林路迪 Ludi Lin
          迈克尔·比奇 Michael Beach
          兰道尔·朴 Randall Park
          格拉汉姆·麦克泰维什 Graham McTavish
          雷·沃纳尔 Leigh Whannell
          泰努伊·柯克伍德 Tainui Kirkwood
          塔穆尔·柯克伍德 Tamor Kirkwood
          丹泽尔·夸克 Denzel Quirke
          卡恩·古尔杜尔 Kaan Guldur
          奥蒂斯·丹吉 Otis Dhanji
          克考亚·克库毛诺 Kekoa Kekumano
          朱莉·安德鲁斯 Julie Andrews
          约翰·瑞斯-戴维斯 John Rhys-Davies
          杰曼·翰苏 Djimon Hounsou
          索菲亚·福雷斯特 Sophia Forrest
          娜塔莉亚姗福瑞 Natalia Safran
          杰克·安德鲁 Jack Andrew
          汉克·阿莫斯 Hank Amos
          帕特里克·考克斯 Patrick Cox
          罗伯特·朗斯特里特 Robert Longstreet
          德维卡·帕利赫 Devika Parikh
          梅布尔·塔莫内 Mabel Tamone
          文森特·B·拉戈斯 Vincent B. Gorce
          加布里埃拉·佩特科娃 Gabriella Petkova
          爱丽丝·兰斯伯里 Alice Lanesbury
          帕特里克·艾奇逊 Patrick Atchison
          约翰·盖蒂尔 John Gettier
          塔丽亚·杰德·霍尔特 Tahlia Jade Holt
          罗斯·克纳汉 Ross Kernahan
          布拉登·刘易斯 Braden Lewis
          萨尔瓦多·梅伦达 Salvatore Merenda
          山姆·莫纳汉 Sam Monaghan
          温妮·穆赞贝 Winnie Mzembe
          凯·潘塔诺 Kai Pantano
          安娜·帕奇 Anna Patch
          乔恩·奎斯蒂德 Jon Quested
          迪伦·斯图默 Dylan Stumer
          米奇·武尔夫 Mikey Wulff



    简  介

      很多年前,亚特兰蒂斯女王(妮可·基德曼 Nicole Kidman 饰)和人类相知相恋,配合孕育了恋爱的结晶——后来被陆地人称为海王的亚瑟·库瑞(杰森·莫玛 Jason Momoa 饰)。在长大的进程中,亚瑟接管海底导师维科(威廉·达福 Willem Dafoe 饰)的严苛练习,时辰渴望去探望母亲,但是作为混血的私生子这却是期望。与此同时,亚瑟的同母异父兄弟奥姆(帕特里克·威尔森 Patrick Wilson 饰)成为亚特兰蒂斯的国王,他不满陆地人类对大海的苛虐与净化,遂经营结合其他海底王国策动对陆地的周全战争。为了阻止他的野心,维科和奥姆的未婚妻湄拉(艾梅柏·希尔德 Amber Heard 饰)将亚瑟带到海底天下。
    宿命鞭策着亚瑟,去寻觅失落已久的三叉戟,建立一个加倍开通的海底王国……

    获奖情况

      第21届美国打扮设想工会奖(2019)
      科幻/奇异题材电影最好打扮设想(提名) 凯姆·巴雷特

      第6届美国化装及发型设想工会奖(2019)
      电影类最好殊效化装(提名)

      第66届美国音效剪辑协会奖(2019)
      金卷轴奖 最好配乐剪辑(提名)

      第17届美国视觉结果协会奖(2019)
      最好真人电影CG布景(提名)
      最好电影虚拟摄影(提名)

      第5届豆瓣电影年度榜单(2018)
      评分最高的科幻/行动片(提名)

      第4届豆瓣电影年度榜单(2017)
      最值得期待的外语电影(提名)

    • Video
    • ID : 1
    • Format : AVC
    • Format/Info : Advanced Video Codec
    • Format profile : [email protected]
    • Format settings : CABAC / 4 Ref Frames
    • Format settings, CABAC : Yes
    • Format settings, ReFrames : 4 frames
    • Codec ID : V_MPEG4/ISO/AVC
    • Duration : 2 h 23 min
    • Bit rate : 9 409 kb/s
    • Width : 1 920 pixels
    • Height : 1 080 pixels
    • Display aspect ratio : 16:9
    • Frame rate mode : Constant
    • Frame rate : 23.976 (24000/1001) FPS
    • Color space : YUV
    • Chroma subsampling : 4:2:0
    • Bit depth : 8 bits
    • Scan type : Progressive
    • Bits/(Pixel*Frame) : 0.189
    • Stream size : 9.42 GiB (86%)
    • Writing library : x264 core 157 r2935 545de2f
    • Encoding settings : cabac=1 / ref=4 / deblock=1:-3:-3 / analyse=0x3:0x113 / me=umh / subme=8 / psy=1 / psy_rd=1.00:0.00 / mixed_ref=1 / me_range=16 / chroma_me=1 / trellis=1 / 8x8dct=1 / cqm=0 / deadzone=21,11 / fast_pskip=1 / chroma_qp_offset=-2 / threads=30 / lookahead_threads=5 / sliced_threads=0 / nr=0 / decimate=1 / interlaced=0 / bluray_compat=0 / constrained_intra=0 / bframes=3 / b_pyramid=2 / b_adapt=1 / b_bias=0 / direct=3 / weightb=1 / open_gop=0 / weightp=2 / keyint=250 / keyint_min=23 / scenecut=40 / intra_refresh=0 / rc_lookahead=50 / rc=2pass / mbtree=1 / bitrate=9409 / ratetol=1.0 / qcomp=0.60 / qpmin=0 / qpmax=69 / qpstep=4 / cplxblur=20.0 / qblur=0.5 / ip_ratio=1.40 / aq=1:1.00
    • Language : English
    • Default : Yes
    • Forced : No
    • Audio
    • ID : 2
    • Format : DTS
    • Format/Info : Digital Theater Systems
    • Codec ID : A_DTS
    • Duration : 2 h 23 min
    • Bit rate mode : Constant
    • Bit rate : 1 509 kb/s
    • Channel(s) : 6 channels
    • Channel layout : C L R Ls Rs LFE
    • Sampling rate : 48.0 kHz
    • Frame rate : 93.750 FPS (512 SPF)
    • Bit depth : 24 bits
    • Compression mode : Lossy
    • Stream size : 1.51 GiB (14%)
    • Language : English
    • Default : Yes
    • Forced : No
    • Menu
    • 00:00:00.000 : en:00:00:00.000
    • 00:11:09.294 : en:00:11:09.294
    • 00:22:11.622 : en:00:22:11.622
    • 00:30:11.018 : en:00:30:11.018
    • 00:40:28.718 : en:00:40:28.718
    • 00:50:24.647 : en:00:50:24.647
    • 01:01:15.755 : en:01:01:15.755
    • 01:08:57.091 : en:01:08:57.091
    • 01:21:41.271 : en:01:21:41.271
    • 01:34:50.435 : en:01:34:50.435
    • 01:39:37.430 : en:01:39:37.430
    • 01:49:32.816 : en:01:49:32.816
    • 02:01:36.539 : en:02:01:36.539
    • 02:10:19.895 : en:02:10:19.895

    复制代码


    海王 Aquaman.2018.IMAX.720p.BluRay.x264-SPARKS 6.56GB-2.jpg




    Aquaman.2018.IMAX.720p.BluRay.x264-SPARKS.torrent (33.58 KB, 下载次数: 70)
    开通VIP免费下载本站所有资源---点这里
    新手必看:资源下载、资源播放、字幕使用、等常见问题---点这里
    回复

    使用道具 举报

  • TA的每日心情
    擦汗
    前天 16:21
  • 签到天数: 82 天

    [LV.6]常住居民II

    发表于 2019-3-14 16:04:14 | 显示全部楼层
    个人觉得最大的看点就是湄拉。
    开通VIP免费下载本站所有资源---点这里
    新手必看:资源下载、资源播放、字幕使用、等常见问题---点这里
    回复 支持 反对

    使用道具 举报

    该用户从未签到

    发表于 2019-3-14 19:28:47 | 显示全部楼层
    再次回复,谢谢分享
    开通VIP免费下载本站所有资源---点这里
    新手必看:资源下载、资源播放、字幕使用、等常见问题---点这里
    回复 支持 反对

    使用道具 举报

  • TA的每日心情
    慵懒
    5 小时前
  • 签到天数: 87 天

    [LV.6]常住居民II

    发表于 2019-3-14 20:17:42 | 显示全部楼层
    天哪,,,没有VIP
    [发帖际遇]: 氺pǐnɡ蓙づ 发帖时在路边捡到 1 蓝光币,偷偷放进了口袋. 幸运榜 / 衰神榜
    开通VIP免费下载本站所有资源---点这里
    新手必看:资源下载、资源播放、字幕使用、等常见问题---点这里
    回复 支持 反对

    使用道具 举报

  • TA的每日心情
    奋斗
    2019-3-14 22:12
  • 签到天数: 6 天

    [LV.2]偶尔看看I

    发表于 2019-3-14 22:16:08 | 显示全部楼层
    还必须是VIP了呀,我之前嫩多蓝光B怎么办?
    开通VIP免费下载本站所有资源---点这里
    新手必看:资源下载、资源播放、字幕使用、等常见问题---点这里
    回复 支持 反对

    使用道具 举报

  • TA的每日心情
    开心
    昨天 15:08
  • 签到天数: 49 天

    [LV.5]常住居民I

    发表于 2019-3-14 22:49:56 | 显示全部楼层
    感谢楼主提供这样给力的一个平台
    [发帖际遇]: 一个袋子砸在了 longfun 头上,longfun 赚了 1 蓝光币. 幸运榜 / 衰神榜
    开通VIP免费下载本站所有资源---点这里
    新手必看:资源下载、资源播放、字幕使用、等常见问题---点这里
    回复 支持 反对

    使用道具 举报

  • TA的每日心情
    慵懒
    2019-5-18 17:10
  • 签到天数: 17 天

    [LV.4]偶尔看看III

    发表于 2019-3-14 23:23:12 | 显示全部楼层

    楼主太厉害了!楼主,电影应该很好看我觉得蓝光电影网真是个好地方!
    [发帖际遇]: libingam 发帖时在路边捡到 2 蓝光币,偷偷放进了口袋. 幸运榜 / 衰神榜
    开通VIP免费下载本站所有资源---点这里
    新手必看:资源下载、资源播放、字幕使用、等常见问题---点这里
    回复 支持 反对

    使用道具 举报

  • TA的每日心情
    开心
    2019-4-18 00:01
  • 签到天数: 35 天

    [LV.5]常住居民I

    发表于 2019-3-15 00:23:51 | 显示全部楼层
    这也要VIP。。。外面到处都是了。。。。
    开通VIP免费下载本站所有资源---点这里
    新手必看:资源下载、资源播放、字幕使用、等常见问题---点这里
    回复 支持 反对

    使用道具 举报

  • TA的每日心情
    开心
    2019-3-15 22:14
  • 签到天数: 1 天

    [LV.1]初来乍到

    发表于 2019-3-15 22:19:45 | 显示全部楼层
    还必须是VIP了呀,我之前嫩多蓝光B怎么办?
    [发帖际遇]: 18981954333 发帖时在路边捡到 2 蓝光币,偷偷放进了口袋. 幸运榜 / 衰神榜
    开通VIP免费下载本站所有资源---点这里
    新手必看:资源下载、资源播放、字幕使用、等常见问题---点这里
    回复 支持 反对

    使用道具 举报

  • TA的每日心情
    开心
    2019-1-19 01:33
  • 签到天数: 1 天

    [LV.1]初来乍到

    发表于 2019-3-16 00:21:20 | 显示全部楼层

    楼主太厉害了!楼主,电影应该很好看我觉得蓝光电影网真是个好地方!
    开通VIP免费下载本站所有资源---点这里
    新手必看:资源下载、资源播放、字幕使用、等常见问题---点这里
    回复 支持 反对

    使用道具 举报

    *滑动验证:
    懒得打字嘛,点击右侧快捷回复 【右侧内容,后台自定义】
    您需要登录后才可以回帖 登录 | 立即加入

    本版积分规则

    现在加入蓝光电影网,注册一个账号

    QQ| 手机版|小黑屋| 蓝光电影网 |网站地图

    Copyright © 20013-2018 Comsenz Inc.  Template by 蓝光电影论坛 All Rights Reserved.

    Powered by 高清电影网 X3.4
    特别声明:本站所有资源均由网上收集而来,版权归原影音公司所有,如果侵犯了你的权益,请通知我们,我们会及时删除侵权内容.

    快速回复 返回顶部 返回列表