找回密码

蓝光电影网

查看: 410|回复: 11

欢乐满人间2 Mary.Poppins.Returns.2018.2160p.BluRay.x265.10bit.SDR.DTS-HD.MA.TrueHD.7.1.Atmos-SWTYBLZ 42GB

[复制链接]
  • TA的每日心情
    开心
    17 小时前
  • 签到天数: 117 天

    [LV.6]常住居民II

     成长值: 19555

    发表于 7 天前 | 显示全部楼层 |阅读模式

    马上注册,获取最新影视资讯,享用更多功能,让你轻松玩转蓝光电影网。

    您需要 登录 才可以下载或查看,没有帐号?立即加入

    x
    欢乐满人间2 2018.2160p.BluRay.x265.10bit.SDR.DTS-SWTYBLZ 42GB-1.jpg
    译  名 欢乐满人世2 / 新欢乐满人世 / 爱·满人世(台) / 魔法保姆(港)
    片  名 Mary Poppins Returns
    年  代 2018
    产  地 美国
    类  别 歌舞
    语  言 英语
    上映日期 2018-12-19(美国)
    IMDb评分 7.2/10 from 34277 users
    IMDb链接 http://www.imdb.com/title/tt5028340
    豆瓣评分 7.1/10 from 1735 users
    豆瓣链接 https://movie.douban.com/subject/26611891/
    片  长 130分钟
    导  演 罗伯·马歇尔 Rob Marshall
    编  剧 大卫·麦基 David Magee / 帕梅拉·林登·特拉弗斯 P.L. Travers
    主  演 艾米莉·布朗特 Emily Blunt
          梅丽尔·斯特里普 Meryl Streep
          科林·费尔斯 Colin Firth
          朱丽·沃特斯 Julie Walters
          安吉拉·兰斯伯瑞 Angela Lansbury
          艾米莉·莫迪默 Emily Mortimer
          本·卫肖 Ben Whishaw
          迪克·范·戴克 Dick Van Dyke
          大卫·沃纳 David Warner
          林-曼努尔·米兰达 Lin-Manuel Miranda
          杰里米·斯威夫特 Jeremy Swift
          寇布勒·霍尔德布鲁克-史姑娘 Kobna Holdbrook-Smith
          匹克西·戴夫斯 Pixie Davies
          吉姆·诺顿 Jim Norton
          贝恩·科拉科 Bern Collaço
          迈克尔·科布 Michael Cobb
          伯纳多·桑托斯 Bernardo Santos
          乔安娜·希雅 Johanna Thea
          露丝·霍洛克斯 Ruth Horrocks
          贾格·帕特尔 Jag Patel



    简  介

      迪士尼公司比来被爆出正计划为1964年的歌舞片《欢乐满人世》(Mary Poppins)筹拍续集,续集的导演是凭仗《芝加哥》获得奥斯卡最好影片奖的罗伯·马歇尔(Rob Marshall)。
    据悉,《欢乐满人世》的续集剧本由《寻觅梦幻岛》、《少年派的奇异飘流》编剧大卫·马吉(David Magee )创作,而故事就设定在1964年电影的20年后,配角仍然是玛丽·波平斯和班克斯一家。
    作为一部歌舞片,《欢乐满人世2》的音乐创作也是重中之重,为此罗伯·马歇尔专门找到了《发胶》(Hairspray)的音乐创作人Marc Shaiman和 Scott Wittman,他们俩将为这部续集打造原创歌曲和全新的配乐。

    获奖情况

      第91届奥斯卡金像奖(2019)
      最好艺术指导(提名) 戈登·西姆 / 约翰·迈尔
      最好打扮设想(提名) 桑迪·鲍威尔
      最好原创配乐(提名) 马克·夏曼
      最好原创歌曲(提名) 斯科特·维特曼 / 马克·夏曼

      第76届金球奖(2019)
      电影类 最好音乐/笑剧片(提名)
      电影类 音乐/笑剧片最好男配角(提名) 林-曼努尔·米兰达
      电影类 音乐/笑剧片最好女配角(提名) 艾米莉·布朗特
      电影类 最好原创配乐(提名)

      第72届英国电影学院奖(2019)
      电影奖 最好打扮设想(提名) 桑迪·鲍威尔
      电影奖 最好艺术指导(提名) 戈登·西姆 / 约翰·迈尔
      电影奖 最好原创音乐(提名) 马克·夏曼

      第46届动画安妮奖(2019)
      最好分镜(提名)
      最好艺术指导(提名)
      最好脚色设想(提名)
      最好真人电影动画脚色
      最好特别动画

      第25届美国演员工会奖(2019)
      电影奖 最好女配角(提名) 艾米莉·布朗特

      第23届美国艺术指导工会奖(2019)
      电影奖 最好空想电影艺术指导(提名) 约翰·迈尔

      第21届美国打扮设想工会奖(2019)
      年月电影最好打扮设想(提名) 桑迪·鲍威尔

      第6届美国化装及发型设想工会奖(2019)
      电影类最好年月戏化装(提名)
      电影类最好年月戏发型设想(提名)

      第66届美国音效剪辑协会奖(2019)
      金卷轴奖 最好电影对白剪辑(提名)
      金卷轴奖 最好音乐片音乐剪辑(提名)

      第90届美国国家批评协会奖(2018)
      年度佳片

      第24届美国批评家挑选电影奖(2019)
      最好影片(提名)
      最好女配角(提名) 艾米莉·布朗特
      笑剧片最好女配角(提名) 艾米莉·布朗特
      最好配乐(提名)
      最好歌曲(提名)
      最好美术指导(提名)
      最好打扮设想(提名)
      最好视觉结果(提名)

      第19届美国电影学会奖(2018)
      年度佳片

      第23届金卫星奖(2019)
      电影部分 最好笑剧/音乐片(提名)
      电影部分 笑剧/音乐片最好男配角(提名) 林-曼努尔·米兰达
      电影部分 笑剧/音乐片最好女配角(提名) 艾米莉·布朗特
      电影部分 最好原创歌曲(提名)
      电影部分 最好音效(提名)
      电影部分 最好美术指导

      第17届华盛顿影评人协会奖(2018)
      最好艺术指导(提名)

      第39届伦敦影评人协会奖(2019)
      年度英国/爱尔兰女演员(提名) 艾米莉·布朗特

      第18届凤凰城影评人协会奖(2018)
      十佳影片

    • Video
    • ID : 1
    • Format : HEVC
    • Format/Info : High Efficiency Video Coding
    • Format profile : Main [email protected]@High
    • Codec ID : V_MPEGH/ISO/HEVC
    • Duration : 2 h 10 min
    • Bit rate : 37.5 Mb/s
    • Width : 3 840 pixels
    • Height : 1 608 pixels
    • Display aspect ratio : 2.40:1
    • Frame rate mode : Constant
    • Frame rate : 23.976 (24000/1001) FPS
    • Color space : YUV
    • Chroma subsampling : 4:2:0
    • Bit depth : 10 bits
    • Bits/(Pixel*Frame) : 0.254
    • Stream size : 34.2 GiB (80%)
    • Title : Mary.Poppins.Returns.2018.2160p.BluRay.x265.10bit.SDR.DTS-HD.MA.TrueHD.7.1.Atmos-SWTYBLZ
    • Writing library : x265 3.0ed72af837053:[Windows][GCC 8.2.0][64 bit] 10bit
    • Encoding settings : cpuid=1111039 / frame-threads=16 / numa-pools=16,16 / wpp / no-pmode / no-pme / no-psnr / no-ssim / log-level=2 / input-csp=1 / input-res=3840x1608 / interlace=0 / total-frames=187713 / level-idc=51 / high-tier=1 / uhd-bd=0 / ref=3 / no-allow-non-conformance / repeat-headers / annexb / aud / hrd / info / hash=0 / no-temporal-layers / no-open-gop / min-keyint=1 / keyint=24 / gop-lookahead=0 / bframes=4 / b-adapt=2 / b-pyramid / bframe-bias=0 / rc-lookahead=25 / lookahead-slices=4 / scenecut=40 / radl=0 / no-splice / no-intra-refresh / ctu=64 / min-cu-size=8 / no-rect / no-amp / max-tu-size=32 / tu-inter-depth=1 / tu-intra-depth=1 / limit-tu=0 / rdoq-level=0 / dynamic-rd=0.00 / no-ssim-rd / signhide / no-tskip / nr-intra=0 / nr-inter=0 / no-constrained-intra / strong-intra-smoothing / max-merge=2 / limit-refs=3 / no-limit-modes / me=1 / subme=2 / merange=57 / temporal-mvp / weightp / no-weightb / no-analyze-src-pics / deblock=0:0 / no-sao / no-sao-non-deblock / rd=3 / no-early-skip / rskip / no-fast-intra / no-tskip-fast / no-cu-lossless / no-b-intra / no-splitrd-skip / rdpenalty=0 / psy-rd=2.00 / psy-rdoq=0.00 / no-rd-refine / no-lossless / cbqpoffs=0 / crqpoffs=0 / rc=crf / crf=16.0 / qcomp=0.60 / qpstep=4 / stats-write=0 / stats-read=0 / vbv-maxrate=160000 / vbv-bufsize=160000 / vbv-init=0.9 / crf-max=0.0 / crf-min=0.0 / ipratio=1.40 / pbratio=1.30 / aq-mode=1 / aq-strength=1.00 / cutree / zone-count=0 / no-strict-cbr / qg-size=32 / no-rc-grain / qpmax=69 / qpmin=0 / no-const-vbv / sar=1 / overscan=0 / videoformat=5 / range=0 / colorprim=2 / transfer=2 / colormatrix=2 / chromaloc=0 / display-window=0 / max-cll=0,0 / min-luma=0 / max-luma=1023 / log2-max-poc-lsb=8 / vui-timing-info / vui-hrd-info / slices=1 / opt-qp-pps / opt-ref-list-length-pps / no-multi-pass-opt-rps / scenecut-bias=0.05 / no-opt-cu-delta-qp / no-aq-motion / no-hdr / no-hdr-opt / no-dhdr10-opt / no-idr-recovery-sei / analysis-reuse-level=5 / scale-factor=0 / refine-intra=0 / refine-inter=0 / refine-mv=0 / refine-ctu-distortion=0 / no-limit-sao / ctu-info=0 / no-lowpass-dct / refine-analysis-type=0 / copy-pic=1 / max-ausize-factor=1.0 / no-dynamic-refine / no-single-sei / no-hevc-aq / qp-adaptation-range=1.00
    • Default : Yes
    • Forced : No
    • Audio #1
    • ID : 2
    • Format : MLP FBA 16-ch
    • Format/Info : Meridian Lossless Packing FBA with 16-channel presentation
    • Commercial name : Dolby TrueHD with Dolby Atmos
    • Codec ID : A_TRUEHD
    • Duration : 2 h 10 min
    • Bit rate mode : Variable
    • Bit rate : 4 253 kb/s
    • Maximum bit rate : 6 366 kb/s
    • Channel(s) : 8 channels
    • Channel layout : L R C LFE Ls Rs Lb Rb
    • Sampling rate : 48.0 kHz
    • Frame rate : 1 200.000 FPS (40 SPF)
    • Compression mode : Lossless
    • Delay relative to video : 32 ms
    • Stream size : 3.88 GiB (9%)
    • Title : Mary.Poppins.Returns.2018.2160p.BluRay.x265.10bit.SDR.DTS-HD.MA.TrueHD.7.1.Atmos-SWTYBLZ
    • Language : English
    • Default : Yes
    • Forced : No
    • Number of dynamic objects : 13
    • Bed channel count : 1 channel
    • Bed channel configuration : LFE
    • Audio #2
    • ID : 3
    • Format : DTS XLL
    • Format/Info : Digital Theater Systems
    • Commercial name : DTS-HD Master Audio
    • Codec ID : A_DTS
    • Duration : 2 h 10 min
    • Bit rate mode : Variable
    • Bit rate : 4 109 kb/s
    • Channel(s) : 8 channels
    • Channel layout : C L R LFE Lb Rb Lss Rss
    • Sampling rate : 48.0 kHz
    • Frame rate : 93.750 FPS (512 SPF)
    • Bit depth : 24 bits
    • Compression mode : Lossless
    • Stream size : 3.75 GiB (9%)
    • Title : Mary.Poppins.Returns.2018.2160p.BluRay.x265.10bit.SDR.DTS-HD.MA.TrueHD.7.1.Atmos-SWTYBLZ
    • Language : English
    • Default : No
    • Forced : No
    • Audio #3
    • ID : 4
    • Format : AC-3
    • Format/Info : Audio Coding 3
    • Commercial name : Dolby Digital
    • Codec ID : A_AC3
    • Duration : 2 h 10 min
    • Bit rate mode : Constant
    • Bit rate : 640 kb/s
    • Channel(s) : 6 channels
    • Channel layout : L R C LFE Ls Rs
    • Sampling rate : 48.0 kHz
    • Frame rate : 31.250 FPS (1536 SPF)
    • Bit depth : 16 bits
    • Compression mode : Lossy
    • Delay relative to video : 32 ms
    • Stream size : 597 MiB (1%)
    • Title : Mary.Poppins.Returns.2018.2160p.BluRay.x265.10bit.SDR.DTS-HD.MA.TrueHD.7.1.Atmos-SWTYBLZ
    • Language : English
    • Service kind : Complete Main
    • Default : No
    • Forced : No
    • Text #1
    • ID : 5
    • Format : UTF-8
    • Codec ID : S_TEXT/UTF8
    • Codec ID/Info : UTF-8 Plain Text
    • Duration : 2 h 5 min
    • Bit rate : 77 b/s
    • Count of elements : 2276
    • Stream size : 70.9 KiB (0%)
    • Title : English-SRT
    • Language : English
    • Default : Yes
    • Forced : No
    • Text #2
    • ID : 6
    • Format : PGS
    • Muxing mode : zlib
    • Codec ID : S_HDMV/PGS
    • Codec ID/Info : Picture based subtitle format used on BDs/HD-DVDs
    • Duration : 2 h 5 min
    • Bit rate : 53.1 kb/s
    • Count of elements : 4918
    • Stream size : 47.6 MiB (0%)
    • Title : English-PGS
    • Language : English
    • Default : No
    • Forced : No
    • Text #3
    • ID : 7
    • Format : PGS
    • Muxing mode : zlib
    • Codec ID : S_HDMV/PGS
    • Codec ID/Info : Picture based subtitle format used on BDs/HD-DVDs
    • Duration : 2 h 2 min
    • Bit rate : 45.9 kb/s
    • Count of elements : 3998
    • Stream size : 40.1 MiB (0%)
    • Title : French-PGS
    • Language : French
    • Default : No
    • Forced : No
    • Text #4
    • ID : 8
    • Format : PGS
    • Muxing mode : zlib
    • Codec ID : S_HDMV/PGS
    • Codec ID/Info : Picture based subtitle format used on BDs/HD-DVDs
    • Duration : 2 h 2 min
    • Bit rate : 44.3 kb/s
    • Count of elements : 3938
    • Stream size : 38.8 MiB (0%)
    • Title : Spanish-PGS
    • Language : Spanish
    • Default : No
    • Forced : No
    • Text #5
    • ID : 9
    • Format : PGS
    • Muxing mode : zlib
    • Codec ID : S_HDMV/PGS
    • Codec ID/Info : Picture based subtitle format used on BDs/HD-DVDs
    • Duration : 2 h 2 min
    • Bit rate : 22.8 kb/s
    • Count of elements : 3938
    • Stream size : 20.0 MiB (0%)
    • Title : Korean-PGS
    • Language : Korean
    • Default : No
    • Forced : No
    • Menu
    • 00:00:00.000 : :Chapter 1
    • 00:06:38.064 : :Chapter 2
    • 00:15:22.046 : :Chapter 3
    • 00:19:18.031 : :Chapter 4
    • 00:26:01.893 : :Chapter 5
    • 00:33:10.405 : :Chapter 6
    • 00:39:05.426 : :Chapter 7
    • 00:46:11.351 : :Chapter 8
    • 00:57:34.033 : :Chapter 9
    • 01:06:14.387 : :Chapter 10
    • 01:15:55.801 : :Chapter 11
    • 01:21:51.364 : :Chapter 12
    • 01:32:18.199 : :Chapter 13
    • 01:36:29.825 : :Chapter 14
    • 01:53:58.331 : :Chapter 15
    • 02:03:47.962 : :Chapter 16

    复制代码



    欢乐满人间2 2018.2160p.BluRay.x265.10bit.SDR.DTS-SWTYBLZ 42GB-2.jpg 欢乐满人间2 2018.2160p.BluRay.x265.10bit.SDR.DTS-SWTYBLZ 42GB-3.jpg
    欢乐满人间2 2018.2160p.BluRay.x265.10bit.SDR.DTS-SWTYBLZ 42GB-4.jpg 欢乐满人间2 2018.2160p.BluRay.x265.10bit.SDR.DTS-SWTYBLZ 42GB-5.jpg




    Mary.Poppins.Returns.2018.2160p.BluRay.x265.10bit.SDR.DTS-HD.MA.TrueHD.7.1.Atmos.torrent (107.22 KB, 下载次数: 25)
    开通VIP免费下载本站所有资源---点这里
    新手必看:资源下载、资源播放、字幕使用、等常见问题---点这里
    回复

    使用道具 举报

  • TA的每日心情
    开心
    3 小时前
  • 签到天数: 5 天

    [LV.2]偶尔看看I

    发表于 7 天前 | 显示全部楼层
    灰常赞!!!
    开通VIP免费下载本站所有资源---点这里
    新手必看:资源下载、资源播放、字幕使用、等常见问题---点这里
    回复

    使用道具 举报

  • TA的每日心情
    开心
    昨天 08:32
  • 签到天数: 72 天

    [LV.6]常住居民II

    发表于 7 天前 | 显示全部楼层

    楼主太厉害了!楼主,电影应该很好看我觉得蓝光电影网真是个好地方!
    开通VIP免费下载本站所有资源---点这里
    新手必看:资源下载、资源播放、字幕使用、等常见问题---点这里
    回复 支持 反对

    使用道具 举报

  • TA的每日心情
    无聊
    6 天前
  • 签到天数: 2 天

    [LV.1]初来乍到

    发表于 6 天前 | 显示全部楼层

    既然你诚信诚意的推荐了,那我就勉为其难的看看吧!蓝光电影网不走平凡路。
    开通VIP免费下载本站所有资源---点这里
    新手必看:资源下载、资源播放、字幕使用、等常见问题---点这里
    回复 支持 反对

    使用道具 举报

  • TA的每日心情
    无聊
    昨天 08:41
  • 签到天数: 39 天

    [LV.5]常住居民I

    发表于 6 天前 | 显示全部楼层

    这个帖子不回对不起自己!我想我是一天也不能离开蓝光电影网
    开通VIP免费下载本站所有资源---点这里
    新手必看:资源下载、资源播放、字幕使用、等常见问题---点这里
    回复 支持 反对

    使用道具 举报

  • TA的每日心情
    郁闷
    5 天前
  • 签到天数: 3 天

    [LV.2]偶尔看看I

    发表于 5 天前 | 显示全部楼层
    蓝光电影网,电影的天堂
    开通VIP免费下载本站所有资源---点这里
    新手必看:资源下载、资源播放、字幕使用、等常见问题---点这里
    回复 支持 反对

    使用道具 举报

  • TA的每日心情
    开心
    前天 11:29
  • 签到天数: 15 天

    [LV.4]偶尔看看III

    发表于 3 天前 | 显示全部楼层
    谢谢分享谢谢分享
    开通VIP免费下载本站所有资源---点这里
    新手必看:资源下载、资源播放、字幕使用、等常见问题---点这里
    回复 支持 反对

    使用道具 举报

  • TA的每日心情
    开心
    前天 09:11
  • 签到天数: 35 天

    [LV.5]常住居民I

    发表于 3 天前 | 显示全部楼层

    既然你诚信诚意的推荐了,那我就勉为其难的看看吧!蓝光电影网不走平凡路。
    开通VIP免费下载本站所有资源---点这里
    新手必看:资源下载、资源播放、字幕使用、等常见问题---点这里
    回复 支持 反对

    使用道具 举报

  • TA的每日心情
    开心
    前天 00:00
  • 签到天数: 4 天

    [LV.2]偶尔看看I

    发表于 3 天前 | 显示全部楼层

    这个帖子不回对不起自己!我想我是一天也不能离开蓝光电影网
    开通VIP免费下载本站所有资源---点这里
    新手必看:资源下载、资源播放、字幕使用、等常见问题---点这里
    回复 支持 反对

    使用道具 举报

  • TA的每日心情
    无聊
    3 天前
  • 签到天数: 10 天

    [LV.3]偶尔看看II

    发表于 3 天前 | 显示全部楼层

    其实我一直觉得楼主的品味不错!呵呵!蓝光电影网太棒了!
    [发帖际遇]: hermes 发帖时在路边捡到 1 蓝光币,偷偷放进了口袋. 幸运榜 / 衰神榜
    开通VIP免费下载本站所有资源---点这里
    新手必看:资源下载、资源播放、字幕使用、等常见问题---点这里
    回复 支持 反对

    使用道具 举报

    *滑动验证:
    懒得打字嘛,点击右侧快捷回复 【右侧内容,后台自定义】
    您需要登录后才可以回帖 登录 | 立即加入

    本版积分规则

    现在加入蓝光电影网,注册一个账号

    QQ| 手机版|小黑屋| 蓝光电影网 |网站地图

    Copyright © 20013-2018 Comsenz Inc.  Template by 蓝光电影论坛 All Rights Reserved.

    Powered by 高清电影网 X3.4
    特别声明:本站所有资源均由网上收集而来,版权归原影音公司所有,如果侵犯了你的权益,请通知我们,我们会及时删除侵权内容.

    快速回复 返回顶部 返回列表