找回密码

蓝光电影网

查看: 13640|回复: 176

冰河时代的巨人 Titans.of.the.Ice.Age.2013.1080p.BluRay.x264.DTS-SWTYBLZ 3.50GB

  [复制链接]

 成长值: 21925

发表于 2018-2-3 17:38:03 | 显示全部楼层 |阅读模式
020916h5wmp5awyoyae9ta.jpg
◎译  名 冰河时代的巨人
◎片  名 Titans of the Ice Age
◎年  代 2013
◎产  地 美国
◎类  别 纪录片
◎语  言 英语
◎上映日期 2013-02-15
◎IMDb评分  6.9/10 from 106 users
◎IMDb链接  http://www.imdb.com/title/tt2653370/
◎豆瓣评分 7.5/10 from 22 users
◎豆瓣链接 https://movie.douban.com/subject/22991882/
◎导  演 大卫·克拉克 David Clark
◎主  演 克里斯托弗·普卢默 Christopher Plummer

◎简  介

  《冰河时代的巨人》引领观众回到现代文明诞生前的一万年前,在那个历史时期,人类与巨型动物共同生存在奇异壮观的冰封大陆上。本片尽可能真实的还原了北美、欧洲、亚洲大陆的壮丽地貌,利用炫目的CGI技术重塑了长毛象、剑齿虎、冰原狼等冰河时代生物,对冰河时代感兴趣的观众们来说,本片绝对是不应错过的一次饕餮盛宴。与此同时,影片还探索了可持续环境发展,在极端环境中存活等重要课题。


  1. Video
  2. ID                                       : 1
  3. Format                                   : AVC
  4. Format/Info                              : Advanced Video Codec
  5. Format profile                           : [email]High@L4.1[/email]
  6. Format settings                          : CABAC / 5 Ref Frames
  7. Format settings, CABAC                   : Yes
  8. Format settings, ReFrames                : 5 frames
  9. Codec ID                                 : V_MPEG4/ISO/AVC
  10. Duration                                 : 38 min 4 s
  11. Bit rate                                 : 11.6 Mb/s
  12. Width                                    : 1 920 pixels
  13. Height                                   : 1 080 pixels
  14. Display aspect ratio                     : 16:9
  15. Frame rate mode                          : Constant
  16. Frame rate                               : 23.976 (24000/1001) FPS
  17. Color space                              : YUV
  18. Chroma subsampling                       : 4:2:0
  19. Bit depth                                : 8 bits
  20. Scan type                                : Progressive
  21. Bits/(Pixel*Frame)                       : 0.234
  22. Stream size                              : 3.09GB (88%)
  23. Title                                    : Titans.of.the.Ice.Age.2013.1080p.BluRay.x264.DTS-SWTYBLZ
  24. Writing library                          : x264 core 148 r2795M aaa9aa8
  25. Encoding settings                        : cabac=1 / ref=5 / deblock=1:0:0 / analyse=0x3:0x133 / me=umh / subme=10 / psy=1 / psy_rd=1.00:0.00 / mixed_ref=1 / me_range=24 / chroma_me=1 / trellis=2 / 8x8dct=1 / cqm=0 / deadzone=21,11 / fast_pskip=1 / chroma_qp_offset=-2 / threads=24 / lookahead_threads=4 / sliced_threads=0 / nr=0 / decimate=1 / interlaced=0 / bluray_compat=0 / constrained_intra=0 / bframes=8 / b_pyramid=2 / b_adapt=2 / b_bias=0 / direct=3 / weightb=1 / open_gop=0 / weightp=2 / keyint=240 / keyint_min=24 / scenecut=40 / intra_refresh=0 / rc_lookahead=60 / rc=crf / mbtree=1 / crf=17.0 / qcomp=0.60 / qpmin=0 / qpmax=69 / qpstep=4 / ip_ratio=1.40 / aq=1:1.00
  26. Language                                 : English
  27. Default                                  : Yes
  28. Forced                                   : No

  29. Audio
  30. ID                                       : 2
  31. Format                                   : DTS
  32. Format/Info                              : Digital Theater Systems
  33. Codec ID                                 : A_DTS
  34. Duration                                 : 38 min 33 s
  35. Bit rate mode                            : Constant
  36. Bit rate                                 : 1 509 kb/s
  37. Channel(s)                               : 6 channels
  38. Channel positions                        : Front: L C R, Side: L R, LFE
  39. Sampling rate                            : 48.0 kHz
  40. Frame rate                               : 93.750 FPS (512 SPF)
  41. Bit depth                                : 24 bits
  42. Compression mode                         : Lossy
  43. Stream size                              : 416 MiB (12%)
  44. Title                                    : Titans.of.the.Ice.Age.2013.1080p.BluRay.x264.DTS-SWTYBLZ
  45. Language                                 : English
  46. Default                                  : Yes
  47. Forced                                   : No

  48. Text
  49. ID                                       : 3
  50. Format                                   : UTF-8
  51. Codec ID                                 : S_TEXT/UTF8
  52. Codec ID/Info                            : UTF-8 Plain Text
  53. Duration                                 : 34 min 36 s
  54. Bit rate                                 : 66 b/s
  55. Count of elements                        : 335
  56. Stream size                              : 16.8 KiB (0%)
  57. Title                                    : English-SRT
  58. Language                                 : English
  59. Default                                  : Yes
  60. Forced                                   : No

  61. Menu
  62. 00:00:00.000                             : en:00:00:00.000
  63. 00:02:38.408                             : en:00:02:38.408
  64. 00:04:45.368                             : en:00:04:45.368
  65. 00:06:17.168                             : en:00:06:17.168
  66. 00:09:14.387                             : en:00:09:14.387
  67. 00:11:03.788                             : en:00:11:03.788
  68. 00:14:04.594                             : en:00:14:04.594
  69. 00:16:29.655                             : en:00:16:29.655
  70. 00:18:29.900                             : en:00:18:29.900
  71. 00:19:40.638                             : en:00:19:40.638
  72. 00:21:39.256                             : en:00:21:39.256
  73. 00:22:16.168                             : en:00:22:16.168
  74. 00:23:29.325                             : en:00:23:29.325
  75. 00:26:55.364                             : en:00:26:55.364
  76. 00:28:36.089                             : en:00:28:36.089
  77. 00:29:43.365                             : en:00:29:43.365
  78. 00:33:13.366                             : en:00:33:13.366
  79. 00:35:58.865                             : en:00:35:58.865



复制代码
复制代码
020917pj7bt2p9p25p22ov.jpg 020917oz3kon0880nbln8i.jpg 020918gyblxy6h6oi7l2xh.jpg 020918n2yswxti6qxnnsnx.jpg 020919si1bqxig5j9rr7xi.jpg 020919vexn0letbcjzjlqu.jpg



开通VIP免费下载本站所有资源---点这里
新手必看:资源下载、资源播放、字幕使用、等常见问题---点这里
回复

使用道具 举报

已抛锚 成长值: 5550

发表于 2018-2-3 18:41:42 | 显示全部楼层
喜欢这种史前的感觉
开通VIP免费下载本站所有资源---点这里
新手必看:资源下载、资源播放、字幕使用、等常见问题---点这里
回复 支持 反对

使用道具 举报

发表于 2018-2-3 20:10:07 | 显示全部楼层
非常喜欢,不错,支持一下
开通VIP免费下载本站所有资源---点这里
新手必看:资源下载、资源播放、字幕使用、等常见问题---点这里
回复 支持 反对

使用道具 举报

 成长值: 2410

发表于 2018-2-3 22:04:57 | 显示全部楼层

非常感谢分享
开通VIP免费下载本站所有资源---点这里
新手必看:资源下载、资源播放、字幕使用、等常见问题---点这里
回复 支持 反对

使用道具 举报

发表于 2018-2-3 23:53:21 | 显示全部楼层
非常感谢分享
开通VIP免费下载本站所有资源---点这里
新手必看:资源下载、资源播放、字幕使用、等常见问题---点这里
回复 支持 反对

使用道具 举报

发表于 2018-2-3 23:54:37 | 显示全部楼层
运气好差啊,今天
开通VIP免费下载本站所有资源---点这里
新手必看:资源下载、资源播放、字幕使用、等常见问题---点这里
回复 支持 反对

使用道具 举报

发表于 2018-2-4 10:30:04 | 显示全部楼层

非常喜欢,不错,支持一下
开通VIP免费下载本站所有资源---点这里
新手必看:资源下载、资源播放、字幕使用、等常见问题---点这里
回复 支持 反对

使用道具 举报

发表于 2018-2-4 10:33:56 | 显示全部楼层
感谢楼主的慷慨分享。
开通VIP免费下载本站所有资源---点这里
新手必看:资源下载、资源播放、字幕使用、等常见问题---点这里
回复 支持 反对

使用道具 举报

 成长值: 5610

发表于 2018-2-4 14:33:29 | 显示全部楼层
非常感谢楼主分享!
开通VIP免费下载本站所有资源---点这里
新手必看:资源下载、资源播放、字幕使用、等常见问题---点这里
回复 支持 反对

使用道具 举报

已抛锚 成长值: 270

发表于 2018-2-4 19:12:31 | 显示全部楼层
好人一生平安
开通VIP免费下载本站所有资源---点这里
新手必看:资源下载、资源播放、字幕使用、等常见问题---点这里
回复 支持 反对

使用道具 举报

懒得打字嘛,点击右侧快捷回复 【右侧内容,后台自定义】
您需要登录后才可以回帖 登录 | 立即加入

本版积分规则

现在加入蓝光电影网,注册一个账号

QQ| 手机版|小黑屋| 蓝光电影网 |网站地图

Copyright © 2015-2019 Comsenz Inc.  Template by 蓝光电影网 All Rights Reserved.

Powered by 蓝光电影网 X3.4

特别声明:本站所有资源均由网上收集而来,版权归原影音公司所有,如果侵犯了你的权益,请通知我们,我们会及时删除侵权内容.

快速回复 返回顶部 返回列表