找回密码

蓝光电影网

查看: 221|回复: 17

里见八犬传 Legend.of.the.Eight.Samurai.1983.JAPANESE.2160p.BluRay.REMUX.HEVC.LPCM.5.1-FGT 58.88GB

[复制链接]

 成长值: 17290

签到天数: 401 天

[LV.9]以坛为家II

发表于 2018-10-11 17:48:15 | 显示全部楼层 |阅读模式

马上注册,获取最新影视资讯,享用更多功能,让你轻松玩转蓝光电影网。

您需要 登录 才可以下载或查看,没有帐号?立即加入

x

里见八犬传 Legend.of.the.Eight.Samurai.1983.JAPANESE.2160p.BluRay.REMUX.HEVC.LPCM.5.1-FGT 58.88GB-1.jpg
◎译  名 里见八犬传
◎片  名 里見八犬伝
◎年  代 1983
◎产  地 日本
◎类  别 冒险/奇幻/动作/剧情
◎语  言 日语
◎上映日期 1983-12-10
◎IMDb评分  6.6/10 from 895 users
◎IMDb链接  http://www.imdb.com/title/tt0086244/
◎豆瓣评分 6.9/10 from 525 users
◎豆瓣链接 https://movie.douban.com/subject/1421780/
◎片  长 Brazil: 133 分钟
◎导  演 深作欣二
◎主  演 药师丸博子
      真田广之
      千叶真一
      夏木真理
      京本政树 Masaki Ky?moto
      志穗美悦子 Etsuko Shihomi

◎简  介

  根据日本著名文学家龙泽马琴的传奇小说《南总里见八犬传》改编。
  馆山城主里见成义之父征讨蟇田定包,蟇田之子素藤(目黑佑树 饰)及其母玉梓(夏木マリ 夏木玛丽 饰)侥幸存活,将灵魂献给恶灵,获得强大而邪恶的力量。数年后素藤带领暗黑军团杀入馆山城,将里见一族屠杀殆尽,唯成义之女静姬(药师丸博子 饰)逃脱。
  静姬于丛林中遇到犬江亲兵卫(真田广之 饰)、犬山道节(千叶真一 饰)和犬村大角(寺田农 饰)三人,从古老绘卷中得知需集结拥有仁、义、礼、智、忠、信、孝、悌八颗玉石的侠士方可打败素藤的暗黑军团。静姬四处奔走,找寻其余的“犬义士”,准备和暗黑军团展开最后一战……
  • Video
  • ID                                       : 1
  • Format                                   : HEVC
  • Format/Info                              : High Efficiency Video Coding
  • Commercial name                          : HDR10
  • Format profile                           : Main [email protected]@High
  • Codec ID                                 : V_MPEGH/ISO/HEVC
  • Duration                                 : 2 h 16 min
  • Bit rate                                 : 52.6 Mb/s
  • Width                                    : 3 840 pixels
  • Height                                   : 2 160 pixels
  • Display aspect ratio                     : 16:9
  • Frame rate mode                          : Constant
  • Frame rate                               : 23.976 (24000/1001) FPS
  • Color space                              : YUV
  • Chroma subsampling                       : 4:2:0 (Type 2)
  • Bit depth                                : 10 bits
  • Bits/(Pixel*Frame)                       : 0.265
  • Stream size                              : 50.1 GiB (85%)
  • Title                                    : Legend.of.the.Eight.Samurai.1983.JAPANESE.2160p.BluRay.REMUX.HEVC.LPCM.5.1-FGT
  • Default                                  : Yes
  • Forced                                   : No
  • Color range                              : Limited
  • Color primaries                          : BT.2020
  • Transfer characteristics                 : PQ
  • Matrix coefficients                      : BT.2020 non-constant
  • Mastering display color primaries        : BT.2020
  • Mastering display luminance              : min: 0.0010 cd/m2, max: 1000 cd/m2
  • Maximum Content Light Level              : 996 cd/m2
  • Maximum Frame-Average Light Level        : 533 cd/m2
  • Audio #1
  • ID                                       : 2
  • Format                                   : PCM
  • Format settings                          : Little / Signed
  • Codec ID                                 : A_PCM/INT/LIT
  • Duration                                 : 2 h 16 min
  • Bit rate mode                            : Constant
  • Bit rate                                 : 2 304 kb/s
  • Channel(s)                               : 2 channels
  • Sampling rate                            : 48.0 kHz
  • Frame rate                               : 200.000 FPS (240 SPF)
  • Bit depth                                : 24 bits
  • Stream size                              : 2.19 GiB (4%)
  • Title                                    : Legend.of.the.Eight.Samurai.1983.JAPANESE.2160p.BluRay.REMUX.HEVC.LPCM.5.1-FGT
  • Language                                 : Japanese
  • Default                                  : Yes
  • Forced                                   : No
  • Audio #2
  • ID                                       : 3
  • Format                                   : PCM
  • Format settings                          : Little / Signed
  • Codec ID                                 : A_PCM/INT/LIT
  • Duration                                 : 2 h 16 min
  • Bit rate mode                            : Constant
  • Bit rate                                 : 6 912 kb/s
  • Channel(s)                               : 6 channels
  • Sampling rate                            : 48.0 kHz
  • Frame rate                               : 200.000 FPS (240 SPF)
  • Bit depth                                : 24 bits
  • Stream size                              : 6.58 GiB (11%)
  • Title                                    : Legend.of.the.Eight.Samurai.1983.JAPANESE.2160p.BluRay.REMUX.HEVC.LPCM.5.1-FGT
  • Language                                 : Japanese
  • Default                                  : No
  • Forced                                   : No
  • Text
  • ID                                       : 4
  • Format                                   : PGS
  • Muxing mode                              : zlib
  • Codec ID                                 : S_HDMV/PGS
  • Codec ID/Info                            : Picture based subtitle format used on BDs/HD-DVDs
  • Duration                                 : 2 h 16 min
  • Bit rate                                 : 107 kb/s
  • Count of elements                        : 6540
  • Stream size                              : 105 MiB (0%)
  • Title                                    : Japanese-PGS
  • Language                                 : Japanese
  • Default                                  : Yes
  • Forced                                   : No
  • Menu
  • 00:00:00.000                             : :Chapter 1
  • 00:07:06.008                             : :Chapter 2
  • 00:14:26.282                             : :Chapter 3
  • 00:20:58.173                             : :Chapter 4
  • 00:27:27.520                             : :Chapter 5
  • 00:38:58.961                             : :Chapter 6
  • 00:51:53.193                             : :Chapter 7
  • 00:55:25.321                             : :Chapter 8
  • 00:59:06.960                             : :Chapter 9
  • 01:07:02.101                             : :Chapter 10
  • 01:19:24.301                             : :Chapter 11
  • 01:30:08.903                             : :Chapter 12
  • 01:36:56.268                             : :Chapter 13
  • 01:45:51.720                             : :Chapter 14
  • 02:05:50.751                             : :Chapter 15

复制代码

里见八犬传 Legend.of.the.Eight.Samurai.1983.JAPANESE.2160p.BluRay.REMUX.HEVC.LPCM.5.1-FGT 58.88GB-2.png 里见八犬传 Legend.of.the.Eight.Samurai.1983.JAPANESE.2160p.BluRay.REMUX.HEVC.LPCM.5.1-FGT 58.88GB-3.png 里见八犬传 Legend.of.the.Eight.Samurai.1983.JAPANESE.2160p.BluRay.REMUX.HEVC.LPCM.5.1-FGT 58.88GB-4.png





Legend.of.the.Eight.Samurai.1983.JAPANESE.2160p.BluRay.REMUX.HEVC.LPCM.5.1-FGT.torrent (147.78 KB, 下载次数: 26)

特别声明:本站所有资源均由网上收集而来,版权归原影音公司所有,如果侵犯了你的权益,请通知我们,我们会及时删除侵权内容.

免费下载本站所有资源---点这里
迅雷 应版权方要求,文件无法下载的解决办法---点这里
回复

使用道具 举报

签到天数: 26 天

[LV.4]偶尔看看III

发表于 2018-10-11 18:25:06 | 显示全部楼层
强烈支持楼主ing……
免费下载本站所有资源---点这里
迅雷 应版权方要求,文件无法下载的解决办法---点这里
回复 支持 反对

使用道具 举报

签到天数: 26 天

[LV.4]偶尔看看III

发表于 2018-10-11 20:55:27 | 显示全部楼层
强烈支持楼主ing……
[发帖际遇]: jidongjin 乐于助人,奖励 1 蓝光币. 幸运榜 / 衰神榜
免费下载本站所有资源---点这里
迅雷 应版权方要求,文件无法下载的解决办法---点这里
回复 支持 反对

使用道具 举报

该用户从未签到

发表于 2018-10-11 22:33:40 | 显示全部楼层
谢谢楼主分享
免费下载本站所有资源---点这里
迅雷 应版权方要求,文件无法下载的解决办法---点这里
回复 支持 反对

使用道具 举报

签到天数: 163 天

[LV.7]常住居民III

发表于 2018-10-11 22:50:20 | 显示全部楼层
强烈支持楼主ing……
[发帖际遇]: 啊咧咧 发帖时在路边捡到 2 蓝光币,偷偷放进了口袋. 幸运榜 / 衰神榜
免费下载本站所有资源---点这里
迅雷 应版权方要求,文件无法下载的解决办法---点这里
回复 支持 反对

使用道具 举报

签到天数: 38 天

[LV.5]常住居民I

发表于 2018-10-11 23:00:06 | 显示全部楼层
强烈支持楼主ing……
免费下载本站所有资源---点这里
迅雷 应版权方要求,文件无法下载的解决办法---点这里
回复 支持 反对

使用道具 举报

 成长值: 160

签到天数: 2 天

[LV.1]初来乍到

发表于 2018-10-11 23:13:48 | 显示全部楼层
棒!真的超级喜欢
免费下载本站所有资源---点这里
迅雷 应版权方要求,文件无法下载的解决办法---点这里
回复 支持 反对

使用道具 举报

签到天数: 8 天

[LV.3]偶尔看看II

发表于 7 天前 | 显示全部楼层
强烈支持楼主ing……
[发帖际遇]: iver_iver 发帖时在路边捡到 1 蓝光币,偷偷放进了口袋. 幸运榜 / 衰神榜
免费下载本站所有资源---点这里
迅雷 应版权方要求,文件无法下载的解决办法---点这里
回复 支持 反对

使用道具 举报

签到天数: 77 天

[LV.6]常住居民II

发表于 7 天前 | 显示全部楼层
强烈支持楼主ing……
免费下载本站所有资源---点这里
迅雷 应版权方要求,文件无法下载的解决办法---点这里
回复 支持 反对

使用道具 举报

签到天数: 122 天

[LV.7]常住居民III

发表于 7 天前 | 显示全部楼层
真是难得给力的帖子啊。
[发帖际遇]: chuchan 发帖时在路边捡到 2 蓝光币,偷偷放进了口袋. 幸运榜 / 衰神榜
免费下载本站所有资源---点这里
迅雷 应版权方要求,文件无法下载的解决办法---点这里
回复 支持 反对

使用道具 举报

点击按钮快速添加回复内容: 支持 高兴 激动 给力 加油 淡定 生气 回帖 路过 感动 感恩
您需要登录后才可以回帖 登录 | 立即加入

本版积分规则

现在加入蓝光电影网,注册一个账号

QQ| 手机版|小黑屋| 蓝光电影网 |

Copyright © 2001-2015 Comsenz Inc.  Template by 蓝光电影论坛 All Rights Reserved.

Powered by 高清电影网 X3.2
特别声明:本站所有资源均由网上收集而来,版权归原影音公司所有,如果侵犯了你的权益,请通知我们,我们会及时删除侵权内容.

快速回复 返回顶部 返回列表