找回密码

蓝光电影网

查看: 715|回复: 52

移动迷宫3:死亡解药/移动迷宫3 Maze.Runner.The.Death.Cure.2018.2160p.BluRay.x264.8bit.SDR.DTS-HD.MA.TrueHD.7.1.Atmos-SWTYBLZ 50.54GB

[复制链接]

 成长值: 15100

签到天数: 277 天

[LV.8]以坛为家I

发表于 2018-4-26 22:26:13 | 显示全部楼层 |阅读模式

马上注册,获取最新影视资讯,享用更多功能,让你轻松玩转蓝光电影网。

您需要 登录 才可以下载或查看,没有帐号?立即加入

x
201017mrtyt83ytz668rr6.jpg
◎译  名 移动迷宫3:死亡解药/移动迷宫3
◎片  名 Maze Runner: The Death Cure
◎年  代 2018
◎产  地 美国
◎类  别 动作/科幻/冒险
◎语  言 英语
◎上映日期 2018-01-26(美国)/2018-01-26(中国大陆)
◎IMDb评分  6.4/10 from 43,744 users
◎IMDb链接  http://www.imdb.com/title/tt4500922/
◎豆瓣评分 5.4/10 from 36,673 users
◎豆瓣链接 https://movie.douban.com/subject/26004132/
◎片  长 142分钟
◎导  演 韦斯·鲍尔 Wes Ball
◎主  演 迪伦·欧布莱恩 Dylan O'Brien
      卡雅·斯考达里奥 Kaya Scodelario
      李起弘 Ki Hong Lee
      托马斯·布罗迪-桑斯特 Thomas Brodie-Sangster
      罗莎·萨拉查 Rosa Salazar
      德克斯特·达登 Dexter Darden
      艾丹·吉伦 Aidan Gillen
      威尔·保尔特 Will Poulter
      吉安卡罗·埃斯波西托 Giancarlo Esposito
      沃尔顿·戈金斯 Walton Goggins
      派翠西娅·克拉克森 Patricia Clarkson

◎简  介

  托马斯(迪伦·奥布莱恩饰)率领的林间斗士在经历了迷宫逃脱和末日丧尸的生死考验后,终于迎来最后的正邪较量。由托马斯、纽特(托马斯·桑斯特饰)等人领军的营救团队,耗时三年筹划营救被抓走的米诺,却意外地发现米诺不在劫获的那截火车上。经调查得知,米诺深陷在WCKD组织的控制之中,托马斯和纽特毅然决定起身前往被称为“最后之都”的人类最后净土,更不惜利用背叛林间斗士投身WCKD的特蕾莎(卡雅·斯考达里奥饰)闯入WCKD,营救米诺和其他人。
  • Video
  • ID                                       : 1
  • Format                                   : AVC
  • Format/Info                              : Advanced Video Codec
  • Format profile                           : High@L5.1
  • Format settings                          : CABAC / 5 Ref Frames
  • Format settings, CABAC                   : Yes
  • Format settings, RefFrames               : 5 frames
  • Codec ID                                 : V_MPEG4/ISO/AVC
  • Duration                                 : 2 h 23 min
  • Bit rate                                 : 37.5 Mb/s
  • Width                                    : 3 840 pixels
  • Height                                   : 1 604 pixels
  • Display aspect ratio                     : 2.40:1
  • Frame rate mode                          : Constant
  • Frame rate                               : 23.976 (24000/1001) FPS
  • Color space                              : YUV
  • Chroma subsampling                       : 4:2:0
  • Bit depth                                : 8 bits
  • Scan type                                : Progressive
  • Bits/(Pixel*Frame)                       : 0.254
  • Stream size                              : 37.7 GiB (75%)
  • Title                                    : Maze.Runner.The.Death.Cure.2018.2160p.BluRay.x264.8bit.SDR.DTS-HD.MA.TrueHD.7.1.Atmos-SWTYBLZ
  • Writing library                          : x264 core 148 r2748 97eaef2
  • Encoding settings                        : cabac=1 / ref=5 / deblock=1:-1:-1 / analyse=0x3:0x113 / me=umh / subme=10 / psy=1 / psy_rd=1.00:0.15 / mixed_ref=1 / me_range=48 / chroma_me=1 / trellis=2 / 8x8dct=1 / cqm=0 / deadzone=21,11 / fast_pskip=1 / chroma_qp_offset=-3 / threads=50 / lookahead_threads=4 / sliced_threads=0 / nr=0 / decimate=0 / interlaced=0 / bluray_compat=0 / constrained_intra=0 / bframes=3 / b_pyramid=2 / b_adapt=2 / b_bias=0 / direct=3 / weightb=1 / open_gop=0 / weightp=2 / keyint=250 / keyint_min=23 / scenecut=40 / intra_refresh=0 / rc_lookahead=50 / rc=crf / mbtree=1 / crf=18.0 / qcomp=0.60 / qpmin=0 / qpmax=69 / qpstep=4 / ip_ratio=1.40 / aq=1:1.00
  • Default                                  : Yes
  • Forced                                   : No
  • Audio #1
  • ID                                       : 2
  • Format                                   : TrueHD
  • Format profile                           : TrueHD+Atmos / TrueHD
  • Codec ID                                 : A_TRUEHD
  • Duration                                 : 2 h 23 min
  • Bit rate mode                            : Variable
  • Bit rate                                 : 7 631 kb/s
  • Maximum bit rate                         : 12.1 Mb/s
  • Channel(s)                               : Object Based / 8 channels
  • Channel positions                        : Object Based / Front: L C R, Side: L R, Back: L R, LFE
  • Sampling rate                            :  / 48.0 kHz
  • Frame rate                               : 1 200.000 FPS (40 SPF)
  • Compression mode                         : Lossless
  • Stream size                              : 7.67 GiB (15%)
  • Title                                    : Maze.Runner.The.Death.Cure.2018.2160p.BluRay.x264.8bit.SDR.DTS-HD.MA.TrueHD.7.1.Atmos-SWTYBLZ
  • Language                                 : English
  • Default                                  : Yes
  • Forced                                   : No
  • Audio #2
  • ID                                       : 3
  • Format                                   : DTS
  • Format/Info                              : Digital Theater Systems
  • Format profile                           : MA / Core
  • Codec ID                                 : A_DTS
  • Duration                                 : 2 h 23 min
  • Bit rate mode                            : Variable / Constant
  • Bit rate                                 : 4 133 kb/s / 1 509 kb/s
  • Channel(s)                               : 8 channels / 6 channels
  • Channel positions                        : Front: L C R, Side: L R, Back: L R, LFE / Front: L C R, Side: L R, LFE
  • Sampling rate                            : 48.0 kHz
  • Frame rate                               : 93.750 FPS (512 SPF)
  • Bit depth                                : 24 bits
  • Compression mode                         : Lossless / Lossy
  • Stream size                              : 4.15 GiB (8%)
  • Title                                    : Maze.Runner.The.Death.Cure.2018.2160p.BluRay.x264.8bit.SDR.DTS-HD.MA.TrueHD.7.1.Atmos-SWTYBLZ
  • Language                                 : English
  • Default                                  : No
  • Forced                                   : No
  • Audio #3
  • ID                                       : 4
  • Format                                   : AC-3
  • Format/Info                              : Audio Coding 3
  • Codec ID                                 : A_AC3
  • Duration                                 : 2 h 23 min
  • Bit rate mode                            : Constant
  • Bit rate                                 : 640 kb/s
  • Channel(s)                               : 6 channels
  • Channel positions                        : Front: L C R, Side: L R, LFE
  • Sampling rate                            : 48.0 kHz
  • Frame rate                               : 31.250 FPS (1536 SPF)
  • Bit depth                                : 16 bits
  • Compression mode                         : Lossy
  • Stream size                              : 659 MiB (1%)
  • Title                                    : Maze.Runner.The.Death.Cure.2018.2160p.BluRay.x264.8bit.SDR.DTS-HD.MA.TrueHD.7.1.Atmos-SWTYBLZ
  • Language                                 : English
  • Service kind                             : Complete Main
  • Default                                  : No
  • Forced                                   : No
  • Text #1
  • ID                                       : 5
  • Format                                   : UTF-8
  • Codec ID                                 : S_TEXT/UTF8
  • Codec ID/Info                            : UTF-8 Plain Text
  • Duration                                 : 2 h 15 min
  • Bit rate                                 : 35 b/s
  • Count of elements                        : 1477
  • Stream size                              : 35.6 KiB (0%)
  • Title                                    : English-SRT
  • Language                                 : English
  • Default                                  : Yes
  • Forced                                   : No
  • Text #2
  • ID                                       : 6
  • Format                                   : PGS
  • Muxing mode                              : zlib
  • Codec ID                                 : S_HDMV/PGS
  • Codec ID/Info                            : Picture based subtitle format used on BDs/HD-DVDs
  • Duration                                 : 2 h 15 min
  • Bit rate                                 : 28.0 kb/s
  • Count of elements                        : 3376
  • Stream size                              : 27.2 MiB (0%)
  • Title                                    : English-PGS
  • Language                                 : English
  • Default                                  : No
  • Forced                                   : No
  • Text #3
  • ID                                       : 7
  • Format                                   : PGS
  • Muxing mode                              : zlib
  • Codec ID                                 : S_HDMV/PGS
  • Codec ID/Info                            : Picture based subtitle format used on BDs/HD-DVDs
  • Duration                                 : 2 h 22 min
  • Bit rate                                 : 19.3 kb/s
  • Count of elements                        : 2786
  • Stream size                              : 19.7 MiB (0%)
  • Title                                    : Spanish-PGS
  • Language                                 : Spanish
  • Default                                  : No
  • Forced                                   : No
  • Text #4
  • ID                                       : 8
  • Format                                   : PGS
  • Muxing mode                              : zlib
  • Codec ID                                 : S_HDMV/PGS
  • Codec ID/Info                            : Picture based subtitle format used on BDs/HD-DVDs
  • Duration                                 : 2 h 22 min
  • Bit rate                                 : 17.6 kb/s
  • Count of elements                        : 2374
  • Stream size                              : 17.9 MiB (0%)
  • Title                                    : French-PGS
  • Language                                 : French
  • Default                                  : No
  • Forced                                   : No
  • Text #5
  • ID                                       : 9
  • Format                                   : PGS
  • Muxing mode                              : zlib
  • Codec ID                                 : S_HDMV/PGS
  • Codec ID/Info                            : Picture based subtitle format used on BDs/HD-DVDs
  • Duration                                 : 2 h 22 min
  • Bit rate                                 : 22.0 kb/s
  • Count of elements                        : 2744
  • Stream size                              : 22.4 MiB (0%)
  • Title                                    : Spanish-PGS
  • Language                                 : Spanish
  • Default                                  : No
  • Forced                                   : No
  • Text #6
  • ID                                       : 10
  • Format                                   : PGS
  • Muxing mode                              : zlib
  • Codec ID                                 : S_HDMV/PGS
  • Codec ID/Info                            : Picture based subtitle format used on BDs/HD-DVDs
  • Duration                                 : 2 h 22 min
  • Bit rate                                 : 19.4 kb/s
  • Count of elements                        : 2172
  • Stream size                              : 19.7 MiB (0%)
  • Title                                    : Danish-PGS
  • Language                                 : Danish
  • Default                                  : No
  • Forced                                   : No
  • Text #7
  • ID                                       : 11
  • Format                                   : PGS
  • Muxing mode                              : zlib
  • Codec ID                                 : S_HDMV/PGS
  • Codec ID/Info                            : Picture based subtitle format used on BDs/HD-DVDs
  • Duration                                 : 2 h 22 min
  • Bit rate                                 : 17.1 kb/s
  • Count of elements                        : 2414
  • Stream size                              : 17.4 MiB (0%)
  • Title                                    : Dutch-PGS
  • Language                                 : Dutch
  • Default                                  : No
  • Forced                                   : No
  • Text #8
  • ID                                       : 12
  • Format                                   : PGS
  • Muxing mode                              : zlib
  • Codec ID                                 : S_HDMV/PGS
  • Codec ID/Info                            : Picture based subtitle format used on BDs/HD-DVDs
  • Duration                                 : 2 h 22 min
  • Bit rate                                 : 19.5 kb/s
  • Count of elements                        : 2778
  • Stream size                              : 19.9 MiB (0%)
  • Title                                    : Finnish-PGS
  • Language                                 : Finnish
  • Default                                  : No
  • Forced                                   : No
  • Text #9
  • ID                                       : 13
  • Format                                   : PGS
  • Muxing mode                              : zlib
  • Codec ID                                 : S_HDMV/PGS
  • Codec ID/Info                            : Picture based subtitle format used on BDs/HD-DVDs
  • Duration                                 : 2 h 22 min
  • Bit rate                                 : 20.6 kb/s
  • Count of elements                        : 2580
  • Stream size                              : 21.0 MiB (0%)
  • Title                                    : German-PGS
  • Language                                 : German
  • Default                                  : No
  • Forced                                   : No
  • Text #10
  • ID                                       : 14
  • Format                                   : PGS
  • Muxing mode                              : zlib
  • Codec ID                                 : S_HDMV/PGS
  • Codec ID/Info                            : Picture based subtitle format used on BDs/HD-DVDs
  • Duration                                 : 2 h 22 min
  • Bit rate                                 : 20.5 kb/s
  • Count of elements                        : 2780
  • Stream size                              : 20.9 MiB (0%)
  • Title                                    : Italian-PGS
  • Language                                 : Italian
  • Default                                  : No
  • Forced                                   : No
  • Text #11
  • ID                                       : 15
  • Format                                   : PGS
  • Muxing mode                              : zlib
  • Codec ID                                 : S_HDMV/PGS
  • Codec ID/Info                            : Picture based subtitle format used on BDs/HD-DVDs
  • Duration                                 : 2 h 22 min
  • Bit rate                                 : 12.1 kb/s
  • Count of elements                        : 2398
  • Stream size                              : 12.3 MiB (0%)
  • Title                                    : Japanese-PGS
  • Language                                 : Japanese
  • Default                                  : No
  • Forced                                   : No
  • Text #12
  • ID                                       : 16
  • Format                                   : PGS
  • Muxing mode                              : zlib
  • Codec ID                                 : S_HDMV/PGS
  • Codec ID/Info                            : Picture based subtitle format used on BDs/HD-DVDs
  • Duration                                 : 2 h 22 min
  • Bit rate                                 : 19.0 kb/s
  • Count of elements                        : 2790
  • Stream size                              : 19.4 MiB (0%)
  • Title                                    : Norwegian-PGS
  • Language                                 : Norwegian
  • Default                                  : No
  • Forced                                   : No
  • Text #13
  • ID                                       : 17
  • Format                                   : PGS
  • Muxing mode                              : zlib
  • Codec ID                                 : S_HDMV/PGS
  • Codec ID/Info                            : Picture based subtitle format used on BDs/HD-DVDs
  • Duration                                 : 2 h 22 min
  • Bit rate                                 : 19.0 kb/s
  • Count of elements                        : 2788
  • Stream size                              : 19.4 MiB (0%)
  • Title                                    : Swedish-PGS
  • Language                                 : Swedish
  • Default                                  : No
  • Forced                                   : No
  • Text #14
  • ID                                       : 18
  • Format                                   : PGS
  • Muxing mode                              : zlib
  • Codec ID                                 : S_HDMV/PGS
  • Codec ID/Info                            : Picture based subtitle format used on BDs/HD-DVDs
  • Duration                                 : 2 h 22 min
  • Bit rate                                 : 16.4 kb/s
  • Count of elements                        : 2792
  • Stream size                              : 16.7 MiB (0%)
  • Title                                    : Chinese-PGS
  • Language                                 : Chinese
  • Default                                  : No
  • Forced                                   : No
  • Text #15
  • ID                                       : 19
  • Format                                   : PGS
  • Muxing mode                              : zlib
  • Codec ID                                 : S_HDMV/PGS
  • Codec ID/Info                            : Picture based subtitle format used on BDs/HD-DVDs
  • Duration                                 : 2 h 22 min
  • Bit rate                                 : 18.6 kb/s
  • Count of elements                        : 2792
  • Stream size                              : 19.0 MiB (0%)
  • Title                                    : Czech-PGS
  • Language                                 : Czech
  • Default                                  : No
  • Forced                                   : No
  • Text #16
  • ID                                       : 20
  • Format                                   : PGS
  • Muxing mode                              : zlib
  • Codec ID                                 : S_HDMV/PGS
  • Codec ID/Info                            : Picture based subtitle format used on BDs/HD-DVDs
  • Duration                                 : 2 h 22 min
  • Bit rate                                 : 16.1 kb/s
  • Count of elements                        : 2864
  • Stream size                              : 16.4 MiB (0%)
  • Title                                    : Chinese-PGS
  • Language                                 : Chinese
  • Default                                  : No
  • Forced                                   : No
  • Text #17
  • ID                                       : 21
  • Format                                   : PGS
  • Muxing mode                              : zlib
  • Codec ID                                 : S_HDMV/PGS
  • Codec ID/Info                            : Picture based subtitle format used on BDs/HD-DVDs
  • Duration                                 : 2 h 22 min
  • Bit rate                                 : 16.7 kb/s
  • Count of elements                        : 2696
  • Stream size                              : 17.0 MiB (0%)
  • Title                                    : Polish-PGS
  • Language                                 : Polish
  • Default                                  : No
  • Forced                                   : No
  • Menu
  • 00:00:00.000                             : en:Chapter 1
  • 00:11:31.607                             : en:Chapter 2
  • 00:15:59.750                             : en:Chapter 3
  • 00:20:08.457                             : en:Chapter 4
  • 00:24:34.890                             : en:Chapter 5
  • 00:30:40.547                             : en:Chapter 6
  • 00:36:47.330                             : en:Chapter 7
  • 00:43:15.342                             : en:Chapter 8
  • 00:48:06.341                             : en:Chapter 9
  • 00:55:17.397                             : en:Chapter 10
  • 01:02:42.925                             : en:Chapter 11
  • 01:07:14.488                             : en:Chapter 12
  • 01:11:56.061                             : en:Chapter 13
  • 01:15:48.168                             : en:Chapter 14
  • 01:23:20.328                             : en:Chapter 15
  • 01:29:45.421                             : en:Chapter 16
  • 01:34:00.593                             : en:Chapter 17
  • 01:40:09.795                             : en:Chapter 18
  • 01:43:33.081                             : en:Chapter 19
  • 01:53:38.645                             : en:Chapter 20
  • 01:59:43.885                             : en:Chapter 21
  • 02:04:49.398                             : en:Chapter 22
  • 02:10:03.086                             : en:Chapter 23
  • 02:18:03.817                             : en:Chapter 24

复制代码
201018nncggnqvnzgyizzv.jpg 201019q64fb1medxdl14bf.jpg 201019mxxrx2kxj4gjd5g0.jpg 201020ykmic4gt3umckun4.jpg 201020t5cc7458cjb57h51.jpg 201020x9b3lq9n3fwul2bs.jpg






Maze.Runner.The.Death.Cure.2018.2160p.BluRay.x264.8bit.SDR.DTS-HD.MA.TrueHD.7.1..torrent (127.03 KB, 下载次数: 88)

特别声明:本站所有资源均由网上收集而来,版权归原影音公司所有,如果侵犯了你的权益,请通知我们,我们会及时删除侵权内容.

免费下载本站所有资源---点这里
迅雷 应版权方要求,文件无法下载的解决办法---点这里
回复

使用道具 举报

签到天数: 59 天

[LV.5]常住居民I

发表于 2018-4-27 00:02:07 | 显示全部楼层
强烈支持楼主ing……
免费下载本站所有资源---点这里
迅雷 应版权方要求,文件无法下载的解决办法---点这里
回复 支持 反对

使用道具 举报

签到天数: 126 天

[LV.7]常住居民III

发表于 2018-4-27 07:39:59 | 显示全部楼层
强烈支持楼主ing……
免费下载本站所有资源---点这里
迅雷 应版权方要求,文件无法下载的解决办法---点这里
回复 支持 反对

使用道具 举报

签到天数: 51 天

[LV.5]常住居民I

发表于 2018-4-27 08:26:13 | 显示全部楼层
看到这帖子真是高兴!
免费下载本站所有资源---点这里
迅雷 应版权方要求,文件无法下载的解决办法---点这里
回复 支持 反对

使用道具 举报

签到天数: 67 天

[LV.6]常住居民II

发表于 2018-4-27 08:46:41 | 显示全部楼层
强烈支持楼主ing……
[发帖际遇]: 快乐阳光 乐于助人,奖励 1 蓝光币. 幸运榜 / 衰神榜
免费下载本站所有资源---点这里
迅雷 应版权方要求,文件无法下载的解决办法---点这里
回复 支持 反对

使用道具 举报

签到天数: 7 天

[LV.3]偶尔看看II

发表于 2018-4-27 09:31:54 | 显示全部楼层
4K,赞~~~~~~~~~~~~~~~~
免费下载本站所有资源---点这里
迅雷 应版权方要求,文件无法下载的解决办法---点这里
回复

使用道具 举报

签到天数: 21 天

[LV.4]偶尔看看III

发表于 2018-4-27 09:33:49 | 显示全部楼层
真是难得给力的帖子啊。被感动的痛哭流涕……
免费下载本站所有资源---点这里
迅雷 应版权方要求,文件无法下载的解决办法---点这里
回复 支持 反对

使用道具 举报

签到天数: 3 天

[LV.2]偶尔看看I

发表于 2018-4-27 10:00:18 | 显示全部楼层
强烈支持楼主ing……
免费下载本站所有资源---点这里
迅雷 应版权方要求,文件无法下载的解决办法---点这里
回复 支持 反对

使用道具 举报

签到天数: 26 天

[LV.4]偶尔看看III

发表于 2018-4-27 10:00:29 | 显示全部楼层
强烈支持楼主ing……
免费下载本站所有资源---点这里
迅雷 应版权方要求,文件无法下载的解决办法---点这里
回复 支持 反对

使用道具 举报

签到天数: 1 天

[LV.1]初来乍到

发表于 2018-4-27 11:06:39 | 显示全部楼层
哇哦哦,,这么大,我手机能看吗
免费下载本站所有资源---点这里
迅雷 应版权方要求,文件无法下载的解决办法---点这里
回复 支持 反对

使用道具 举报

点击按钮快速添加回复内容: 支持 高兴 激动 给力 加油 淡定 生气 回帖 路过 感动 感恩
您需要登录后才可以回帖 登录 | 立即加入

本版积分规则

现在加入蓝光电影网,注册一个账号

QQ| 手机版|小黑屋| 蓝光电影网 |

Copyright © 2001-2015 Comsenz Inc.  Template by 蓝光电影论坛 All Rights Reserved.

Powered by 高清电影网 X3.2
特别声明:本站所有资源均由网上收集而来,版权归原影音公司所有,如果侵犯了你的权益,请通知我们,我们会及时删除侵权内容.

快速回复 返回顶部 返回列表