找回密码

查看: 1180|回复: 34

[其他] 兽性新人类/断肠快乐丸 [国粤双语][中英双字][AI修复 1080P 60fps].Naked.Poison.2000.AI.1080P.H264.AC3-TAG 11.06GB

[复制链接]
蓝光币
2029
发表于 2024-7-5 16:02:24 | 显示全部楼层 |阅读模式
兽性新人类/断肠欢畅丸 [国粤双语][中英双字][AI修复 1080P 60fps].Naked.Poison.2000.AI.1080P.H264.AC3-TAG 11.06GB-1.jpg

◎译  名 兽性新人类/断肠欢畅丸/Naked Poison
◎片  名 獸性新人類
◎年  代 2000
◎国  家 香港
◎类  别 惊悚/可骇/情色
◎语  言 粤语/汉语
◎上映日期 2000-09-23(香港)
◎豆瓣评分 5.4/10 from 830 users
◎豆瓣链接 https://movie.douban.com/subject/3742949/
◎片  长 87分钟
◎导  演 钱文琦
◎主  演 梁焯满
      谭筠怡
      颜仟汶
      司马华龙
      周家如

◎简  介

  阿文(梁焯满 饰)自小不善言辞,本性孤僻,从小到大,他阴霾的性情令他吃了不晓得几多苦头,遭到了不晓得几多欺侮。在公司里,下属温妮(颜仟汶 饰)对阿文很不客套,经常率领部属们对其肆意讽刺,但是,只要阿玲(谭筠怡 饰)对阿文表示出了友爱的好心,这让阿文非常感激阿玲,两人成为了朋友。
  一次偶然中,阿文发现了身为老中医的爷爷传播下来的“毒经”,按照经书上的记录,阿文成功建造出了可以摄民气魄的邪恶药物。阿文让经常讽刺他的温妮和皮特服下了药物,药效发挥了感化,温妮和皮特顿时成为了任阿文左右的仆从,阿文亦在越来越澎湃的愿望当中损失了心智。

  1. General
  2. Unique ID : 83921410768947410799394618025149222014 (0x3F22AD0110DC2C2AF2BF6CB5DB584C7E)
  3. Complete name : 兽性新人类.Naked Poison.2000.A.I.1080P.H264.AC3-TAG.mkv
  4. Format : Matroska
  5. Format version : Version 4
  6. File size : 11.1 GiB
  7. Duration : 1 h 27 min
  8. Overall bit rate mode : Variable
  9. Overall bit rate : 18.1 Mb/s
  10. frame rate : 59.595 FPS
  11. Encoded date : 2023-09-14 07:04:28 UTC
  12. Writing application : mkvmerge v79.0 ('Funeral Pyres') 64-bit
  13. Writing library : libebml v1.4.4 + libmatroska v1.7.1 / Lavf60.4.100
  14. VIDEOAI : Motion blur removed using thm-2. Slowmo 100% and framerate changed to 60 using chf-3 ignoring duplicate frames. Deinterlaced and enhanced using iris-1and recover original detail at 100. Changed resolution to 1938x1080

  15. Video
  16. ID : 1
  17. Format : AVC
  18. Format/Info : Advanced Video Codec
  19. Format profile : [email]High@L4.2[/email]
  20. Format settings : CABAC / 4 Ref frames
  21. Format settings, CABAC : Yes
  22. Format settings, Reference fra : 4 frames
  23. Codec ID : V_MPEG4/ISO/AVC
  24. Duration : 1 h 27 min
  25. Bit rate mode : Variable
  26. Bit rate : 17.7 Mb/s
  27. Maximum bit rate : 40.0 Mb/s
  28. Width : 1 938 pixels
  29. Height : 1 080 pixels
  30. Display aspect ratio : 16:9
  31. frame rate mode : Variable
  32. frame rate : 59.595 FPS
  33. Original frame rate : 60.000 FPS
  34. Color space : YUV
  35. Chroma subsampling : 4:2:0
  36. Bit depth : 8 bits
  37. Scan type : Progressive
  38. Bits/(Pixel*frame) : 0.142
  39. Stream size : 10.8 GiB (98%)
  40. Writing library : Lavc60.6.100 h264_nvenc
  41. Language : English
  42. Default : No
  43. Forced : No
  44. Color range : Limited

  45. Audio #1
  46. ID : 2
  47. Format : AC-3
  48. Format/Info : Audio Coding 3
  49. Commercial name : Dolby Digital
  50. Codec ID : A_AC3
  51. Duration : 1 h 27 min
  52. Bit rate mode : Constant
  53. Bit rate : 192 kb/s
  54. Channel(s) : 2 channels
  55. Channel layout : L R
  56. Sampling rate : 48.0 kHz
  57. frame rate : 31.250 FPS (1536 SPF)
  58. Bit depth : 32 bits
  59. Compression mode : Lossy
  60. Delay relative to video : -17 ms
  61. Stream size : 120 MiB (1%)
  62. Language : English
  63. Service kind : Complete Main
  64. Default : Yes
  65. Forced : No

  66. Audio #2
  67. ID : 3
  68. Format : AC-3
  69. Format/Info : Audio Coding 3
  70. Commercial name : Dolby Digital
  71. Codec ID : A_AC3
  72. Duration : 1 h 27 min
  73. Bit rate mode : Constant
  74. Bit rate : 192 kb/s
  75. Channel(s) : 2 channels
  76. Channel layout : L R
  77. Sampling rate : 48.0 kHz
  78. frame rate : 31.250 FPS (1536 SPF)
  79. Bit depth : 32 bits
  80. Compression mode : Lossy
  81. Delay relative to video : -17 ms
  82. Stream size : 120 MiB (1%)
  83. Language : English
  84. Service kind : Complete Main
  85. Default : No
  86. Forced : No

  87. Text
  88. ID : 4
  89. Format : UTF-8
  90. Codec ID : S_TEXT/UTF8
  91. Codec ID/Info : UTF-8 Plain Text
  92. Duration : 1 h 24 min
  93. Bit rate : 88 b/s
  94. frame rate : 0.253 FPS
  95. Count of elements : 1282
  96. Stream size : 54.7 KiB (0%)
  97. Language : Chinese
  98. Default : Yes
  99. Forced : No
复制代码









回复

使用道具 举报

蓝光币
255
发表于 2024-7-5 17:41:00 | 显示全部楼层
多谢分享这么经典的好电影!
回复

使用道具 举报

蓝光币
751
发表于 2024-7-5 21:11:46 | 显示全部楼层

楼主太厉害了!楼主,电影应该很好看我觉得蓝光电影网真是个好地方!
回复

使用道具 举报

蓝光币
10
发表于 2024-7-5 22:10:28 | 显示全部楼层
谢谢分享
回复

使用道具 举报

蓝光币
902
发表于 2024-7-5 23:08:48 | 显示全部楼层
谢谢楼主分享!
回复

使用道具 举报

蓝光币
1003
发表于 2024-7-5 23:13:48 | 显示全部楼层

我看不错噢 谢谢楼主!蓝光电影网越来越好!
回复

使用道具 举报

蓝光币
419
发表于 2024-7-6 09:45:59 | 显示全部楼层
楼主发贴辛苦了,谢谢楼主分享!我觉得蓝光电影网是注册对了!
回复

使用道具 举报

蓝光币
38
发表于 2024-7-6 10:03:04 | 显示全部楼层
楼主发贴辛苦了,谢谢楼主分享!我觉得蓝光电影网是注册对了!
回复

使用道具 举报

蓝光币
630
发表于 2024-7-6 10:36:11 | 显示全部楼层
谢谢分享
回复

使用道具 举报

蓝光币
902
发表于 2024-7-7 01:58:52 | 显示全部楼层
谢谢楼主分享!
回复

使用道具 举报

懒得打字嘛,点击右侧快捷回复 【右侧内容,后台自定义】
您需要登录后才可以回帖 登录 | 立即加入

本版积分规则

Archiver| |网站地图

Copyright © 2024 Comsenz Inc. Powered by 蓝光电影网

本站内容由用户自主分享和转载自互联网,转载目的在于传递更多信息,并不代表本网赞同其观点和对其真实性负责。

如有侵权、违反国家法律政策行为,请联系我们,我们会第一时间及时清除和处理!

举报反馈邮箱:4k1080.com@gmail.com

快速回复 返回顶部 返回列表