找回密码

查看: 567|回复: 26

[剧情] 东方快车谋杀案.Poirot.Murder.on.the.Orient.Express.2010.BluRay.1080p.DTS.x264-TAG 8.03GB

[复制链接]
蓝光币
2048
发表于 2024-6-21 13:25:44 | 显示全部楼层 |阅读模式
东方快车谋杀案.Poirot.Murder.on.the.Orient.Express.2010.BluRay.1080p.DTS.x264-TAG 8.03GB-1.jpg


◎译  名 东方快车谋杀案/Agatha Christie's Poirot: Murder on the Orient Express/大侦察波罗系列之东方快车谋杀案2010
◎片  名 Poirot: Murder on the Orient Express
◎年  代 2010
◎产  地 英国
◎类  别 剧情 / 悬疑 / 犯罪
◎语  言 英语
◎上映日期 2010-07-11(美国) / 2010-12-25(英国)
◎IMDb评分  8/10 from 3924 users
◎IMDb链接  https://www.imdb.com/title/tt1554113/
◎豆瓣评分 8.1/10 from 37397 users
◎豆瓣链接 https://movie.douban.com/subject/4179012/
◎片  长 93分钟
◎导  演 菲利普·马丁 Philip Martin
◎编  剧 阿加莎·克里斯蒂 Agatha Christie / 斯图尔特·哈考特 Stewart Harcourt
◎主  演 大卫·苏切 David Suchet
       艾琳·阿特金斯 Eileen Atkins
       杰西卡·查斯坦 Jessica Chastain
       玛丽-乔西·克罗兹 Marie-Josée Croze
       大卫·莫瑞瑟 David Morrissey
       芭芭拉·赫希 Barbara Hershey
       苏珊娜·洛塔尔 Susanne Lothar
       德尼·梅诺谢 Denis Ménochet
       塞尔奇·哈赛纳维奇 Serge Hazanavicius
       托比·琼斯 Toby Jones
       萨缪尔·韦斯特 Samuel West
       休·博纳维尔 Hugh Bonneville
       布莱恩·J·史姑娘 Brian J. Smith
       埃莲娜·萨汀 Elena Satine
       约瑟夫·马勒 Joseph Mawle
       斯坦利·韦伯 Stanley Weber
       山姆·克莱恩 Sam Crane
       斯图尔特·斯卡德莫尔 Stewart Scudamore

◎标  签 推理 | 悬疑 | 侦察 | 犯罪 | 英国电影 | 典范 | 人性 | 名著改编

◎简  介

  本片改编自阿加莎·克里斯蒂的同名小说。
  Poirot(大卫·苏切特 David Suchet 饰)到访伊斯坦布尔之际,替英国军方处理了一路复杂的案件。在返回伦敦的途中,他碰到了老友国际客车公司的董事Bouc师长,他为Poirot在最初一刻订到了东方快车的车票。在列车上,Poirot碰到美国巨贾Samuel,他告诉Poirot自己的生命遭到威胁,愿意付出重金让他庇护自己,但却遭到了Poirot的拒绝。第二天早晨醒来之际,Poirot发现列车受困于狂风雪中而Samuel已被人谋杀在包厢里。在Bouc师长和Constantine医生的辅佐下,起头对凶案展开观察,他能否能顺遂解开这桩扑朔迷离的惊天大案呢?

  1. General
  2. Unique ID : 216789283873626089585579394260678987621 (0xA31818EB800E3BA8865E906427CFCF65)
  3. Format : Matroska
  4. Format version : Version 2
  5. File size : 7.92 GiB
  6. Duration : 1 h 32 min
  7. Overall bit rate : 12.2 Mb/s
  8. Encoded date : UTC 2011-07-17 20:43:42
  9. Writing application : mkvmerge v3.2.0 ('Beginnings') built on Feb 12 2010 16:46:17
  10. Writing library : libebml v0.7.9 + libmatroska v0.8.1

  11. Video
  12. ID : 1
  13. Format : AVC
  14. Format/Info : Advanced Video Codec
  15. Format profile : [email]High@L4.1[/email]
  16. Format settings : CABAC / 4 Ref Frames
  17. Format settings, CABAC : Yes
  18. Format settings, Reference fra : 4 frames
  19. Codec ID : V_MPEG4/ISO/AVC
  20. Duration : 1 h 32 min
  21. Bit rate : 10.7 Mb/s
  22. Width : 1 920 pixels
  23. Height : 1 080 pixels
  24. Display aspect ratio : 16:9
  25. Frame rate mode : Constant
  26. Frame rate : 24.000 FPS
  27. Color space : YUV
  28. Chroma subsampling : 4:2:0
  29. Bit depth : 8 bits
  30. Scan type : Progressive
  31. Bits/(Pixel*Frame) : 0.215
  32. Stream size : 6.78 GiB (86%)
  33. Writing library : x264 core 115 r2008 4c552d8
  34. Encoding settings : cabac=1 / ref=4 / deblock=1:-3:-3 / analyse=0x3:0x113 / me=umh / subme=10 / psy=1 / psy_rd=1.00:0.05 / mixed_ref=1 / me_range=48 / chroma_me=1 / trellis=2 / 8x8dct=1 / cqm=0 / deadzone=21,11 / fast_pskip=0 / chroma_qp_offset=-2 / threads=12 / sliced_threads=0 / nr=0 / decimate=1 / interlaced=0 / bluray_compat=0 / constrained_intra=0 / bframes=6 / b_pyramid=2 / b_adapt=2 / b_bias=0 / direct=3 / weightb=1 / open_gop=0 / weightp=2 / keyint=250 / keyint_min=24 / scenecut=40 / intra_refresh=0 / rc_lookahead=60 / rc=2pass / mbtree=1 / bitrate=10699 / ratetol=1.0 / qcomp=0.70 / qpmin=0 / qpmax=69 / qpstep=4 / cplxblur=20.0 / qblur=0.5 / vbv_maxrate=40000 / vbv_bufsize=30000 / nal_hrd=none / ip_ratio=1.40 / aq=2:0.90
  35. Language : English
  36. Default : No
  37. Forced : No

  38. Audio
  39. ID : 2
  40. Format : DTS
  41. Format/Info : Digital Theater Systems
  42. Codec ID : A_DTS
  43. Duration : 1 h 32 min
  44. Bit rate mode : Constant
  45. Bit rate : 1 509 kb/s
  46. Channel(s) : 2 channels
  47. Channel layout : L R
  48. Sampling rate : 48.0 kHz
  49. Frame rate : 93.750 FPS (512 SPF)
  50. Bit depth : 24 bits
  51. Compression mode : Lossy
  52. Stream size : 1 002 MiB (12%)
  53. Language : English
  54. Default : Yes
  55. Forced : No
复制代码
东方快车谋杀案.Poirot.Murder.on.the.Orient.Express.2010.BluRay.1080p.DTS.x264-TAG 8.03GB-2.jpg








回复

使用道具 举报

蓝光币
102
发表于 2024-6-21 16:52:27 | 显示全部楼层

楼主太厉害了!楼主,电影应该很好看我觉得蓝光电影网真是个好地方!
回复

使用道具 举报

蓝光币
235
发表于 2024-6-21 21:45:46 | 显示全部楼层

这东西我收了!谢谢楼主!蓝光电影网真好!
回复

使用道具 举报

蓝光币
652
发表于 2024-6-22 10:18:49 | 显示全部楼层
谢谢分享
回复

使用道具 举报

蓝光币
615
发表于 2024-6-22 15:13:21 | 显示全部楼层
这还是10年版本的;谢谢分享啦
回复

使用道具 举报

蓝光币
123
发表于 2024-6-22 23:03:44 | 显示全部楼层
谢谢分享
回复

使用道具 举报

蓝光币
475
发表于 2024-6-23 08:51:38 | 显示全部楼层
楼主发贴辛苦了,谢谢楼主分享!我觉得蓝光电影网是注册对了!
回复

使用道具 举报

蓝光币
291
发表于 2024-6-23 17:41:25 | 显示全部楼层
楼主发贴辛苦了,谢谢楼主分享!我觉得蓝光电影网是注册对了!
回复

使用道具 举报

蓝光币
28
发表于 2024-6-24 11:06:35 | 显示全部楼层
这东西我收了!谢谢楼主!
回复

使用道具 举报

蓝光币
521
发表于 2024-6-24 15:35:58 | 显示全部楼层

论坛不能没有像楼主这样的人才啊!我会一直支持蓝光电影网。
回复

使用道具 举报

懒得打字嘛,点击右侧快捷回复 【右侧内容,后台自定义】
您需要登录后才可以回帖 登录 | 立即加入

本版积分规则

Archiver| |网站地图

Copyright © 2024 Comsenz Inc. Powered by 蓝光电影网

本站内容由用户自主分享和转载自互联网,转载目的在于传递更多信息,并不代表本网赞同其观点和对其真实性负责。

如有侵权、违反国家法律政策行为,请联系我们,我们会第一时间及时清除和处理!

举报反馈邮箱:4k1080.com@gmail.com

快速回复 返回顶部 返回列表