找回密码

查看: 381|回复: 20

[剧情] 真纳传.Jinnah.1998.1080p.BluRay.REMUX.AVC.DTS-HD.MA.2.0.DD5.1.CUSTOM-Asmo 23.29GB

[复制链接]
蓝光币
8
发表于 2024-6-13 12:01:48 | 显示全部楼层 |阅读模式



译  名 真纳传
片  名 Jinnah
年  代 1998
产  地 英国/巴基斯坦
类  别 剧情 / 列传 / 战争
语  言 英语
上映日期 1998
IMDb评星  ★★★★★★★★☆☆
IMDb评分  7.8/10 from 3,149 users
IMDb链接  https://www.imdb.com/title/tt0183306/
豆瓣链接 https://movie.douban.com/subject/4189675/
片  长 110 分钟
导  演 贾米勒·德拉维 / Jamil Dehlavi
演  员 弗农·多布切夫 / Vernon Dobtcheff
      理查德·林特恩 / Richard Lintern
      Marc Zuber Marc Zuber
      大卫·奎尔特 / David Quilter
      玛丽亚·艾特肯 / Maria Aitken
      克里斯托弗·李 / Christopher Lee
      沙希·卡普尔 / Shashi Kapoor
      罗杰布莱尔利 / Roger Brierley
      詹姆斯·福克斯 / James Fox
      Sam Dastor Sam Dastor
      伊恩·盖尔德 / Ian Gelder
      约翰·格里洛 / John Grillo
      克里斯托弗戈德温 / Christopher Godwin
      约翰·内特尔顿 / John Nettleton
      迈克尔·埃尔文 / Michael Elwyn
编  剧 贾米勒·德拉维 / Jamil Dehlavi
制  片  人 贾米勒·德拉维 / Jamil Dehlavi
音  乐 Michael Csányi-Wills Michael Csányi-Wills
      Nigel Clarke Nigel Clarke
摄  影 尼古拉斯·D·诺兰德 / Nicholas D. Knowland
剪  辑 Robert M. Reitano Robert M. Reitano
服  装 Barbara Rutter Barbara Rutter
化  妆 莱斯利·拉蒙特·费舍 / Lesley Lamont-Fisher
视觉殊效 Eric Person Eric Person

简  介 

  The movie tells the story of the leader of PAKISTAN, the great QUAID E AZAM MOHAMMAD ALI JINNAH, and the creation of PAKISTAN.
  A cinematic masterpiece, it brought tears to my eyes and effected me deeply.
  This movie sets the record straight about THE GREAT JINNAH, after the biased potrayal of him in the movie "gandhi".
  1. Jinnah.1998.1080p.BluRay.REMUX.AVC.DTS-HD.MA.2.0.DD5.1.CUSTOM-Asmo

  2. Stream #0:0(eng): Video: h264 (High), yuv420p(tv, bt709, progressive), 1920x1080 [SAR 1:1 DAR 16:9], 24 fps, 24 tbr, 1k tbn, 48 tbc (default)
  3. Stream #0:1(eng): Audio: dts (DTS-HD MA), 48000 Hz, stereo, s16p (default) (oryginal)
  4. Stream #0:2(eng): Audio: ac3, 48000 Hz, 5.1(side), fltp, 448 kb/s (5.1 custom)
  5. Stream #0:3(rus): Audio: dts (DTS-HD MA), 48000 Hz, stereo, s16p
  6. Stream #0:4(eng): Subtitle: hdmv_pgs_subtitle (full)
  7. Stream #0:5(eng): Subtitle: hdmv_pgs_subtitle (sdh)
  8. Stream #0:6(rus): Subtitle: hdmv_pgs_subtitle (full)
复制代码






回复

使用道具 举报

蓝光币
630
发表于 2024-6-13 17:35:34 | 显示全部楼层
谢谢分享
回复

使用道具 举报

蓝光币
178
发表于 2024-6-13 20:56:48 | 显示全部楼层
谢谢分享!真棒!
回复

使用道具 举报

蓝光币
608
发表于 2024-6-14 09:25:52 | 显示全部楼层
之前听说过还有甘地传,这算是------姊妹篇吗
回复

使用道具 举报

蓝光币
1003
发表于 2024-6-14 20:30:16 | 显示全部楼层

既然你诚信诚意的推荐了,那我就勉为其难的看看吧!蓝光电影网不走平凡路。
回复

使用道具 举报

蓝光币
563
发表于 2024-6-15 16:08:00 | 显示全部楼层

~ 珍惜+支持 ~
回复

使用道具 举报

蓝光币
9
发表于 2024-6-16 17:38:20 | 显示全部楼层
感谢分享
回复

使用道具 举报

蓝光币
389
发表于 2024-6-17 17:15:58 | 显示全部楼层
xxndscxxndsc
回复

使用道具 举报

蓝光币
1003
发表于 2024-6-17 20:33:26 | 显示全部楼层

我看不错噢 谢谢楼主!蓝光电影网越来越好!
回复

使用道具 举报

蓝光币
396
发表于 2024-6-18 08:53:44 | 显示全部楼层

楼主太厉害了!楼主,电影应该很好看我觉得蓝光电影网真是个好地方!
回复

使用道具 举报

懒得打字嘛,点击右侧快捷回复 【右侧内容,后台自定义】
您需要登录后才可以回帖 登录 | 立即加入

本版积分规则

Archiver| |网站地图

Copyright © 2024 Comsenz Inc. Powered by 蓝光电影网

本站内容由用户自主分享和转载自互联网,转载目的在于传递更多信息,并不代表本网赞同其观点和对其真实性负责。

如有侵权、违反国家法律政策行为,请联系我们,我们会第一时间及时清除和处理!

举报反馈邮箱:4k1080.com@gmail.com

快速回复 返回顶部 返回列表