找回密码

查看: 322|回复: 0

[全集] 使女的故事 [第5季][10集全].The.Handmaids.Tale.S05.2022.2160p.HULU.WEB-DL.x265.10bit.SDR.DDP5.1-PlayWEB 55.31GB

[复制链接]
蓝光币
2027
发表于 2024-5-27 21:36:21 | 显示全部楼层 |阅读模式
使女的故事 [第5季][10集全].The.Handmaids.Tale.S05.2022.2160p.HULU.WEB-DL.x265.10bit.SDR.DDP5.1-PlayWEB 55.31GB-1.jpg
◎译  名 使女的故事 第五季 / Morning
◎片  名 The Handmaid's Tale Season 5
◎年  代 2022
◎产  地 美国
◎类  别 剧情 / 科幻 / 悬疑
◎语  言 英语
◎上映日期 2022-09-14(美国)
◎IMDb评分  7.1/10 from 1,866 users
◎IMDb链接  https://www.imdb.com/title/tt13672174/
◎豆瓣评分 8.5/10 from 5,158 users
◎豆瓣链接 https://movie.douban.com/subject/35284172/
◎单集片长 50分钟
◎集  数 10
◎导  演 伊丽莎白·莫斯 / Elisabeth Moss
      达纳·冈萨雷斯 / Dana Gonzales
      埃娃·比维斯 / Eva Vives
      布莱德利·惠特福德 / Bradley Whitford
◎演  员 伊丽莎白·莫斯 / Elisabeth Moss (饰 June Osborne)
      伊冯娜·斯特拉霍夫斯基 / Yvonne Strahovski (饰 Serena Joy Waterford)
      麦肯娜·格瑞丝 / Mckenna Grace (饰 Esther Keyes)
      布莱德利·惠特福德 / Bradley Whitford (饰 Joseph Lawrence)
      葛晓洁 / Christine Ko
      阿丽克西斯·布莱德尔 / Alexis Bledel (饰 Emily Malek)
      山姆·贾格 / Sam Jaeger (饰 Mark Tuello)
      O·T·法格本 / O.T. Fagbenle (饰 Luke Bankole)
      麦克思·明格拉 / Max Minghella (饰 Nick Blaine)
      玛德琳·布鲁尔 / Madeline Brewer (饰 Janine Lindo)
      安·唐德 / Ann Dowd (饰 Aunt Lydia Clements)
      萨米拉·威利 / Samira Wiley (饰 Moira Strand)
      阿曼达·布鲁盖尔 / Amanda Brugel (饰 Rita Blue)
      吉纳维芙·安吉森 / Genevieve Angelson
      约瑟夫·费因斯 / Joseph Fiennes
       Owen Painter (饰 Jaden)
      凯瑞·考克斯 / Carey Cox (饰 Rose Blaine)

◎简  介 

  在第五季里,June将面临杀死Waterford大主教发生的结果,同时尽力重新斟酌自己的身份和目标/决心。随着基列国的影响力逐步渗透到加拿大,孀妇Serena试图进步自己在多伦多的著名度。Lawrence大主教和Lydia嬷嬷联手,尝试重塑基列国,提升自己的职位。June、Luke和Moira从内部匹敌基列国,继续着他们拯救Hannah、与其团圆的使命。

  1. General
  2. Unique ID : 309586797663574472597616672893331372270 (0xE8E83F973095C4EC7F07028B96D4F8EE)
  3. Complete name : The.Handmaids.Tale.S05E01.Morning.2160p.HULU.WEB-DL.DDP5.1.H.265-playWEB.mkv
  4. Format : Matroska
  5. Format version : Version 4
  6. File size : 6.19 GiB
  7. Duration : 56 min 46 s
  8. Overall bit rate : 15.6 Mb/s
  9. Writing application : mkvmerge v68.0.0 ('The Curtain') 64-bit
  10. Writing library : libebml v1.4.2 + libmatroska v1.6.4

  11. Video
  12. ID : 1
  13. Format : HEVC
  14. Format/Info : High Efficiency Video Coding
  15. Format profile : Main [email]10@L5.1[/email]@Main
  16. Codec ID : V_MPEGH/ISO/HEVC
  17. Duration : 56 min 46 s
  18. Bit rate : 15.3 Mb/s
  19. Width : 3 840 pixels
  20. Height : 2 160 pixels
  21. Display aspect ratio : 16:9
  22. Frame rate mode : Constant
  23. Frame rate : 23.976 (24000/1001) FPS
  24. Color space : YUV
  25. Chroma subsampling : 4:2:0
  26. Bit depth : 10 bits
  27. Bits/(Pixel*Frame) : 0.077
  28. Stream size : 6.08 GiB (98%)
  29. Language : English
  30. Default : Yes
  31. Forced : No

  32. Audio
  33. ID : 2
  34. Format : E-AC-3
  35. Format/Info : Enhanced AC-3
  36. Commercial name : Dolby Digital Plus
  37. Codec ID : A_EAC3
  38. Duration : 56 min 46 s
  39. Bit rate mode : Constant
  40. Bit rate : 256 kb/s
  41. Channel(s) : 6 channels
  42. Channel layout : L R C LFE Ls Rs
  43. Sampling rate : 48.0 kHz
  44. Frame rate : 31.250 FPS (1536 SPF)
  45. Compression mode : Lossy
  46. Stream size : 104 MiB (2%)
  47. Language : English
  48. Service kind : Complete Main
  49. Default : Yes
  50. Forced : No

  51. Text #1
  52. ID : 3
  53. Format : UTF-8
  54. Codec ID : S_TEXT/UTF8
  55. Codec ID/Info : UTF-8 Plain Text
  56. Duration : 54 min 39 s
  57. Bit rate : 49 b/s
  58. Count of elements : 717
  59. Stream size : 19.6 KiB (0%)
  60. Language : English
  61. Default : No
  62. Forced : No

  63. Text #2
  64. ID : 4
  65. Format : UTF-8
  66. Codec ID : S_TEXT/UTF8
  67. Codec ID/Info : UTF-8 Plain Text
  68. Duration : 54 min 39 s
  69. Bit rate : 46 b/s
  70. Count of elements : 684
  71. Stream size : 18.7 KiB (0%)
  72. Language : Spanish
  73. Default : No
  74. Forced : No

  75. Report created by : MediaInfoLib - v21.09
复制代码
使女的故事 [第5季][10集全].The.Handmaids.Tale.S05.2022.2160p.HULU.WEB-DL.x265.10bit.SDR.DDP5.1-PlayWEB 55.31GB-2.png 使女的故事 [第5季][10集全].The.Handmaids.Tale.S05.2022.2160p.HULU.WEB-DL.x265.10bit.SDR.DDP5.1-PlayWEB 55.31GB-3.png 使女的故事 [第5季][10集全].The.Handmaids.Tale.S05.2022.2160p.HULU.WEB-DL.x265.10bit.SDR.DDP5.1-PlayWEB 55.31GB-4.png 使女的故事 [第5季][10集全].The.Handmaids.Tale.S05.2022.2160p.HULU.WEB-DL.x265.10bit.SDR.DDP5.1-PlayWEB 55.31GB-5.png









回复

使用道具 举报

懒得打字嘛,点击右侧快捷回复 【右侧内容,后台自定义】
您需要登录后才可以回帖 登录 | 立即加入

本版积分规则

Archiver| |网站地图

Copyright © 2024 Comsenz Inc. Powered by 蓝光电影网

本站内容由用户自主分享和转载自互联网,转载目的在于传递更多信息,并不代表本网赞同其观点和对其真实性负责。

如有侵权、违反国家法律政策行为,请联系我们,我们会第一时间及时清除和处理!

举报反馈邮箱:4k1080.com@gmail.com

快速回复 返回顶部 返回列表