找回密码

蓝光电影网

查看: 4777|回复: 135

[8bit.SDR] 胡桃夹子和四个王国/胡桃夹子 The.Nutcracker.and.the.Four.Realms.2018.2160p.BluRay.x264.8bit.SDR.DTS-HD.MA.TrueHD.7.1.Atmos-SWTYBLZ 43.42GB

  [复制链接]

 成长值: 21415

发表于 2019-1-25 10:26:18 | 显示全部楼层 |阅读模式
胡桃夹子和四个王国/胡桃夹子 The.Nutcracker.and.the.Four.Realms.2018.2160p.BluRay.x264.8bit.SDR.DTS-HD.MA.TrueHD.7.1.Atmos-SWTYBLZ 43.42GB-1.jpg
◎译  名 胡桃夹子和四个王国 / 胡桃夹子(港) / 胡桃钳与奇幻四国(台) / 胡桃夹子真人版
◎片  名 胡桃夹子和四个王国 The Nutcracker And The Four Realms
◎年  代 2018
◎国  家 美国
◎类  别 奇幻 / 冒险
◎语  言 英语
◎上映日期 2018-11-02(中国大陆/美国)
◎IMDb评分  5.5/10 from 10,980 users
◎IMDb链接  http://www.imdb.com/title/tt5523010/
◎豆瓣评分 6.1/10 from 32051 users
◎豆瓣链接 https://movie.douban.com/subject/26741061/
◎片  长 99分钟
◎导  演 拉斯·霍尔斯道姆 / 乔·庄斯顿
◎主  演 麦肯吉·弗依
      摩根·弗里曼
      凯拉·奈特莉
      马修·麦克费登
      海伦·米伦
      艾丽·巴姆博
      米兰达·哈特
      欧赫尼奥·德尔维斯
      杰克·怀特霍尔
      理查德·E·格兰特
      谢尔盖·波卢宁
      欧米德·吉亚李利
      梅拉·沙尔
      尼克·穆罕默德
      杰茜·维宁
      汤姆·斯威特
      马里安·洛伦西克
      芙洛·费拉科
      丽塔-麦克唐纳丹帕
      查尔斯·斯特里特

◎简  介 

  克拉拉一直在寻找一把钥匙——这把与众不同的钥匙将可以开启已故母亲装有无价之宝的盒子。在教父德罗塞尔梅耶举办的一次节日聚会上,一根金线指引着她找到了这把梦寐以求的钥匙,却在瞬间消失进入一个陌生而神秘的平行世界。在平行世界里,克拉拉结识了士兵菲利普、一群老鼠、以及分别掌管雪花王国、鲜花王国、糖果王国的三位国王。克拉拉和菲利普必须勇敢地接受第四位国王——暴君姜母的考验,才能够找回钥匙、并将和平重新带回这个摇摇欲坠的平行世界。

◎获奖情况 

  第46届动画安妮奖 (2019)
  最佳真人电影动画角色(提名)

  第21届美国服装设计工会奖 (2019)
  科幻/奇幻题材电影最佳服装设计(提名) 珍妮·碧万

  第39届伦敦影评人协会奖 (2019)
  年度英国/爱尔兰男演员(提名) 理查德·E·格兰特


  1. Video
  2. ID                                       : 1
  3. Format                                   : AVC
  4. Format/Info                              : Advanced Video Codec
  5. Format profile                           : [url=/cdn-cgi/l/email-protection][email protected][/url]
  6. Format settings                          : CABAC / 5 Ref Frames
  7. Format settings, CABAC                   : Yes
  8. Format settings, RefFrames               : 5 frames
  9. Codec ID                                 : V_MPEG4/ISO/AVC
  10. Duration                                 : 1 h 39 min
  11. Bit rate                                 : 53.2 Mb/s
  12. Width                                    : 3 840 pixels
  13. Height                                   : 2 076 pixels
  14. Display aspect ratio                     : 1.85:1
  15. Frame rate mode                          : Constant
  16. Frame rate                               : 23.976 (24000/1001) FPS
  17. Color space                              : YUV
  18. Chroma subsampling                       : 4:2:0
  19. Bit depth                                : 8 bits
  20. Scan type                                : Progressive
  21. Bits/(Pixel*Frame)                       : 0.278
  22. Stream size                              : 36.9 GiB (85%)
  23. Title                                    : The.Nutcracker.and.the.Four.Realms.2018.2160p.BluRay.x264.8bit.SDR.DTS-HD.MA.TrueHD.7.1.Atmos-SWTYBLZ
  24. Writing library                          : x264 core 157 r2935 545de2f
  25. Encoding settings                        : cabac=1 / ref=5 / deblock=1:-1:-1 / analyse=0x3:0x113 / me=umh / subme=10 / psy=1 / psy_rd=1.00:0.15 / mixed_ref=1 / me_range=48 / chroma_me=1 / trellis=2 / 8x8dct=1 / cqm=0 / deadzone=21,11 / fast_pskip=1 / chroma_qp_offset=-3 / threads=65 / lookahead_threads=5 / sliced_threads=0 / nr=0 / decimate=0 / interlaced=0 / bluray_compat=0 / constrained_intra=0 / bframes=3 / b_pyramid=2 / b_adapt=2 / b_bias=0 / direct=3 / weightb=1 / open_gop=0 / weightp=2 / keyint=250 / keyint_min=23 / scenecut=40 / intra_refresh=0 / rc_lookahead=50 / rc=crf / mbtree=1 / crf=18.0 / qcomp=0.60 / qpmin=0 / qpmax=69 / qpstep=4 / ip_ratio=1.40 / aq=1:1.00
  26. Default                                  : Yes
  27. Forced                                   : No

  28. Audio #1
  29. ID                                       : 2
  30. Format                                   : MLP FBA 16-ch
  31. Format/Info                              : Meridian Lossless Packing FBA with 16-channel presentation
  32. Commercial name                          : Dolby TrueHD with Dolby Atmos
  33. Codec ID                                 : A_TRUEHD
  34. Duration                                 : 1 h 39 min
  35. Bit rate mode                            : Variable
  36. Bit rate                                 : 4 942 kb/s
  37. Maximum bit rate                         : 7 977 kb/s
  38. Channel(s)                               : 8 channels
  39. Channel layout                           : L R C LFE Ls Rs Lb Rb
  40. Sampling rate                            : 48.0 kHz
  41. Frame rate                               : 1 200.000 FPS (40 SPF)
  42. Compression mode                         : Lossless
  43. Delay relative to video                  : 15 ms
  44. Stream size                              : 3.43 GiB (8%)
  45. Title                                    : The.Nutcracker.and.the.Four.Realms.2018.2160p.BluRay.x264.8bit.SDR.DTS-HD.MA.TrueHD.7.1.Atmos-SWTYBLZ
  46. Language                                 : English
  47. Default                                  : Yes
  48. Forced                                   : No
  49. Number of dynamic objects                : 13
  50. Bed channel count                        : 1 channel
  51. Bed channel configuration                : LFE

  52. Audio #2
  53. ID                                       : 3
  54. Format                                   : DTS XLL
  55. Format/Info                              : Digital Theater Systems
  56. Commercial name                          : DTS-HD Master Audio
  57. Codec ID                                 : A_DTS
  58. Duration                                 : 1 h 39 min
  59. Bit rate mode                            : Variable
  60. Bit rate                                 : 3 490 kb/s
  61. Channel(s)                               : 8 channels
  62. Channel layout                           : C L R LFE Lb Rb Lss Rss
  63. Sampling rate                            : 48.0 kHz
  64. Frame rate                               : 93.750 FPS (512 SPF)
  65. Bit depth                                : 24 bits
  66. Compression mode                         : Lossless
  67. Stream size                              : 2.42 GiB (6%)
  68. Title                                    : The.Nutcracker.and.the.Four.Realms.2018.2160p.BluRay.x264.8bit.SDR.DTS-HD.MA.TrueHD.7.1.Atmos-SWTYBLZ
  69. Language                                 : English
  70. Default                                  : No
  71. Forced                                   : No

  72. Audio #3
  73. ID                                       : 4
  74. Format                                   : AC-3
  75. Format/Info                              : Audio Coding 3
  76. Commercial name                          : Dolby Digital
  77. Codec ID                                 : A_AC3
  78. Duration                                 : 1 h 39 min
  79. Bit rate mode                            : Constant
  80. Bit rate                                 : 640 kb/s
  81. Channel(s)                               : 6 channels
  82. Channel layout                           : L R C LFE Ls Rs
  83. Sampling rate                            : 48.0 kHz
  84. Frame rate                               : 31.250 FPS (1536 SPF)
  85. Bit depth                                : 16 bits
  86. Compression mode                         : Lossy
  87. Delay relative to video                  : 15 ms
  88. Stream size                              : 454 MiB (1%)
  89. Title                                    : The.Nutcracker.and.the.Four.Realms.2018.2160p.BluRay.x264.8bit.SDR.DTS-HD.MA.TrueHD.7.1.Atmos-SWTYBLZ
  90. Language                                 : English
  91. Service kind                             : Complete Main
  92. Default                                  : No
  93. Forced                                   : No

  94. Text #1
  95. ID                                       : 5
  96. Format                                   : UTF-8
  97. Codec ID                                 : S_TEXT/UTF8
  98. Codec ID/Info                            : UTF-8 Plain Text
  99. Duration                                 : 1 h 27 min
  100. Bit rate                                 : 43 b/s
  101. Count of elements                        : 1098
  102. Stream size                              : 27.7 KiB (0%)
  103. Title                                    : English-SRT
  104. Language                                 : English
  105. Default                                  : Yes
  106. Forced                                   : No

  107. Text #2
  108. ID                                       : 6
  109. Format                                   : UTF-8
  110. Codec ID                                 : S_TEXT/UTF8
  111. Codec ID/Info                            : UTF-8 Plain Text
  112. Duration                                 : 1 h 36 min
  113. Bit rate                                 : 45 b/s
  114. Count of elements                        : 1340
  115. Stream size                              : 32.4 KiB (0%)
  116. Title                                    : English-SDH-SRT
  117. Language                                 : English
  118. Default                                  : No
  119. Forced                                   : No

  120. Text #3
  121. ID                                       : 7
  122. Format                                   : PGS
  123. Muxing mode                              : zlib
  124. Codec ID                                 : S_HDMV/PGS
  125. Codec ID/Info                            : Picture based subtitle format used on BDs/HD-DVDs
  126. Duration                                 : 1 h 36 min
  127. Bit rate                                 : 36.7 kb/s
  128. Count of elements                        : 2686
  129. Stream size                              : 25.4 MiB (0%)
  130. Title                                    : English-PGS
  131. Language                                 : English
  132. Default                                  : No
  133. Forced                                   : No

  134. Text #4
  135. ID                                       : 8
  136. Format                                   : PGS
  137. Muxing mode                              : zlib
  138. Codec ID                                 : S_HDMV/PGS
  139. Codec ID/Info                            : Picture based subtitle format used on BDs/HD-DVDs
  140. Duration                                 : 1 h 31 min
  141. Bit rate                                 : 32.2 kb/s
  142. Count of elements                        : 2132
  143. Stream size                              : 21.0 MiB (0%)
  144. Title                                    : French-PGS
  145. Language                                 : French
  146. Default                                  : No
  147. Forced                                   : No

  148. Text #5
  149. ID                                       : 9
  150. Format                                   : PGS
  151. Muxing mode                              : zlib
  152. Codec ID                                 : S_HDMV/PGS
  153. Codec ID/Info                            : Picture based subtitle format used on BDs/HD-DVDs
  154. Duration                                 : 1 h 31 min
  155. Bit rate                                 : 30.1 kb/s
  156. Count of elements                        : 2084
  157. Stream size                              : 19.7 MiB (0%)
  158. Title                                    : Spanish-PGS
  159. Language                                 : Spanish
  160. Default                                  : No
  161. Forced                                   : No

  162. Menu
  163. 00:00:00.000                             : :Chapter 1
  164. 00:08:39.101                             : :Chapter 2
  165. 00:16:47.256                             : :Chapter 3
  166. 00:25:37.744                             : :Chapter 4
  167. 00:34:20.892                             : :Chapter 5
  168. 00:43:28.397                             : :Chapter 6
  169. 00:48:31.992                             : :Chapter 7
  170. 00:56:07.655                             : :Chapter 8
  171. 00:59:09.546                             : :Chapter 9
  172. 01:04:57.310                             : :Chapter 10
  173. 01:11:49.722                             : :Chapter 11
  174. 01:18:10.519                             : :Chapter 12
  175. 01:22:04.002                             : :Chapter 13
  176. 01:30:06.275                             : :Chapter 14
复制代码

复制代码

胡桃夹子和四个王国/胡桃夹子 The.Nutcracker.and.the.Four.Realms.2018.2160p.BluRay.x264.8bit.SDR.DTS-HD.MA.TrueHD.7.1.Atmos-SWTYBLZ 43.42GB-2.png 胡桃夹子和四个王国/胡桃夹子 The.Nutcracker.and.the.Four.Realms.2018.2160p.BluRay.x264.8bit.SDR.DTS-HD.MA.TrueHD.7.1.Atmos-SWTYBLZ 43.42GB-3.png 胡桃夹子和四个王国/胡桃夹子 The.Nutcracker.and.the.Four.Realms.2018.2160p.BluRay.x264.8bit.SDR.DTS-HD.MA.TrueHD.7.1.Atmos-SWTYBLZ 43.42GB-4.png 胡桃夹子和四个王国/胡桃夹子 The.Nutcracker.and.the.Four.Realms.2018.2160p.BluRay.x264.8bit.SDR.DTS-HD.MA.TrueHD.7.1.Atmos-SWTYBLZ 43.42GB-5.png 胡桃夹子和四个王国/胡桃夹子 The.Nutcracker.and.the.Four.Realms.2018.2160p.BluRay.x264.8bit.SDR.DTS-HD.MA.TrueHD.7.1.Atmos-SWTYBLZ 43.42GB-6.png 胡桃夹子和四个王国/胡桃夹子 The.Nutcracker.and.the.Four.Realms.2018.2160p.BluRay.x264.8bit.SDR.DTS-HD.MA.TrueHD.7.1.Atmos-SWTYBLZ 43.42GB-7.png





开通VIP免费下载本站所有资源---点这里
新手必看:资源下载、资源播放、字幕使用、等常见问题---点这里
回复

使用道具 举报

发表于 2019-1-25 10:27:57 | 显示全部楼层
楼主发贴辛苦了,谢谢楼主分享!我觉得蓝光电影网是注册对了!
开通VIP免费下载本站所有资源---点这里
新手必看:资源下载、资源播放、字幕使用、等常见问题---点这里
回复 支持 反对

使用道具 举报

发表于 2019-1-25 11:54:22 | 显示全部楼层
这是atmos的吗?
开通VIP免费下载本站所有资源---点这里
新手必看:资源下载、资源播放、字幕使用、等常见问题---点这里
回复 支持 反对

使用道具 举报

发表于 2019-1-25 14:19:13 | 显示全部楼层
这家伙好快啊,4K的版本就出来了
开通VIP免费下载本站所有资源---点这里
新手必看:资源下载、资源播放、字幕使用、等常见问题---点这里
回复 支持 反对

使用道具 举报

发表于 2019-1-25 14:21:16 | 显示全部楼层

这东西我收了!谢谢楼主!蓝光电影网真好!
开通VIP免费下载本站所有资源---点这里
新手必看:资源下载、资源播放、字幕使用、等常见问题---点这里
回复 支持 反对

使用道具 举报

发表于 2019-1-25 16:51:52 | 显示全部楼层
感谢分享
开通VIP免费下载本站所有资源---点这里
新手必看:资源下载、资源播放、字幕使用、等常见问题---点这里
回复

使用道具 举报

发表于 2019-1-25 17:31:27 | 显示全部楼层
好好好好好好
开通VIP免费下载本站所有资源---点这里
新手必看:资源下载、资源播放、字幕使用、等常见问题---点这里
回复 支持 反对

使用道具 举报

发表于 2019-1-25 20:03:44 | 显示全部楼层
开通VIP免费下载本站所有资源---点这里
新手必看:资源下载、资源播放、字幕使用、等常见问题---点这里
回复

使用道具 举报

发表于 2019-1-25 20:14:55 | 显示全部楼层
楼主发贴辛苦了,谢谢楼主分享!我觉得蓝光电影网是注册对了!
开通VIP免费下载本站所有资源---点这里
新手必看:资源下载、资源播放、字幕使用、等常见问题---点这里
回复 支持 反对

使用道具 举报

发表于 2019-1-25 20:19:05 | 显示全部楼层
感谢楼主分享
开通VIP免费下载本站所有资源---点这里
新手必看:资源下载、资源播放、字幕使用、等常见问题---点这里
回复 支持 反对

使用道具 举报

懒得打字嘛,点击右侧快捷回复 【右侧内容,后台自定义】
您需要登录后才可以回帖 登录 | 立即加入

本版积分规则

现在加入蓝光电影网,注册一个账号

QQ| 手机版|小黑屋| 蓝光电影网 |网站地图

Copyright © 2015-2019 Comsenz Inc.  Template by 蓝光电影网 All Rights Reserved.

Powered by 蓝光电影网 X3.4

特别声明:本站所有资源均由网上收集而来,版权归原影音公司所有,如果侵犯了你的权益,请通知我们,我们会及时删除侵权内容.

快速回复 返回顶部 返回列表