找回密码

蓝光电影网

查看: 4055|回复: 134

胡桃夹子和四个王国/胡桃夹子 The.Nutcracker.and.the.Four.Realms.2018.2160p.BluRay.x264.8bit.SDR.DTS-HD.MA.TrueHD.7.1.Atmos-SWTYBLZ 43.42GB

  [复制链接]
  • TA的每日心情
    开心
    昨天 00:19
  • 签到天数: 149 天

    [LV.7]常住居民III

     成长值: 20095

    发表于 2019-1-25 10:26:18 | 显示全部楼层 |阅读模式

    马上注册,获取最新影视资讯,享用更多功能,让你轻松玩转蓝光电影网。

    您需要 登录 才可以下载或查看,没有帐号?立即加入

    x

    胡桃夹子和四个王国/胡桃夹子 The.Nutcracker.and.the.Four.Realms.2018.2160p.BluRay.x264.8bit.SDR.DTS-HD.MA.TrueHD.7.1.Atmos-SWTYBLZ 43.42GB-1.jpg
    ◎译  名 胡桃夹子和四个王国 / 胡桃夹子(港) / 胡桃钳与奇幻四国(台) / 胡桃夹子真人版
    ◎片  名 胡桃夹子和四个王国 The Nutcracker And The Four Realms
    ◎年  代 2018
    ◎国  家 美国
    ◎类  别 奇幻 / 冒险
    ◎语  言 英语
    ◎上映日期 2018-11-02(中国大陆/美国)
    ◎IMDb评分  5.5/10 from 10,980 users
    ◎IMDb链接  http://www.imdb.com/title/tt5523010/
    ◎豆瓣评分 6.1/10 from 32051 users
    ◎豆瓣链接 https://movie.douban.com/subject/26741061/
    ◎片  长 99分钟
    ◎导  演 拉斯·霍尔斯道姆 / 乔·庄斯顿
    ◎主  演 麦肯吉·弗依
          摩根·弗里曼
          凯拉·奈特莉
          马修·麦克费登
          海伦·米伦
          艾丽·巴姆博
          米兰达·哈特
          欧赫尼奥·德尔维斯
          杰克·怀特霍尔
          理查德·E·格兰特
          谢尔盖·波卢宁
          欧米德·吉亚李利
          梅拉·沙尔
          尼克·穆罕默德
          杰茜·维宁
          汤姆·斯威特
          马里安·洛伦西克
          芙洛·费拉科
          丽塔-麦克唐纳丹帕
          查尔斯·斯特里特

    ◎简  介 

      克拉拉一直在寻找一把钥匙——这把与众不同的钥匙将可以开启已故母亲装有无价之宝的盒子。在教父德罗塞尔梅耶举办的一次节日聚会上,一根金线指引着她找到了这把梦寐以求的钥匙,却在瞬间消失进入一个陌生而神秘的平行世界。在平行世界里,克拉拉结识了士兵菲利普、一群老鼠、以及分别掌管雪花王国、鲜花王国、糖果王国的三位国王。克拉拉和菲利普必须勇敢地接受第四位国王——暴君姜母的考验,才能够找回钥匙、并将和平重新带回这个摇摇欲坠的平行世界。

    ◎获奖情况 

      第46届动画安妮奖 (2019)
      最佳真人电影动画角色(提名)

      第21届美国服装设计工会奖 (2019)
      科幻/奇幻题材电影最佳服装设计(提名) 珍妮·碧万

      第39届伦敦影评人协会奖 (2019)
      年度英国/爱尔兰男演员(提名) 理查德·E·格兰特

    • Video
    • ID                                       : 1
    • Format                                   : AVC
    • Format/Info                              : Advanced Video Codec
    • Format profile                           : [email protected]
    • Format settings                          : CABAC / 5 Ref Frames
    • Format settings, CABAC                   : Yes
    • Format settings, RefFrames               : 5 frames
    • Codec ID                                 : V_MPEG4/ISO/AVC
    • Duration                                 : 1 h 39 min
    • Bit rate                                 : 53.2 Mb/s
    • Width                                    : 3 840 pixels
    • Height                                   : 2 076 pixels
    • Display aspect ratio                     : 1.85:1
    • Frame rate mode                          : Constant
    • Frame rate                               : 23.976 (24000/1001) FPS
    • Color space                              : YUV
    • Chroma subsampling                       : 4:2:0
    • Bit depth                                : 8 bits
    • Scan type                                : Progressive
    • Bits/(Pixel*Frame)                       : 0.278
    • Stream size                              : 36.9 GiB (85%)
    • Title                                    : The.Nutcracker.and.the.Four.Realms.2018.2160p.BluRay.x264.8bit.SDR.DTS-HD.MA.TrueHD.7.1.Atmos-SWTYBLZ
    • Writing library                          : x264 core 157 r2935 545de2f
    • Encoding settings                        : cabac=1 / ref=5 / deblock=1:-1:-1 / analyse=0x3:0x113 / me=umh / subme=10 / psy=1 / psy_rd=1.00:0.15 / mixed_ref=1 / me_range=48 / chroma_me=1 / trellis=2 / 8x8dct=1 / cqm=0 / deadzone=21,11 / fast_pskip=1 / chroma_qp_offset=-3 / threads=65 / lookahead_threads=5 / sliced_threads=0 / nr=0 / decimate=0 / interlaced=0 / bluray_compat=0 / constrained_intra=0 / bframes=3 / b_pyramid=2 / b_adapt=2 / b_bias=0 / direct=3 / weightb=1 / open_gop=0 / weightp=2 / keyint=250 / keyint_min=23 / scenecut=40 / intra_refresh=0 / rc_lookahead=50 / rc=crf / mbtree=1 / crf=18.0 / qcomp=0.60 / qpmin=0 / qpmax=69 / qpstep=4 / ip_ratio=1.40 / aq=1:1.00
    • Default                                  : Yes
    • Forced                                   : No
    • Audio #1
    • ID                                       : 2
    • Format                                   : MLP FBA 16-ch
    • Format/Info                              : Meridian Lossless Packing FBA with 16-channel presentation
    • Commercial name                          : Dolby TrueHD with Dolby Atmos
    • Codec ID                                 : A_TRUEHD
    • Duration                                 : 1 h 39 min
    • Bit rate mode                            : Variable
    • Bit rate                                 : 4 942 kb/s
    • Maximum bit rate                         : 7 977 kb/s
    • Channel(s)                               : 8 channels
    • Channel layout                           : L R C LFE Ls Rs Lb Rb
    • Sampling rate                            : 48.0 kHz
    • Frame rate                               : 1 200.000 FPS (40 SPF)
    • Compression mode                         : Lossless
    • Delay relative to video                  : 15 ms
    • Stream size                              : 3.43 GiB (8%)
    • Title                                    : The.Nutcracker.and.the.Four.Realms.2018.2160p.BluRay.x264.8bit.SDR.DTS-HD.MA.TrueHD.7.1.Atmos-SWTYBLZ
    • Language                                 : English
    • Default                                  : Yes
    • Forced                                   : No
    • Number of dynamic objects                : 13
    • Bed channel count                        : 1 channel
    • Bed channel configuration                : LFE
    • Audio #2
    • ID                                       : 3
    • Format                                   : DTS XLL
    • Format/Info                              : Digital Theater Systems
    • Commercial name                          : DTS-HD Master Audio
    • Codec ID                                 : A_DTS
    • Duration                                 : 1 h 39 min
    • Bit rate mode                            : Variable
    • Bit rate                                 : 3 490 kb/s
    • Channel(s)                               : 8 channels
    • Channel layout                           : C L R LFE Lb Rb Lss Rss
    • Sampling rate                            : 48.0 kHz
    • Frame rate                               : 93.750 FPS (512 SPF)
    • Bit depth                                : 24 bits
    • Compression mode                         : Lossless
    • Stream size                              : 2.42 GiB (6%)
    • Title                                    : The.Nutcracker.and.the.Four.Realms.2018.2160p.BluRay.x264.8bit.SDR.DTS-HD.MA.TrueHD.7.1.Atmos-SWTYBLZ
    • Language                                 : English
    • Default                                  : No
    • Forced                                   : No
    • Audio #3
    • ID                                       : 4
    • Format                                   : AC-3
    • Format/Info                              : Audio Coding 3
    • Commercial name                          : Dolby Digital
    • Codec ID                                 : A_AC3
    • Duration                                 : 1 h 39 min
    • Bit rate mode                            : Constant
    • Bit rate                                 : 640 kb/s
    • Channel(s)                               : 6 channels
    • Channel layout                           : L R C LFE Ls Rs
    • Sampling rate                            : 48.0 kHz
    • Frame rate                               : 31.250 FPS (1536 SPF)
    • Bit depth                                : 16 bits
    • Compression mode                         : Lossy
    • Delay relative to video                  : 15 ms
    • Stream size                              : 454 MiB (1%)
    • Title                                    : The.Nutcracker.and.the.Four.Realms.2018.2160p.BluRay.x264.8bit.SDR.DTS-HD.MA.TrueHD.7.1.Atmos-SWTYBLZ
    • Language                                 : English
    • Service kind                             : Complete Main
    • Default                                  : No
    • Forced                                   : No
    • Text #1
    • ID                                       : 5
    • Format                                   : UTF-8
    • Codec ID                                 : S_TEXT/UTF8
    • Codec ID/Info                            : UTF-8 Plain Text
    • Duration                                 : 1 h 27 min
    • Bit rate                                 : 43 b/s
    • Count of elements                        : 1098
    • Stream size                              : 27.7 KiB (0%)
    • Title                                    : English-SRT
    • Language                                 : English
    • Default                                  : Yes
    • Forced                                   : No
    • Text #2
    • ID                                       : 6
    • Format                                   : UTF-8
    • Codec ID                                 : S_TEXT/UTF8
    • Codec ID/Info                            : UTF-8 Plain Text
    • Duration                                 : 1 h 36 min
    • Bit rate                                 : 45 b/s
    • Count of elements                        : 1340
    • Stream size                              : 32.4 KiB (0%)
    • Title                                    : English-SDH-SRT
    • Language                                 : English
    • Default                                  : No
    • Forced                                   : No
    • Text #3
    • ID                                       : 7
    • Format                                   : PGS
    • Muxing mode                              : zlib
    • Codec ID                                 : S_HDMV/PGS
    • Codec ID/Info                            : Picture based subtitle format used on BDs/HD-DVDs
    • Duration                                 : 1 h 36 min
    • Bit rate                                 : 36.7 kb/s
    • Count of elements                        : 2686
    • Stream size                              : 25.4 MiB (0%)
    • Title                                    : English-PGS
    • Language                                 : English
    • Default                                  : No
    • Forced                                   : No
    • Text #4
    • ID                                       : 8
    • Format                                   : PGS
    • Muxing mode                              : zlib
    • Codec ID                                 : S_HDMV/PGS
    • Codec ID/Info                            : Picture based subtitle format used on BDs/HD-DVDs
    • Duration                                 : 1 h 31 min
    • Bit rate                                 : 32.2 kb/s
    • Count of elements                        : 2132
    • Stream size                              : 21.0 MiB (0%)
    • Title                                    : French-PGS
    • Language                                 : French
    • Default                                  : No
    • Forced                                   : No
    • Text #5
    • ID                                       : 9
    • Format                                   : PGS
    • Muxing mode                              : zlib
    • Codec ID                                 : S_HDMV/PGS
    • Codec ID/Info                            : Picture based subtitle format used on BDs/HD-DVDs
    • Duration                                 : 1 h 31 min
    • Bit rate                                 : 30.1 kb/s
    • Count of elements                        : 2084
    • Stream size                              : 19.7 MiB (0%)
    • Title                                    : Spanish-PGS
    • Language                                 : Spanish
    • Default                                  : No
    • Forced                                   : No
    • Menu
    • 00:00:00.000                             : :Chapter 1
    • 00:08:39.101                             : :Chapter 2
    • 00:16:47.256                             : :Chapter 3
    • 00:25:37.744                             : :Chapter 4
    • 00:34:20.892                             : :Chapter 5
    • 00:43:28.397                             : :Chapter 6
    • 00:48:31.992                             : :Chapter 7
    • 00:56:07.655                             : :Chapter 8
    • 00:59:09.546                             : :Chapter 9
    • 01:04:57.310                             : :Chapter 10
    • 01:11:49.722                             : :Chapter 11
    • 01:18:10.519                             : :Chapter 12
    • 01:22:04.002                             : :Chapter 13
    • 01:30:06.275                             : :Chapter 14

    复制代码

    胡桃夹子和四个王国/胡桃夹子 The.Nutcracker.and.the.Four.Realms.2018.2160p.BluRay.x264.8bit.SDR.DTS-HD.MA.TrueHD.7.1.Atmos-SWTYBLZ 43.42GB-2.png 胡桃夹子和四个王国/胡桃夹子 The.Nutcracker.and.the.Four.Realms.2018.2160p.BluRay.x264.8bit.SDR.DTS-HD.MA.TrueHD.7.1.Atmos-SWTYBLZ 43.42GB-3.png 胡桃夹子和四个王国/胡桃夹子 The.Nutcracker.and.the.Four.Realms.2018.2160p.BluRay.x264.8bit.SDR.DTS-HD.MA.TrueHD.7.1.Atmos-SWTYBLZ 43.42GB-4.png 胡桃夹子和四个王国/胡桃夹子 The.Nutcracker.and.the.Four.Realms.2018.2160p.BluRay.x264.8bit.SDR.DTS-HD.MA.TrueHD.7.1.Atmos-SWTYBLZ 43.42GB-5.png 胡桃夹子和四个王国/胡桃夹子 The.Nutcracker.and.the.Four.Realms.2018.2160p.BluRay.x264.8bit.SDR.DTS-HD.MA.TrueHD.7.1.Atmos-SWTYBLZ 43.42GB-6.png 胡桃夹子和四个王国/胡桃夹子 The.Nutcracker.and.the.Four.Realms.2018.2160p.BluRay.x264.8bit.SDR.DTS-HD.MA.TrueHD.7.1.Atmos-SWTYBLZ 43.42GB-7.png





    The.Nutcracker.and.the.Four.Realms.2018.2160p.BluRay.x264.8bit.SDR.DTS-HD.MA.Tru.torrent (109.24 KB, 下载次数: 399)
    开通VIP免费下载本站所有资源---点这里
    新手必看:资源下载、资源播放、字幕使用、等常见问题---点这里
    回复

    使用道具 举报

  • TA的每日心情
    奋斗
    5 天前
  • 签到天数: 104 天

    [LV.6]常住居民II

    发表于 2019-1-25 10:27:57 | 显示全部楼层
    楼主发贴辛苦了,谢谢楼主分享!我觉得蓝光电影网是注册对了!
    开通VIP免费下载本站所有资源---点这里
    新手必看:资源下载、资源播放、字幕使用、等常见问题---点这里
    回复 支持 反对

    使用道具 举报

  • TA的每日心情
    郁闷
    2019-1-25 11:53
  • 签到天数: 1 天

    [LV.1]初来乍到

    发表于 2019-1-25 11:54:22 | 显示全部楼层
    这是atmos的吗?
    [发帖际遇]: sunnos 发帖时在路边捡到 1 蓝光币,偷偷放进了口袋. 幸运榜 / 衰神榜
    开通VIP免费下载本站所有资源---点这里
    新手必看:资源下载、资源播放、字幕使用、等常见问题---点这里
    回复 支持 反对

    使用道具 举报

  • TA的每日心情
    慵懒
    2019-3-17 10:06
  • 签到天数: 42 天

    [LV.5]常住居民I

    发表于 2019-1-25 14:19:13 | 显示全部楼层
    这家伙好快啊,4K的版本就出来了
    开通VIP免费下载本站所有资源---点这里
    新手必看:资源下载、资源播放、字幕使用、等常见问题---点这里
    回复 支持 反对

    使用道具 举报

  • TA的每日心情
    慵懒
    2019-3-17 10:06
  • 签到天数: 42 天

    [LV.5]常住居民I

    发表于 2019-1-25 14:21:16 | 显示全部楼层

    这东西我收了!谢谢楼主!蓝光电影网真好!
    开通VIP免费下载本站所有资源---点这里
    新手必看:资源下载、资源播放、字幕使用、等常见问题---点这里
    回复 支持 反对

    使用道具 举报

  • TA的每日心情
    无聊
    2019-3-30 14:00
  • 签到天数: 6 天

    [LV.2]偶尔看看I

    发表于 2019-1-25 16:51:52 | 显示全部楼层
    感谢分享
    [发帖际遇]: L.chen 发帖时在路边捡到 2 蓝光币,偷偷放进了口袋. 幸运榜 / 衰神榜
    开通VIP免费下载本站所有资源---点这里
    新手必看:资源下载、资源播放、字幕使用、等常见问题---点这里
    回复

    使用道具 举报

    该用户从未签到

    发表于 2019-1-25 17:31:27 | 显示全部楼层
    好好好好好好
    开通VIP免费下载本站所有资源---点这里
    新手必看:资源下载、资源播放、字幕使用、等常见问题---点这里
    回复 支持 反对

    使用道具 举报

  • TA的每日心情
    无聊
    4 小时前
  • 签到天数: 114 天

    [LV.6]常住居民II

    发表于 2019-1-25 20:03:44 | 显示全部楼层
    开通VIP免费下载本站所有资源---点这里
    新手必看:资源下载、资源播放、字幕使用、等常见问题---点这里
    回复

    使用道具 举报

  • TA的每日心情
    开心
    前天 19:15
  • 签到天数: 47 天

    [LV.5]常住居民I

    发表于 2019-1-25 20:14:55 | 显示全部楼层
    楼主发贴辛苦了,谢谢楼主分享!我觉得蓝光电影网是注册对了!
    开通VIP免费下载本站所有资源---点这里
    新手必看:资源下载、资源播放、字幕使用、等常见问题---点这里
    回复 支持 反对

    使用道具 举报

  • TA的每日心情
    无聊
    昨天 00:03
  • 签到天数: 45 天

    [LV.5]常住居民I

    发表于 2019-1-25 20:19:05 | 显示全部楼层
    感谢楼主分享
    开通VIP免费下载本站所有资源---点这里
    新手必看:资源下载、资源播放、字幕使用、等常见问题---点这里
    回复 支持 反对

    使用道具 举报

    *滑动验证:
    懒得打字嘛,点击右侧快捷回复 【右侧内容,后台自定义】
    您需要登录后才可以回帖 登录 | 立即加入

    本版积分规则

    现在加入蓝光电影网,注册一个账号

    QQ| 手机版|小黑屋| 蓝光电影网 |网站地图

    Copyright © 20013-2018 Comsenz Inc.  Template by 蓝光电影论坛 All Rights Reserved.

    Powered by 高清电影网 X3.4
    特别声明:本站所有资源均由网上收集而来,版权归原影音公司所有,如果侵犯了你的权益,请通知我们,我们会及时删除侵权内容.

    快速回复 返回顶部 返回列表