找回密码

蓝光电影网

查看: 1906|回复: 49

[10bit.HDR] 胡桃夹子和四个王国/胡桃夹子 The.Nutcracker.and.the.Four.Realms.2018.2160p.BluRay.x265.10bit.HDR.DTS-HD.MA.TrueHD.7.1.Atmos-SWTYBLZ 22.26GB

[复制链接]

 成长值: 21865

发表于 2019-1-25 10:25:56 | 显示全部楼层 |阅读模式
胡桃夹子和四个王国/胡桃夹子 The.Nutcracker.and.the.Four.Realms.2018.2160p.BluRay.x265.10bit.HDR.DTS-HD.MA.TrueHD.7.1.Atmos-SWTYBLZ 22.26GB-1.jpg
◎译  名 胡桃夹子和四个王国 / 胡桃夹子(港) / 胡桃钳与奇幻四国(台) / 胡桃夹子真人版
◎片  名 胡桃夹子和四个王国 The Nutcracker And The Four Realms
◎年  代 2018
◎国  家 美国
◎类  别 奇幻 / 冒险
◎语  言 英语
◎上映日期 2018-11-02(中国大陆/美国)
◎IMDb评分  5.5/10 from 10,980 users
◎IMDb链接  http://www.imdb.com/title/tt5523010/
◎豆瓣评分 6.1/10 from 32051 users
◎豆瓣链接 https://movie.douban.com/subject/26741061/
◎片  长 99分钟
◎导  演 拉斯·霍尔斯道姆 / 乔·庄斯顿
◎主  演 麦肯吉·弗依
      摩根·弗里曼
      凯拉·奈特莉
      马修·麦克费登
      海伦·米伦
      艾丽·巴姆博
      米兰达·哈特
      欧赫尼奥·德尔维斯
      杰克·怀特霍尔
      理查德·E·格兰特
      谢尔盖·波卢宁
      欧米德·吉亚李利
      梅拉·沙尔
      尼克·穆罕默德
      杰茜·维宁
      汤姆·斯威特
      马里安·洛伦西克
      芙洛·费拉科
      丽塔-麦克唐纳丹帕
      查尔斯·斯特里特

◎简  介 

  克拉拉一直在寻找一把钥匙——这把与众不同的钥匙将可以开启已故母亲装有无价之宝的盒子。在教父德罗塞尔梅耶举办的一次节日聚会上,一根金线指引着她找到了这把梦寐以求的钥匙,却在瞬间消失进入一个陌生而神秘的平行世界。在平行世界里,克拉拉结识了士兵菲利普、一群老鼠、以及分别掌管雪花王国、鲜花王国、糖果王国的三位国王。克拉拉和菲利普必须勇敢地接受第四位国王——暴君姜母的考验,才能够找回钥匙、并将和平重新带回这个摇摇欲坠的平行世界。

◎获奖情况 

  第46届动画安妮奖 (2019)
  最佳真人电影动画角色(提名)

  第21届美国服装设计工会奖 (2019)
  科幻/奇幻题材电影最佳服装设计(提名) 珍妮·碧万

  第39届伦敦影评人协会奖 (2019)
  年度英国/爱尔兰男演员(提名) 理查德·E·格兰特


  1. Video
  2. ID                                       : 1
  3. Format                                   : HEVC
  4. Format/Info                              : High Efficiency Video Coding
  5. Commercial name                          : HDR10
  6. Format profile                           : Main [url=/cdn-cgi/l/email-protection][email protected][/url]@High
  7. Codec ID                                 : V_MPEGH/ISO/HEVC
  8. Duration                                 : 1 h 39 min
  9. Bit rate                                 : 22.7 Mb/s
  10. Width                                    : 3 840 pixels
  11. Height                                   : 2 076 pixels
  12. Display aspect ratio                     : 1.85:1
  13. Frame rate mode                          : Constant
  14. Frame rate                               : 23.976 (24000/1001) FPS
  15. Color space                              : YUV
  16. Chroma subsampling                       : 4:2:0 (Type 2)
  17. Bit depth                                : 10 bits
  18. Bits/(Pixel*Frame)                       : 0.119
  19. Stream size                              : 15.7 GiB (71%)
  20. Title                                    : The.Nutcracker.and.the.Four.Realms.2018.2160p.BluRay.x265.10bit.HDR.DTS-HD.MA.TrueHD.7.1.Atmos-SWTYBLZ
  21. Writing library                          : x265 3.0_RC+7-0614145ecaf2:[Windows][GCC 8.2.1][64 bit] 10bit
  22. Encoding settings                        : cpuid=1111039 / frame-threads=16 / numa-pools=24,24,24,24 / wpp / no-pmode / no-pme / no-psnr / no-ssim / log-level=2 / input-csp=1 / input-res=3840x2076 / interlace=0 / total-frames=0 / level-idc=51 / high-tier=1 / uhd-bd=0 / ref=3 / no-allow-non-conformance / repeat-headers / annexb / aud / hrd / info / hash=0 / no-temporal-layers / no-open-gop / min-keyint=1 / keyint=24 / gop-lookahead=0 / bframes=4 / b-adapt=2 / b-pyramid / bframe-bias=0 / rc-lookahead=25 / lookahead-slices=4 / scenecut=40 / radl=0 / no-splice / no-intra-refresh / ctu=64 / min-cu-size=8 / no-rect / no-amp / max-tu-size=32 / tu-inter-depth=1 / tu-intra-depth=1 / limit-tu=0 / rdoq-level=0 / dynamic-rd=0.00 / no-ssim-rd / signhide / no-tskip / nr-intra=0 / nr-inter=0 / no-constrained-intra / strong-intra-smoothing / max-merge=2 / limit-refs=3 / no-limit-modes / me=1 / subme=2 / merange=57 / temporal-mvp / weightp / no-weightb / no-analyze-src-pics / deblock=0:0 / no-sao / no-sao-non-deblock / rd=3 / no-early-skip / rskip / no-fast-intra / no-tskip-fast / no-cu-lossless / no-b-intra / no-splitrd-skip / rdpenalty=0 / psy-rd=2.00 / psy-rdoq=0.00 / no-rd-refine / no-lossless / cbqpoffs=0 / crqpoffs=0 / rc=crf / crf=16.0 / qcomp=0.60 / qpstep=4 / stats-write=0 / stats-read=0 / vbv-maxrate=160000 / vbv-bufsize=160000 / vbv-init=0.9 / crf-max=0.0 / crf-min=0.0 / ipratio=1.40 / pbratio=1.30 / aq-mode=1 / aq-strength=1.00 / cutree / zone-count=0 / no-strict-cbr / qg-size=32 / no-rc-grain / qpmax=69 / qpmin=0 / no-const-vbv / sar=1 / overscan=0 / videoformat=5 / range=0 / colorprim=9 / transfer=16 / colormatrix=9 / chromaloc=1 / chromaloc-top=2 / chromaloc-bottom=2 / display-window=0 / master-display=G(13250,34500)B(7500,3000)R(34000,16000)WP(15635,16450)L(40000000,50) / max-cll=183,149 / min-luma=0 / max-luma=1023 / log2-max-poc-lsb=8 / vui-timing-info / vui-hrd-info / slices=1 / opt-qp-pps / opt-ref-list-length-pps / no-multi-pass-opt-rps / scenecut-bias=0.05 / no-opt-cu-delta-qp / no-aq-motion / hdr / hdr-opt / no-dhdr10-opt / no-idr-recovery-sei / analysis-reuse-level=5 / scale-factor=0 / refine-intra=0 / refine-inter=0 / refine-mv=0 / refine-ctu-distortion=0 / no-limit-sao / ctu-info=0 / no-lowpass-dct / refine-analysis-type=0 / copy-pic=1 / max-ausize-factor=1.0 / no-dynamic-refine / no-single-sei / no-hevc-aq / qp-adaptation-range=1.00
  23. Default                                  : Yes
  24. Forced                                   : No
  25. Color range                              : Limited
  26. Color primaries                          : BT.2020
  27. Transfer characteristics                 : PQ
  28. Matrix coefficients                      : BT.2020 non-constant
  29. Mastering display color primaries        : Display P3
  30. Mastering display luminance              : min: 0.0050 cd/m2, max: 4000 cd/m2
  31. Maximum Content Light Level              : 183 cd/m2
  32. Maximum Frame-Average Light Level        : 149 cd/m2

  33. Audio #1
  34. ID                                       : 2
  35. Format                                   : MLP FBA 16-ch
  36. Format/Info                              : Meridian Lossless Packing FBA with 16-channel presentation
  37. Commercial name                          : Dolby TrueHD with Dolby Atmos
  38. Codec ID                                 : A_TRUEHD
  39. Duration                                 : 1 h 39 min
  40. Bit rate mode                            : Variable
  41. Bit rate                                 : 4 942 kb/s
  42. Maximum bit rate                         : 7 977 kb/s
  43. Channel(s)                               : 8 channels
  44. Channel layout                           : L R C LFE Ls Rs Lb Rb
  45. Sampling rate                            : 48.0 kHz
  46. Frame rate                               : 1 200.000 FPS (40 SPF)
  47. Compression mode                         : Lossless
  48. Delay relative to video                  : 15 ms
  49. Stream size                              : 3.43 GiB (15%)
  50. Title                                    : The.Nutcracker.and.the.Four.Realms.2018.2160p.BluRay.x265.10bit.HDR.DTS-HD.MA.TrueHD.7.1.Atmos-SWTYBLZ
  51. Language                                 : English
  52. Default                                  : Yes
  53. Forced                                   : No
  54. Number of dynamic objects                : 13
  55. Bed channel count                        : 1 channel
  56. Bed channel configuration                : LFE

  57. Audio #2
  58. ID                                       : 3
  59. Format                                   : DTS XLL
  60. Format/Info                              : Digital Theater Systems
  61. Commercial name                          : DTS-HD Master Audio
  62. Codec ID                                 : A_DTS
  63. Duration                                 : 1 h 39 min
  64. Bit rate mode                            : Variable
  65. Bit rate                                 : 3 490 kb/s
  66. Channel(s)                               : 8 channels
  67. Channel layout                           : C L R LFE Lb Rb Lss Rss
  68. Sampling rate                            : 48.0 kHz
  69. Frame rate                               : 93.750 FPS (512 SPF)
  70. Bit depth                                : 24 bits
  71. Compression mode                         : Lossless
  72. Stream size                              : 2.42 GiB (11%)
  73. Title                                    : The.Nutcracker.and.the.Four.Realms.2018.2160p.BluRay.x265.10bit.HDR.DTS-HD.MA.TrueHD.7.1.Atmos-SWTYBLZ
  74. Language                                 : English
  75. Default                                  : No
  76. Forced                                   : No

  77. Audio #3
  78. ID                                       : 4
  79. Format                                   : AC-3
  80. Format/Info                              : Audio Coding 3
  81. Commercial name                          : Dolby Digital
  82. Codec ID                                 : A_AC3
  83. Duration                                 : 1 h 39 min
  84. Bit rate mode                            : Constant
  85. Bit rate                                 : 640 kb/s
  86. Channel(s)                               : 6 channels
  87. Channel layout                           : L R C LFE Ls Rs
  88. Sampling rate                            : 48.0 kHz
  89. Frame rate                               : 31.250 FPS (1536 SPF)
  90. Bit depth                                : 16 bits
  91. Compression mode                         : Lossy
  92. Delay relative to video                  : 15 ms
  93. Stream size                              : 454 MiB (2%)
  94. Title                                    : The.Nutcracker.and.the.Four.Realms.2018.2160p.BluRay.x265.10bit.HDR.DTS-HD.MA.TrueHD.7.1.Atmos-SWTYBLZ
  95. Language                                 : English
  96. Service kind                             : Complete Main
  97. Default                                  : No
  98. Forced                                   : No

  99. Text #1
  100. ID                                       : 5
  101. Format                                   : UTF-8
  102. Codec ID                                 : S_TEXT/UTF8
  103. Codec ID/Info                            : UTF-8 Plain Text
  104. Duration                                 : 1 h 27 min
  105. Bit rate                                 : 43 b/s
  106. Count of elements                        : 1098
  107. Stream size                              : 27.7 KiB (0%)
  108. Title                                    : English-SRT
  109. Language                                 : English
  110. Default                                  : Yes
  111. Forced                                   : No

  112. Text #2
  113. ID                                       : 6
  114. Format                                   : UTF-8
  115. Codec ID                                 : S_TEXT/UTF8
  116. Codec ID/Info                            : UTF-8 Plain Text
  117. Duration                                 : 1 h 36 min
  118. Bit rate                                 : 45 b/s
  119. Count of elements                        : 1340
  120. Stream size                              : 32.4 KiB (0%)
  121. Title                                    : English-SDH-SRT
  122. Language                                 : English
  123. Default                                  : No
  124. Forced                                   : No

  125. Text #3
  126. ID                                       : 7
  127. Format                                   : PGS
  128. Muxing mode                              : zlib
  129. Codec ID                                 : S_HDMV/PGS
  130. Codec ID/Info                            : Picture based subtitle format used on BDs/HD-DVDs
  131. Duration                                 : 1 h 36 min
  132. Bit rate                                 : 36.7 kb/s
  133. Count of elements                        : 2686
  134. Stream size                              : 25.4 MiB (0%)
  135. Title                                    : English-PGS
  136. Language                                 : English
  137. Default                                  : No
  138. Forced                                   : No

  139. Text #4
  140. ID                                       : 8
  141. Format                                   : PGS
  142. Muxing mode                              : zlib
  143. Codec ID                                 : S_HDMV/PGS
  144. Codec ID/Info                            : Picture based subtitle format used on BDs/HD-DVDs
  145. Duration                                 : 1 h 31 min
  146. Bit rate                                 : 32.2 kb/s
  147. Count of elements                        : 2132
  148. Stream size                              : 21.0 MiB (0%)
  149. Title                                    : French-PGS
  150. Language                                 : French
  151. Default                                  : No
  152. Forced                                   : No

  153. Text #5
  154. ID                                       : 9
  155. Format                                   : PGS
  156. Muxing mode                              : zlib
  157. Codec ID                                 : S_HDMV/PGS
  158. Codec ID/Info                            : Picture based subtitle format used on BDs/HD-DVDs
  159. Duration                                 : 1 h 31 min
  160. Bit rate                                 : 30.1 kb/s
  161. Count of elements                        : 2084
  162. Stream size                              : 19.7 MiB (0%)
  163. Title                                    : Spanish-PGS
  164. Language                                 : Spanish
  165. Default                                  : No
  166. Forced                                   : No

  167. Menu
  168. 00:00:00.000                             : :Chapter 1
  169. 00:08:39.101                             : :Chapter 2
  170. 00:16:47.256                             : :Chapter 3
  171. 00:25:37.744                             : :Chapter 4
  172. 00:34:20.892                             : :Chapter 5
  173. 00:43:28.397                             : :Chapter 6
  174. 00:48:31.992                             : :Chapter 7
  175. 00:56:07.655                             : :Chapter 8
  176. 00:59:09.546                             : :Chapter 9
  177. 01:04:57.310                             : :Chapter 10
  178. 01:11:49.722                             : :Chapter 11
  179. 01:18:10.519                             : :Chapter 12
  180. 01:22:04.002                             : :Chapter 13
  181. 01:30:06.275                             : :Chapter 14
复制代码

复制代码

胡桃夹子和四个王国/胡桃夹子 The.Nutcracker.and.the.Four.Realms.2018.2160p.BluRay.x265.10bit.HDR.DTS-HD.MA.TrueHD.7.1.Atmos-SWTYBLZ 22.26GB-2.png 胡桃夹子和四个王国/胡桃夹子 The.Nutcracker.and.the.Four.Realms.2018.2160p.BluRay.x265.10bit.HDR.DTS-HD.MA.TrueHD.7.1.Atmos-SWTYBLZ 22.26GB-3.png 胡桃夹子和四个王国/胡桃夹子 The.Nutcracker.and.the.Four.Realms.2018.2160p.BluRay.x265.10bit.HDR.DTS-HD.MA.TrueHD.7.1.Atmos-SWTYBLZ 22.26GB-4.png 胡桃夹子和四个王国/胡桃夹子 The.Nutcracker.and.the.Four.Realms.2018.2160p.BluRay.x265.10bit.HDR.DTS-HD.MA.TrueHD.7.1.Atmos-SWTYBLZ 22.26GB-5.png 胡桃夹子和四个王国/胡桃夹子 The.Nutcracker.and.the.Four.Realms.2018.2160p.BluRay.x265.10bit.HDR.DTS-HD.MA.TrueHD.7.1.Atmos-SWTYBLZ 22.26GB-6.png 胡桃夹子和四个王国/胡桃夹子 The.Nutcracker.and.the.Four.Realms.2018.2160p.BluRay.x265.10bit.HDR.DTS-HD.MA.TrueHD.7.1.Atmos-SWTYBLZ 22.26GB-7.png





开通VIP免费下载本站所有资源---点这里
新手必看:资源下载、资源播放、字幕使用、等常见问题---点这里
回复

使用道具 举报

发表于 2019-1-25 11:45:09 | 显示全部楼层
谢楼主分享资源。
开通VIP免费下载本站所有资源---点这里
新手必看:资源下载、资源播放、字幕使用、等常见问题---点这里
回复 支持 反对

使用道具 举报

发表于 2019-1-25 15:39:57 | 显示全部楼层
终于等到这个资源了
开通VIP免费下载本站所有资源---点这里
新手必看:资源下载、资源播放、字幕使用、等常见问题---点这里
回复 支持 反对

使用道具 举报

发表于 2019-1-25 16:59:59 | 显示全部楼层
谢楼主分享资源。
开通VIP免费下载本站所有资源---点这里
新手必看:资源下载、资源播放、字幕使用、等常见问题---点这里
回复 支持 反对

使用道具 举报

已抛锚 成长值: 250

发表于 2019-1-25 17:14:17 | 显示全部楼层
楼主发贴辛苦了,谢谢楼主分享!我觉得蓝光电影网是注册对了!
开通VIP免费下载本站所有资源---点这里
新手必看:资源下载、资源播放、字幕使用、等常见问题---点这里
回复 支持 反对

使用道具 举报

发表于 2019-1-25 20:05:04 | 显示全部楼层
楼主发贴辛苦了,谢谢楼主分享!我觉得蓝光电影网是注册对了!
开通VIP免费下载本站所有资源---点这里
新手必看:资源下载、资源播放、字幕使用、等常见问题---点这里
回复 支持 反对

使用道具 举报

发表于 2019-1-26 00:13:06 | 显示全部楼层
谢谢楼主的分享
开通VIP免费下载本站所有资源---点这里
新手必看:资源下载、资源播放、字幕使用、等常见问题---点这里
回复 支持 反对

使用道具 举报

发表于 2019-1-26 08:52:50 | 显示全部楼层

这个帖子不回对不起自己!我想我是一天也不能离开蓝光电影网
开通VIP免费下载本站所有资源---点这里
新手必看:资源下载、资源播放、字幕使用、等常见问题---点这里
回复 支持 反对

使用道具 举报

发表于 2019-1-26 11:06:30 | 显示全部楼层
6.1分也很不错了,
开通VIP免费下载本站所有资源---点这里
新手必看:资源下载、资源播放、字幕使用、等常见问题---点这里
回复 支持 反对

使用道具 举报

发表于 2019-1-26 13:06:36 | 显示全部楼层

楼主,大恩不言谢了!蓝光电影网是最棒的!
开通VIP免费下载本站所有资源---点这里
新手必看:资源下载、资源播放、字幕使用、等常见问题---点这里
回复 支持 反对

使用道具 举报

懒得打字嘛,点击右侧快捷回复 【右侧内容,后台自定义】
您需要登录后才可以回帖 登录 | 立即加入

本版积分规则

现在加入蓝光电影网,注册一个账号

QQ| 手机版|小黑屋| 蓝光电影网 |网站地图

Copyright © 2015-2019 Comsenz Inc.  Template by 蓝光电影网 All Rights Reserved.

Powered by 蓝光电影网 X3.4

特别声明:本站所有资源均由网上收集而来,版权归原影音公司所有,如果侵犯了你的权益,请通知我们,我们会及时删除侵权内容.

快速回复 返回顶部 返回列表