找回密码

蓝光电影网

查看: 1122|回复: 46

胡桃夹子和四个王国/胡桃夹子 The.Nutcracker.and.the.Four.Realms.2018.2160p.BluRay.x265.10bit.HDR.DTS-HD.MA.TrueHD.7.1.Atmos-SWTYBLZ 22.26GB

[复制链接]
  • TA的每日心情
    开心
    昨天 09:21
  • 签到天数: 92 天

    [LV.6]常住居民II

     成长值: 19195

    发表于 2019-1-25 10:25:56 | 显示全部楼层 |阅读模式

    马上注册,获取最新影视资讯,享用更多功能,让你轻松玩转蓝光电影网。

    您需要 登录 才可以下载或查看,没有帐号?立即加入

    x

    胡桃夹子和四个王国/胡桃夹子 The.Nutcracker.and.the.Four.Realms.2018.2160p.BluRay.x265.10bit.HDR.DTS-HD.MA.TrueHD.7.1.Atmos-SWTYBLZ 22.26GB-1.jpg
    ◎译  名 胡桃夹子和四个王国 / 胡桃夹子(港) / 胡桃钳与奇幻四国(台) / 胡桃夹子真人版
    ◎片  名 胡桃夹子和四个王国 The Nutcracker And The Four Realms
    ◎年  代 2018
    ◎国  家 美国
    ◎类  别 奇幻 / 冒险
    ◎语  言 英语
    ◎上映日期 2018-11-02(中国大陆/美国)
    ◎IMDb评分  5.5/10 from 10,980 users
    ◎IMDb链接  http://www.imdb.com/title/tt5523010/
    ◎豆瓣评分 6.1/10 from 32051 users
    ◎豆瓣链接 https://movie.douban.com/subject/26741061/
    ◎片  长 99分钟
    ◎导  演 拉斯·霍尔斯道姆 / 乔·庄斯顿
    ◎主  演 麦肯吉·弗依
          摩根·弗里曼
          凯拉·奈特莉
          马修·麦克费登
          海伦·米伦
          艾丽·巴姆博
          米兰达·哈特
          欧赫尼奥·德尔维斯
          杰克·怀特霍尔
          理查德·E·格兰特
          谢尔盖·波卢宁
          欧米德·吉亚李利
          梅拉·沙尔
          尼克·穆罕默德
          杰茜·维宁
          汤姆·斯威特
          马里安·洛伦西克
          芙洛·费拉科
          丽塔-麦克唐纳丹帕
          查尔斯·斯特里特

    ◎简  介 

      克拉拉一直在寻找一把钥匙——这把与众不同的钥匙将可以开启已故母亲装有无价之宝的盒子。在教父德罗塞尔梅耶举办的一次节日聚会上,一根金线指引着她找到了这把梦寐以求的钥匙,却在瞬间消失进入一个陌生而神秘的平行世界。在平行世界里,克拉拉结识了士兵菲利普、一群老鼠、以及分别掌管雪花王国、鲜花王国、糖果王国的三位国王。克拉拉和菲利普必须勇敢地接受第四位国王——暴君姜母的考验,才能够找回钥匙、并将和平重新带回这个摇摇欲坠的平行世界。

    ◎获奖情况 

      第46届动画安妮奖 (2019)
      最佳真人电影动画角色(提名)

      第21届美国服装设计工会奖 (2019)
      科幻/奇幻题材电影最佳服装设计(提名) 珍妮·碧万

      第39届伦敦影评人协会奖 (2019)
      年度英国/爱尔兰男演员(提名) 理查德·E·格兰特

    • Video
    • ID                                       : 1
    • Format                                   : HEVC
    • Format/Info                              : High Efficiency Video Coding
    • Commercial name                          : HDR10
    • Format profile                           : Main [email protected]@High
    • Codec ID                                 : V_MPEGH/ISO/HEVC
    • Duration                                 : 1 h 39 min
    • Bit rate                                 : 22.7 Mb/s
    • Width                                    : 3 840 pixels
    • Height                                   : 2 076 pixels
    • Display aspect ratio                     : 1.85:1
    • Frame rate mode                          : Constant
    • Frame rate                               : 23.976 (24000/1001) FPS
    • Color space                              : YUV
    • Chroma subsampling                       : 4:2:0 (Type 2)
    • Bit depth                                : 10 bits
    • Bits/(Pixel*Frame)                       : 0.119
    • Stream size                              : 15.7 GiB (71%)
    • Title                                    : The.Nutcracker.and.the.Four.Realms.2018.2160p.BluRay.x265.10bit.HDR.DTS-HD.MA.TrueHD.7.1.Atmos-SWTYBLZ
    • Writing library                          : x265 3.0_RC+7-0614145ecaf2:[Windows][GCC 8.2.1][64 bit] 10bit
    • Encoding settings                        : cpuid=1111039 / frame-threads=16 / numa-pools=24,24,24,24 / wpp / no-pmode / no-pme / no-psnr / no-ssim / log-level=2 / input-csp=1 / input-res=3840x2076 / interlace=0 / total-frames=0 / level-idc=51 / high-tier=1 / uhd-bd=0 / ref=3 / no-allow-non-conformance / repeat-headers / annexb / aud / hrd / info / hash=0 / no-temporal-layers / no-open-gop / min-keyint=1 / keyint=24 / gop-lookahead=0 / bframes=4 / b-adapt=2 / b-pyramid / bframe-bias=0 / rc-lookahead=25 / lookahead-slices=4 / scenecut=40 / radl=0 / no-splice / no-intra-refresh / ctu=64 / min-cu-size=8 / no-rect / no-amp / max-tu-size=32 / tu-inter-depth=1 / tu-intra-depth=1 / limit-tu=0 / rdoq-level=0 / dynamic-rd=0.00 / no-ssim-rd / signhide / no-tskip / nr-intra=0 / nr-inter=0 / no-constrained-intra / strong-intra-smoothing / max-merge=2 / limit-refs=3 / no-limit-modes / me=1 / subme=2 / merange=57 / temporal-mvp / weightp / no-weightb / no-analyze-src-pics / deblock=0:0 / no-sao / no-sao-non-deblock / rd=3 / no-early-skip / rskip / no-fast-intra / no-tskip-fast / no-cu-lossless / no-b-intra / no-splitrd-skip / rdpenalty=0 / psy-rd=2.00 / psy-rdoq=0.00 / no-rd-refine / no-lossless / cbqpoffs=0 / crqpoffs=0 / rc=crf / crf=16.0 / qcomp=0.60 / qpstep=4 / stats-write=0 / stats-read=0 / vbv-maxrate=160000 / vbv-bufsize=160000 / vbv-init=0.9 / crf-max=0.0 / crf-min=0.0 / ipratio=1.40 / pbratio=1.30 / aq-mode=1 / aq-strength=1.00 / cutree / zone-count=0 / no-strict-cbr / qg-size=32 / no-rc-grain / qpmax=69 / qpmin=0 / no-const-vbv / sar=1 / overscan=0 / videoformat=5 / range=0 / colorprim=9 / transfer=16 / colormatrix=9 / chromaloc=1 / chromaloc-top=2 / chromaloc-bottom=2 / display-window=0 / master-display=G(13250,34500)B(7500,3000)R(34000,16000)WP(15635,16450)L(40000000,50) / max-cll=183,149 / min-luma=0 / max-luma=1023 / log2-max-poc-lsb=8 / vui-timing-info / vui-hrd-info / slices=1 / opt-qp-pps / opt-ref-list-length-pps / no-multi-pass-opt-rps / scenecut-bias=0.05 / no-opt-cu-delta-qp / no-aq-motion / hdr / hdr-opt / no-dhdr10-opt / no-idr-recovery-sei / analysis-reuse-level=5 / scale-factor=0 / refine-intra=0 / refine-inter=0 / refine-mv=0 / refine-ctu-distortion=0 / no-limit-sao / ctu-info=0 / no-lowpass-dct / refine-analysis-type=0 / copy-pic=1 / max-ausize-factor=1.0 / no-dynamic-refine / no-single-sei / no-hevc-aq / qp-adaptation-range=1.00
    • Default                                  : Yes
    • Forced                                   : No
    • Color range                              : Limited
    • Color primaries                          : BT.2020
    • Transfer characteristics                 : PQ
    • Matrix coefficients                      : BT.2020 non-constant
    • Mastering display color primaries        : Display P3
    • Mastering display luminance              : min: 0.0050 cd/m2, max: 4000 cd/m2
    • Maximum Content Light Level              : 183 cd/m2
    • Maximum Frame-Average Light Level        : 149 cd/m2
    • Audio #1
    • ID                                       : 2
    • Format                                   : MLP FBA 16-ch
    • Format/Info                              : Meridian Lossless Packing FBA with 16-channel presentation
    • Commercial name                          : Dolby TrueHD with Dolby Atmos
    • Codec ID                                 : A_TRUEHD
    • Duration                                 : 1 h 39 min
    • Bit rate mode                            : Variable
    • Bit rate                                 : 4 942 kb/s
    • Maximum bit rate                         : 7 977 kb/s
    • Channel(s)                               : 8 channels
    • Channel layout                           : L R C LFE Ls Rs Lb Rb
    • Sampling rate                            : 48.0 kHz
    • Frame rate                               : 1 200.000 FPS (40 SPF)
    • Compression mode                         : Lossless
    • Delay relative to video                  : 15 ms
    • Stream size                              : 3.43 GiB (15%)
    • Title                                    : The.Nutcracker.and.the.Four.Realms.2018.2160p.BluRay.x265.10bit.HDR.DTS-HD.MA.TrueHD.7.1.Atmos-SWTYBLZ
    • Language                                 : English
    • Default                                  : Yes
    • Forced                                   : No
    • Number of dynamic objects                : 13
    • Bed channel count                        : 1 channel
    • Bed channel configuration                : LFE
    • Audio #2
    • ID                                       : 3
    • Format                                   : DTS XLL
    • Format/Info                              : Digital Theater Systems
    • Commercial name                          : DTS-HD Master Audio
    • Codec ID                                 : A_DTS
    • Duration                                 : 1 h 39 min
    • Bit rate mode                            : Variable
    • Bit rate                                 : 3 490 kb/s
    • Channel(s)                               : 8 channels
    • Channel layout                           : C L R LFE Lb Rb Lss Rss
    • Sampling rate                            : 48.0 kHz
    • Frame rate                               : 93.750 FPS (512 SPF)
    • Bit depth                                : 24 bits
    • Compression mode                         : Lossless
    • Stream size                              : 2.42 GiB (11%)
    • Title                                    : The.Nutcracker.and.the.Four.Realms.2018.2160p.BluRay.x265.10bit.HDR.DTS-HD.MA.TrueHD.7.1.Atmos-SWTYBLZ
    • Language                                 : English
    • Default                                  : No
    • Forced                                   : No
    • Audio #3
    • ID                                       : 4
    • Format                                   : AC-3
    • Format/Info                              : Audio Coding 3
    • Commercial name                          : Dolby Digital
    • Codec ID                                 : A_AC3
    • Duration                                 : 1 h 39 min
    • Bit rate mode                            : Constant
    • Bit rate                                 : 640 kb/s
    • Channel(s)                               : 6 channels
    • Channel layout                           : L R C LFE Ls Rs
    • Sampling rate                            : 48.0 kHz
    • Frame rate                               : 31.250 FPS (1536 SPF)
    • Bit depth                                : 16 bits
    • Compression mode                         : Lossy
    • Delay relative to video                  : 15 ms
    • Stream size                              : 454 MiB (2%)
    • Title                                    : The.Nutcracker.and.the.Four.Realms.2018.2160p.BluRay.x265.10bit.HDR.DTS-HD.MA.TrueHD.7.1.Atmos-SWTYBLZ
    • Language                                 : English
    • Service kind                             : Complete Main
    • Default                                  : No
    • Forced                                   : No
    • Text #1
    • ID                                       : 5
    • Format                                   : UTF-8
    • Codec ID                                 : S_TEXT/UTF8
    • Codec ID/Info                            : UTF-8 Plain Text
    • Duration                                 : 1 h 27 min
    • Bit rate                                 : 43 b/s
    • Count of elements                        : 1098
    • Stream size                              : 27.7 KiB (0%)
    • Title                                    : English-SRT
    • Language                                 : English
    • Default                                  : Yes
    • Forced                                   : No
    • Text #2
    • ID                                       : 6
    • Format                                   : UTF-8
    • Codec ID                                 : S_TEXT/UTF8
    • Codec ID/Info                            : UTF-8 Plain Text
    • Duration                                 : 1 h 36 min
    • Bit rate                                 : 45 b/s
    • Count of elements                        : 1340
    • Stream size                              : 32.4 KiB (0%)
    • Title                                    : English-SDH-SRT
    • Language                                 : English
    • Default                                  : No
    • Forced                                   : No
    • Text #3
    • ID                                       : 7
    • Format                                   : PGS
    • Muxing mode                              : zlib
    • Codec ID                                 : S_HDMV/PGS
    • Codec ID/Info                            : Picture based subtitle format used on BDs/HD-DVDs
    • Duration                                 : 1 h 36 min
    • Bit rate                                 : 36.7 kb/s
    • Count of elements                        : 2686
    • Stream size                              : 25.4 MiB (0%)
    • Title                                    : English-PGS
    • Language                                 : English
    • Default                                  : No
    • Forced                                   : No
    • Text #4
    • ID                                       : 8
    • Format                                   : PGS
    • Muxing mode                              : zlib
    • Codec ID                                 : S_HDMV/PGS
    • Codec ID/Info                            : Picture based subtitle format used on BDs/HD-DVDs
    • Duration                                 : 1 h 31 min
    • Bit rate                                 : 32.2 kb/s
    • Count of elements                        : 2132
    • Stream size                              : 21.0 MiB (0%)
    • Title                                    : French-PGS
    • Language                                 : French
    • Default                                  : No
    • Forced                                   : No
    • Text #5
    • ID                                       : 9
    • Format                                   : PGS
    • Muxing mode                              : zlib
    • Codec ID                                 : S_HDMV/PGS
    • Codec ID/Info                            : Picture based subtitle format used on BDs/HD-DVDs
    • Duration                                 : 1 h 31 min
    • Bit rate                                 : 30.1 kb/s
    • Count of elements                        : 2084
    • Stream size                              : 19.7 MiB (0%)
    • Title                                    : Spanish-PGS
    • Language                                 : Spanish
    • Default                                  : No
    • Forced                                   : No
    • Menu
    • 00:00:00.000                             : :Chapter 1
    • 00:08:39.101                             : :Chapter 2
    • 00:16:47.256                             : :Chapter 3
    • 00:25:37.744                             : :Chapter 4
    • 00:34:20.892                             : :Chapter 5
    • 00:43:28.397                             : :Chapter 6
    • 00:48:31.992                             : :Chapter 7
    • 00:56:07.655                             : :Chapter 8
    • 00:59:09.546                             : :Chapter 9
    • 01:04:57.310                             : :Chapter 10
    • 01:11:49.722                             : :Chapter 11
    • 01:18:10.519                             : :Chapter 12
    • 01:22:04.002                             : :Chapter 13
    • 01:30:06.275                             : :Chapter 14

    复制代码

    胡桃夹子和四个王国/胡桃夹子 The.Nutcracker.and.the.Four.Realms.2018.2160p.BluRay.x265.10bit.HDR.DTS-HD.MA.TrueHD.7.1.Atmos-SWTYBLZ 22.26GB-2.png 胡桃夹子和四个王国/胡桃夹子 The.Nutcracker.and.the.Four.Realms.2018.2160p.BluRay.x265.10bit.HDR.DTS-HD.MA.TrueHD.7.1.Atmos-SWTYBLZ 22.26GB-3.png 胡桃夹子和四个王国/胡桃夹子 The.Nutcracker.and.the.Four.Realms.2018.2160p.BluRay.x265.10bit.HDR.DTS-HD.MA.TrueHD.7.1.Atmos-SWTYBLZ 22.26GB-4.png 胡桃夹子和四个王国/胡桃夹子 The.Nutcracker.and.the.Four.Realms.2018.2160p.BluRay.x265.10bit.HDR.DTS-HD.MA.TrueHD.7.1.Atmos-SWTYBLZ 22.26GB-5.png 胡桃夹子和四个王国/胡桃夹子 The.Nutcracker.and.the.Four.Realms.2018.2160p.BluRay.x265.10bit.HDR.DTS-HD.MA.TrueHD.7.1.Atmos-SWTYBLZ 22.26GB-6.png 胡桃夹子和四个王国/胡桃夹子 The.Nutcracker.and.the.Four.Realms.2018.2160p.BluRay.x265.10bit.HDR.DTS-HD.MA.TrueHD.7.1.Atmos-SWTYBLZ 22.26GB-7.png





    The.Nutcracker.and.the.Four.Realms.2018.2160p.BluRay.x265.10bit.HDR.DTS-HD.MA.Tr.torrent (56.35 KB, 下载次数: 182)
    开通VIP免费下载本站所有资源---点这里
    新手必看:资源下载、资源播放、字幕使用、等常见问题---点这里
    回复

    使用道具 举报

  • TA的每日心情
    慵懒
    昨天 09:34
  • 签到天数: 36 天

    [LV.5]常住居民I

    发表于 2019-1-25 11:45:09 | 显示全部楼层
    谢楼主分享资源。
    开通VIP免费下载本站所有资源---点这里
    新手必看:资源下载、资源播放、字幕使用、等常见问题---点这里
    回复 支持 反对

    使用道具 举报

  • TA的每日心情
    擦汗
    2019-2-8 18:32
  • 签到天数: 3 天

    [LV.2]偶尔看看I

    发表于 2019-1-25 15:39:57 | 显示全部楼层
    终于等到这个资源了
    开通VIP免费下载本站所有资源---点这里
    新手必看:资源下载、资源播放、字幕使用、等常见问题---点这里
    回复 支持 反对

    使用道具 举报

  • TA的每日心情
    开心
    5 天前
  • 签到天数: 45 天

    [LV.5]常住居民I

    发表于 2019-1-25 16:59:59 | 显示全部楼层
    谢楼主分享资源。
    开通VIP免费下载本站所有资源---点这里
    新手必看:资源下载、资源播放、字幕使用、等常见问题---点这里
    回复 支持 反对

    使用道具 举报

  • TA的每日心情
    开心
    前天 11:18
  • 签到天数: 39 天

    [LV.5]常住居民I

    已抛锚 成长值: 310

    发表于 2019-1-25 17:14:17 | 显示全部楼层
    楼主发贴辛苦了,谢谢楼主分享!我觉得蓝光电影网是注册对了!
    开通VIP免费下载本站所有资源---点这里
    新手必看:资源下载、资源播放、字幕使用、等常见问题---点这里
    回复 支持 反对

    使用道具 举报

  • TA的每日心情
    郁闷
    昨天 07:06
  • 签到天数: 78 天

    [LV.6]常住居民II

    发表于 2019-1-25 20:05:04 | 显示全部楼层
    楼主发贴辛苦了,谢谢楼主分享!我觉得蓝光电影网是注册对了!
    开通VIP免费下载本站所有资源---点这里
    新手必看:资源下载、资源播放、字幕使用、等常见问题---点这里
    回复 支持 反对

    使用道具 举报

  • TA的每日心情
    开心
    昨天 08:46
  • 签到天数: 88 天

    [LV.6]常住居民II

    发表于 2019-1-26 00:13:06 | 显示全部楼层
    谢谢楼主的分享
    开通VIP免费下载本站所有资源---点这里
    新手必看:资源下载、资源播放、字幕使用、等常见问题---点这里
    回复 支持 反对

    使用道具 举报

  • TA的每日心情
    慵懒
    1 小时前
  • 签到天数: 85 天

    [LV.6]常住居民II

    发表于 2019-1-26 08:52:50 | 显示全部楼层

    这个帖子不回对不起自己!我想我是一天也不能离开蓝光电影网
    [发帖际遇]: 一个袋子砸在了 tsuigeng 头上,tsuigeng 赚了 1 蓝光币. 幸运榜 / 衰神榜
    开通VIP免费下载本站所有资源---点这里
    新手必看:资源下载、资源播放、字幕使用、等常见问题---点这里
    回复 支持 反对

    使用道具 举报

  • TA的每日心情
    开心
    昨天 08:09
  • 签到天数: 36 天

    [LV.5]常住居民I

    发表于 2019-1-26 11:06:30 | 显示全部楼层
    6.1分也很不错了,
    开通VIP免费下载本站所有资源---点这里
    新手必看:资源下载、资源播放、字幕使用、等常见问题---点这里
    回复 支持 反对

    使用道具 举报

  • TA的每日心情
    开心
    昨天 11:13
  • 签到天数: 81 天

    [LV.6]常住居民II

    发表于 2019-1-26 13:06:36 | 显示全部楼层

    楼主,大恩不言谢了!蓝光电影网是最棒的!
    开通VIP免费下载本站所有资源---点这里
    新手必看:资源下载、资源播放、字幕使用、等常见问题---点这里
    回复 支持 反对

    使用道具 举报

    懒得打字嘛,点击右侧快捷回复 【右侧内容,后台自定义】
    您需要登录后才可以回帖 登录 | 立即加入

    本版积分规则

    现在加入蓝光电影网,注册一个账号

    QQ| 手机版|小黑屋| 蓝光电影网 |网站地图

    Copyright © 20013-2018 Comsenz Inc.  Template by 蓝光电影论坛 All Rights Reserved.

    Powered by 高清电影网 X3.4
    特别声明:本站所有资源均由网上收集而来,版权归原影音公司所有,如果侵犯了你的权益,请通知我们,我们会及时删除侵权内容.

    快速回复 返回顶部 返回列表