找回密码

蓝光电影网

查看: 2792|回复: 86

冰海陷落/潜舰猎杀令 Hunter.Killer.2018.2160p.BluRay.x264.8bit.SDR.DTS-HD.MA.TrueHD.7.1.Atmos-SWTYBLZ 30.00GB

  [复制链接]
  • TA的每日心情
    开心
    昨天 09:21
  • 签到天数: 92 天

    [LV.6]常住居民II

     成长值: 19195

    发表于 2019-1-25 10:22:48 | 显示全部楼层 |阅读模式

    马上注册,获取最新影视资讯,享用更多功能,让你轻松玩转蓝光电影网。

    您需要 登录 才可以下载或查看,没有帐号?立即加入

    x
    冰海陷落/潜舰猎杀令 Hunter.Killer.2018.2160p.BluRay.x264.8bit.SDR.DTS-HD.MA.TrueHD.7.1.Atmos-SWTYBLZ 30.00GB-1.jpg
    ◎译  名 冰海陷落 / 潜舰猎杀令(台) / 猎人杀手
    ◎片  名 冰海陷落 Hunter Killer
    ◎年  代 2018
    ◎国  家 英国 / 中国大陆 / 美国
    ◎类  别 动作 / 战争
    ◎语  言 英语
    ◎上映日期 2018-10-26(美国)
    ◎IMDb评分  6.7/10 from 17,461 users
    ◎IMDb链接  http://www.imdb.com/title/tt1846589/
    ◎豆瓣评分 6.7/10 from 5424 users
    ◎豆瓣链接 https://movie.douban.com/subject/6538807/
    ◎片  长 122分钟
    ◎导  演 多诺万·玛什
    ◎主  演 杰拉德·巴特勒
          加里·奥德曼
          米哈伊尔·戈尔沃伊
          迈克尔·恩奎斯特
          科曼
          赞恩·霍尔茨
          迈克尔·特鲁科
          雷恩·麦帕林
          卡罗琳·古多尔
          泰勒·约翰·史密斯
          施恩·泰勒
          加布里埃尔·查瓦里亚
          柯斯莫·贾维斯
          西奥·巴克利姆比格斯
          卡特·麦金太尔
          迈克尔·吉普森
          威尔·阿滕伯勒
          伊戈尔·日日金
          琳达·卡德里尼

    ◎简  介 

      在《冰海陷落》中,一位初出茅庐的潜水艇舰长(杰拉德·巴特勒饰)将与一支美军海豹突击队联手营救被疯狂的将军绑架的俄国总统。

    • Video
    • ID                                       : 1
    • Format                                   : AVC
    • Format/Info                              : Advanced Video Codec
    • Format profile                           : [email protected]
    • Format settings                          : CABAC / 5 Ref Frames
    • Format settings, CABAC                   : Yes
    • Format settings, RefFrames               : 5 frames
    • Codec ID                                 : V_MPEG4/ISO/AVC
    • Duration                                 : 2 h 1 min
    • Bit rate                                 : 26.6 Mb/s
    • Width                                    : 3 840 pixels
    • Height                                   : 1 606 pixels
    • Display aspect ratio                     : 2.40:1
    • Frame rate mode                          : Constant
    • Frame rate                               : 23.976 (24000/1001) FPS
    • Color space                              : YUV
    • Chroma subsampling                       : 4:2:0
    • Bit depth                                : 8 bits
    • Scan type                                : Progressive
    • Bits/(Pixel*Frame)                       : 0.180
    • Stream size                              : 22.6 GiB (76%)
    • Title                                    : Hunter.Killer.2018.2160p.BluRay.x264.8bit.SDR.DTS-HD.MA.TrueHD.7.1.Atmos-SWTYBLZ
    • Writing library                          : x264 core 157 r2935 545de2f
    • Encoding settings                        : cabac=1 / ref=5 / deblock=1:-1:-1 / analyse=0x3:0x113 / me=umh / subme=10 / psy=1 / psy_rd=1.00:0.15 / mixed_ref=1 / me_range=48 / chroma_me=1 / trellis=2 / 8x8dct=1 / cqm=0 / deadzone=21,11 / fast_pskip=1 / chroma_qp_offset=-3 / threads=48 / lookahead_threads=4 / sliced_threads=0 / nr=0 / decimate=0 / interlaced=0 / bluray_compat=0 / constrained_intra=0 / bframes=3 / b_pyramid=2 / b_adapt=2 / b_bias=0 / direct=3 / weightb=1 / open_gop=0 / weightp=2 / keyint=250 / keyint_min=23 / scenecut=40 / intra_refresh=0 / rc_lookahead=50 / rc=crf / mbtree=1 / crf=18.0 / qcomp=0.60 / qpmin=0 / qpmax=69 / qpstep=4 / ip_ratio=1.40 / aq=1:1.00
    • Default                                  : Yes
    • Forced                                   : No
    • Audio #1
    • ID                                       : 2
    • Format                                   : MLP FBA 16-ch
    • Format/Info                              : Meridian Lossless Packing FBA with 16-channel presentation
    • Commercial name                          : Dolby TrueHD with Dolby Atmos
    • Codec ID                                 : A_TRUEHD
    • Duration                                 : 2 h 1 min
    • Bit rate mode                            : Variable
    • Bit rate                                 : 3 556 kb/s
    • Maximum bit rate                         : 6 573 kb/s
    • Channel(s)                               : 8 channels
    • Channel layout                           : L R C LFE Ls Rs Lb Rb
    • Sampling rate                            : 48.0 kHz
    • Frame rate                               : 1 200.000 FPS (40 SPF)
    • Compression mode                         : Lossless
    • Delay relative to video                  : 9 ms
    • Stream size                              : 3.02 GiB (10%)
    • Title                                    : Hunter.Killer.2018.2160p.BluRay.x264.8bit.SDR.DTS-HD.MA.TrueHD.7.1.Atmos-SWTYBLZ
    • Language                                 : English
    • Default                                  : Yes
    • Forced                                   : No
    • Number of dynamic objects                : 15
    • Bed channel count                        : 1 channel
    • Bed channel configuration                : LFE
    • Audio #2
    • ID                                       : 3
    • Format                                   : DTS XLL
    • Format/Info                              : Digital Theater Systems
    • Commercial name                          : DTS-HD Master Audio
    • Codec ID                                 : A_DTS
    • Duration                                 : 2 h 1 min
    • Bit rate mode                            : Variable
    • Bit rate                                 : 4 249 kb/s
    • Channel(s)                               : 8 channels
    • Channel layout                           : C L R LFE Lb Rb Lss Rss
    • Sampling rate                            : 48.0 kHz
    • Frame rate                               : 93.750 FPS (512 SPF)
    • Bit depth                                : 24 bits
    • Compression mode                         : Lossless
    • Stream size                              : 3.61 GiB (12%)
    • Title                                    : Hunter.Killer.2018.2160p.BluRay.x264.8bit.SDR.DTS-HD.MA.TrueHD.7.1.Atmos-SWTYBLZ
    • Language                                 : English
    • Default                                  : No
    • Forced                                   : No
    • Audio #3
    • ID                                       : 4
    • Format                                   : AC-3
    • Format/Info                              : Audio Coding 3
    • Commercial name                          : Dolby Digital
    • Codec ID                                 : A_AC3
    • Duration                                 : 2 h 1 min
    • Bit rate mode                            : Constant
    • Bit rate                                 : 640 kb/s
    • Channel(s)                               : 6 channels
    • Channel layout                           : L R C LFE Ls Rs
    • Sampling rate                            : 48.0 kHz
    • Frame rate                               : 31.250 FPS (1536 SPF)
    • Bit depth                                : 16 bits
    • Compression mode                         : Lossy
    • Stream size                              : 557 MiB (2%)
    • Title                                    : Hunter.Killer.2018.2160p.BluRay.x264.8bit.SDR.DTS-HD.MA.TrueHD.7.1.Atmos-SWTYBLZ
    • Language                                 : English
    • Service kind                             : Complete Main
    • Default                                  : No
    • Forced                                   : No
    • Text #1
    • ID                                       : 5
    • Format                                   : UTF-8
    • Codec ID                                 : S_TEXT/UTF8
    • Codec ID/Info                            : UTF-8 Plain Text
    • Duration                                 : 1 h 49 min
    • Bit rate                                 : 46 b/s
    • Count of elements                        : 1217
    • Stream size                              : 37.5 KiB (0%)
    • Title                                    : English-SRT
    • Language                                 : English
    • Default                                  : Yes
    • Forced                                   : No
    • Text #2
    • ID                                       : 6
    • Format                                   : UTF-8
    • Codec ID                                 : S_TEXT/UTF8
    • Codec ID/Info                            : UTF-8 Plain Text
    • Duration                                 : 1 h 50 min
    • Bit rate                                 : 54 b/s
    • Count of elements                        : 1492
    • Stream size                              : 44.1 KiB (0%)
    • Title                                    : English-SDH-SRT
    • Language                                 : English
    • Default                                  : No
    • Forced                                   : No
    • Text #3
    • ID                                       : 7
    • Format                                   : PGS
    • Muxing mode                              : zlib
    • Codec ID                                 : S_HDMV/PGS
    • Codec ID/Info                            : Picture based subtitle format used on BDs/HD-DVDs
    • Duration                                 : 1 h 50 min
    • Bit rate                                 : 39.4 kb/s
    • Count of elements                        : 3002
    • Stream size                              : 31.1 MiB (0%)
    • Title                                    : English-PGS
    • Language                                 : English
    • Default                                  : No
    • Forced                                   : No
    • Text #4
    • ID                                       : 8
    • Format                                   : PGS
    • Muxing mode                              : zlib
    • Codec ID                                 : S_HDMV/PGS
    • Codec ID/Info                            : Picture based subtitle format used on BDs/HD-DVDs
    • Duration                                 : 1 h 50 min
    • Bit rate                                 : 32.8 kb/s
    • Count of elements                        : 2075
    • Stream size                              : 25.9 MiB (0%)
    • Title                                    : Spanish-PGS
    • Language                                 : Spanish
    • Default                                  : No
    • Forced                                   : No
    • Menu
    • 00:00:00.000                             : :Chapter 1
    • 00:06:19.629                             : :Chapter 2
    • 00:14:56.353                             : :Chapter 3
    • 00:20:00.449                             : :Chapter 4
    • 00:28:19.322                             : :Chapter 5
    • 00:38:31.183                             : :Chapter 6
    • 00:46:29.077                             : :Chapter 7
    • 00:54:15.752                             : :Chapter 8
    • 01:00:26.080                             : :Chapter 9
    • 01:09:39.967                             : :Chapter 10
    • 01:15:48.919                             : :Chapter 11
    • 01:23:29.087                             : :Chapter 12
    • 01:30:17.662                             : :Chapter 13
    • 01:39:23.248                             : :Chapter 14
    • 01:44:53.954                             : :Chapter 15
    • 01:51:35.689                             : :Chapter 16

    复制代码

    冰海陷落/潜舰猎杀令 Hunter.Killer.2018.2160p.BluRay.x264.8bit.SDR.DTS-HD.MA.TrueHD.7.1.Atmos-SWTYBLZ 30.00GB-2.png 冰海陷落/潜舰猎杀令 Hunter.Killer.2018.2160p.BluRay.x264.8bit.SDR.DTS-HD.MA.TrueHD.7.1.Atmos-SWTYBLZ 30.00GB-3.png 冰海陷落/潜舰猎杀令 Hunter.Killer.2018.2160p.BluRay.x264.8bit.SDR.DTS-HD.MA.TrueHD.7.1.Atmos-SWTYBLZ 30.00GB-4.png 冰海陷落/潜舰猎杀令 Hunter.Killer.2018.2160p.BluRay.x264.8bit.SDR.DTS-HD.MA.TrueHD.7.1.Atmos-SWTYBLZ 30.00GB-5.png 冰海陷落/潜舰猎杀令 Hunter.Killer.2018.2160p.BluRay.x264.8bit.SDR.DTS-HD.MA.TrueHD.7.1.Atmos-SWTYBLZ 30.00GB-6.png 冰海陷落/潜舰猎杀令 Hunter.Killer.2018.2160p.BluRay.x264.8bit.SDR.DTS-HD.MA.TrueHD.7.1.Atmos-SWTYBLZ 30.00GB-7.png 冰海陷落/潜舰猎杀令 Hunter.Killer.2018.2160p.BluRay.x264.8bit.SDR.DTS-HD.MA.TrueHD.7.1.Atmos-SWTYBLZ 30.00GB-8.png





    Hunter.Killer.2018.2160p.BluRay.x264.8bit.SDR.DTS-HD.MA.TrueHD.7.1.Atmos-SWTYBLZ.torrent (75.64 KB, 下载次数: 383)
    开通VIP免费下载本站所有资源---点这里
    新手必看:资源下载、资源播放、字幕使用、等常见问题---点这里
    回复

    使用道具 举报

  • TA的每日心情
    开心
    昨天 15:03
  • 签到天数: 76 天

    [LV.6]常住居民II

    发表于 2019-1-25 11:13:24 | 显示全部楼层

    楼主太厉害了!楼主,电影应该很好看我觉得蓝光电影网真是个好地方!
    开通VIP免费下载本站所有资源---点这里
    新手必看:资源下载、资源播放、字幕使用、等常见问题---点这里
    回复 支持 反对

    使用道具 举报

  • TA的每日心情
    开心
    昨天 13:52
  • 签到天数: 23 天

    [LV.4]偶尔看看III

    发表于 2019-1-25 13:25:35 | 显示全部楼层
    楼主太厉害了!
    开通VIP免费下载本站所有资源---点这里
    新手必看:资源下载、资源播放、字幕使用、等常见问题---点这里
    回复 支持 反对

    使用道具 举报

  • TA的每日心情
    开心
    昨天 11:55
  • 签到天数: 41 天

    [LV.5]常住居民I

    发表于 2019-1-25 19:22:44 | 显示全部楼层

    这个帖子不回对不起自己!我想我是一天也不能离开蓝光电影网
    [发帖际遇]: 一个袋子砸在了 海潮梵音 头上,海潮梵音 赚了 1 蓝光币. 幸运榜 / 衰神榜
    开通VIP免费下载本站所有资源---点这里
    新手必看:资源下载、资源播放、字幕使用、等常见问题---点这里
    回复 支持 反对

    使用道具 举报

  • TA的每日心情
    开心
    6 天前
  • 签到天数: 32 天

    [LV.5]常住居民I

    发表于 2019-1-25 19:48:46 | 显示全部楼层
    冰海陷落/潜舰猎杀令 Hunter.Killer.2018.2160p.BluRay.x264.8bit.SDR.DTS-HD.MA.TrueHD.7.1.Atmos-SWTYBLZ 30.00GB
    开通VIP免费下载本站所有资源---点这里
    新手必看:资源下载、资源播放、字幕使用、等常见问题---点这里
    回复 支持 反对

    使用道具 举报

  • TA的每日心情
    开心
    前天 10:56
  • 签到天数: 49 天

    [LV.5]常住居民I

    发表于 2019-1-26 00:00:34 | 显示全部楼层

    我看不错噢 谢谢楼主!蓝光电影网越来越好!
    [发帖际遇]: X-Power2017 发帖时在路边捡到 1 蓝光币,偷偷放进了口袋. 幸运榜 / 衰神榜
    开通VIP免费下载本站所有资源---点这里
    新手必看:资源下载、资源播放、字幕使用、等常见问题---点这里
    回复 支持 反对

    使用道具 举报

  • TA的每日心情
    开心
    昨天 08:46
  • 签到天数: 88 天

    [LV.6]常住居民II

    发表于 2019-1-26 00:17:51 | 显示全部楼层
    谢谢楼主的分享
    开通VIP免费下载本站所有资源---点这里
    新手必看:资源下载、资源播放、字幕使用、等常见问题---点这里
    回复 支持 反对

    使用道具 举报

  • TA的每日心情
    开心
    昨天 10:20
  • 签到天数: 11 天

    [LV.3]偶尔看看II

    发表于 2019-1-26 12:33:22 | 显示全部楼层
    谢谢分享谢谢分享
    开通VIP免费下载本站所有资源---点这里
    新手必看:资源下载、资源播放、字幕使用、等常见问题---点这里
    回复 支持 反对

    使用道具 举报

  • TA的每日心情
    开心
    昨天 08:49
  • 签到天数: 20 天

    [LV.4]偶尔看看III

    发表于 2019-1-26 13:23:27 | 显示全部楼层
    楼主太厉害了!楼主,电影应该很好看我觉得蓝光电影网真是个好地方!
    开通VIP免费下载本站所有资源---点这里
    新手必看:资源下载、资源播放、字幕使用、等常见问题---点这里
    回复 支持 反对

    使用道具 举报

  • TA的每日心情
    开心
    2019-1-26 15:39
  • 签到天数: 1 天

    [LV.1]初来乍到

    发表于 2019-1-26 15:25:53 | 显示全部楼层
    1111111111111111111
    [发帖际遇]: 一个袋子砸在了 wennai 头上,wennai 赚了 1 蓝光币. 幸运榜 / 衰神榜
    开通VIP免费下载本站所有资源---点这里
    新手必看:资源下载、资源播放、字幕使用、等常见问题---点这里
    回复 支持 反对

    使用道具 举报

    懒得打字嘛,点击右侧快捷回复 【右侧内容,后台自定义】
    您需要登录后才可以回帖 登录 | 立即加入

    本版积分规则

    现在加入蓝光电影网,注册一个账号

    QQ| 手机版|小黑屋| 蓝光电影网 |网站地图

    Copyright © 20013-2018 Comsenz Inc.  Template by 蓝光电影论坛 All Rights Reserved.

    Powered by 高清电影网 X3.4
    特别声明:本站所有资源均由网上收集而来,版权归原影音公司所有,如果侵犯了你的权益,请通知我们,我们会及时删除侵权内容.

    快速回复 返回顶部 返回列表