找回密码

蓝光电影网

查看: 14454|回复: 349

[动作] 冰海陷落/潜舰猎杀令 Hunter.Killer.2018.1080p.BluRay.x264.DTS-HD.MA.7.1-FGT 11.04GB

  [复制链接]
  • TA的每日心情
    开心
    昨天 09:21
  • 签到天数: 92 天

    [LV.6]常住居民II

     成长值: 19195

    发表于 2019-1-24 09:41:47 | 显示全部楼层 |阅读模式

    马上注册,获取最新影视资讯,享用更多功能,让你轻松玩转蓝光电影网。

    您需要 登录 才可以下载或查看,没有帐号?立即加入

    x

    冰海陷落/潜舰猎杀令 Hunter.Killer.2018.1080p.BluRay.x264.DTS-HD.MA.7.1-FGT 11.04GB-1.jpg
    ◎译  名 冰海陷落 / 潜舰猎杀令(台) / 猎人杀手
    ◎片  名 冰海陷落 Hunter Killer
    ◎年  代 2018
    ◎国  家 英国 / 中国大陆 / 美国
    ◎类  别 动作 / 战争
    ◎语  言 英语
    ◎上映日期 2018-10-26(美国)
    ◎IMDb评分  6.7/10 from 17,127 users
    ◎IMDb链接  http://www.imdb.com/title/tt1846589/
    ◎豆瓣评分 6.7/10 from 5248 users
    ◎豆瓣链接 https://movie.douban.com/subject/6538807/
    ◎片  长 122分钟
    ◎导  演 多诺万·玛什
    ◎主  演 杰拉德·巴特勒
          加里·奥德曼
          米哈伊尔·戈尔沃伊
          迈克尔·恩奎斯特
          科曼
          赞恩·霍尔茨
          迈克尔·特鲁科
          雷恩·麦帕林
          卡罗琳·古多尔
          泰勒·约翰·史密斯
          施恩·泰勒
          加布里埃尔·查瓦里亚
          柯斯莫·贾维斯
          西奥·巴克利姆比格斯
          卡特·麦金太尔
          迈克尔·吉普森
          威尔·阿滕伯勒
          伊戈尔·日日金
          琳达·卡德里尼

    ◎简  介 

      在《冰海陷落》中,一位初出茅庐的潜水艇舰长(杰拉德·巴特勒饰)将与一支美军海豹突击队联手营救被疯狂的将军绑架的俄国总统。

    • Video
    • ID                                       : 1
    • Format                                   : AVC
    • Format/Info                              : Advanced Video Codec
    • Format profile                           : [email protected]
    • Format settings                          : CABAC / 5 Ref Frames
    • Format settings, CABAC                   : Yes
    • Format settings, ReFrames                : 5 frames
    • Codec ID                                 : V_MPEG4/ISO/AVC
    • Duration                                 : 2 h 1 min
    • Bit rate                                 : 8 705 kb/s
    • Width                                    : 1 920 pixels
    • Height                                   : 808 pixels
    • Display aspect ratio                     : 2.40:1
    • Frame rate mode                          : Constant
    • Frame rate                               : 23.976 (24000/1001) FPS
    • Color space                              : YUV
    • Chroma subsampling                       : 4:2:0
    • Bit depth                                : 8 bits
    • Scan type                                : Progressive
    • Bits/(Pixel*Frame)                       : 0.234
    • Stream size                              : 7.40 GiB (67%)
    • Title                                    : Hunter.Killer.2018.1080p.BluRay.x264.DTS-HD.MA.7.1-FGT
    • Writing library                          : x264 core 157 r2935 545de2f
    • Encoding settings                        : cabac=1 / ref=5 / deblock=1:-3:-3 / analyse=0x3:0x113 / me=umh / subme=8 / psy=1 / psy_rd=1.00:0.00 / mixed_ref=1 / me_range=16 / chroma_me=1 / trellis=1 / 8x8dct=1 / cqm=0 / deadzone=21,11 / fast_pskip=1 / chroma_qp_offset=-2 / threads=25 / lookahead_threads=4 / sliced_threads=0 / nr=0 / decimate=1 / interlaced=0 / bluray_compat=0 / constrained_intra=0 / bframes=3 / b_pyramid=2 / b_adapt=1 / b_bias=0 / direct=3 / weightb=1 / open_gop=0 / weightp=2 / keyint=250 / keyint_min=23 / scenecut=40 / intra_refresh=0 / rc_lookahead=50 / rc=2pass / mbtree=1 / bitrate=8705 / ratetol=1.0 / qcomp=0.60 / qpmin=0 / qpmax=69 / qpstep=4 / cplxblur=20.0 / qblur=0.5 / ip_ratio=1.40 / aq=1:1.00
    • Language                                 : English
    • Default                                  : Yes
    • Forced                                   : No
    • Audio
    • ID                                       : 2
    • Format                                   : DTS XLL
    • Format/Info                              : Digital Theater Systems
    • Commercial name                          : DTS-HD Master Audio
    • Codec ID                                 : A_DTS
    • Duration                                 : 2 h 1 min
    • Bit rate mode                            : Variable
    • Bit rate                                 : 4 248 kb/s
    • Channel(s)                               : 8 channels
    • Channel layout                           : C L R LFE Lb Rb Lss Rss
    • Sampling rate                            : 48.0 kHz
    • Frame rate                               : 93.750 FPS (512 SPF)
    • Bit depth                                : 24 bits
    • Compression mode                         : Lossless
    • Stream size                              : 3.61 GiB (33%)
    • Title                                    : Hunter.Killer.2018.1080p.BluRay.x264.DTS-HD.MA.7.1-FGT
    • Language                                 : English
    • Default                                  : Yes
    • Forced                                   : No
    • Text #1
    • ID                                       : 3
    • Format                                   : UTF-8
    • Codec ID                                 : S_TEXT/UTF8
    • Codec ID/Info                            : UTF-8 Plain Text
    • Duration                                 : 1 h 49 min
    • Bit rate                                 : 47 b/s
    • Count of elements                        : 1224
    • Stream size                              : 38.1 KiB (0%)
    • Title                                    : English-SRT
    • Language                                 : English
    • Default                                  : Yes
    • Forced                                   : No
    • Text #2
    • ID                                       : 4
    • Format                                   : PGS
    • Muxing mode                              : zlib
    • Codec ID                                 : S_HDMV/PGS
    • Codec ID/Info                            : Picture based subtitle format used on BDs/HD-DVDs
    • Duration                                 : 1 h 50 min
    • Bit rate                                 : 39.6 kb/s
    • Count of elements                        : 3006
    • Stream size                              : 31.2 MiB (0%)
    • Title                                    : English-PGS
    • Language                                 : English
    • Default                                  : No
    • Forced                                   : No
    • Text #3
    • ID                                       : 5
    • Format                                   : PGS
    • Muxing mode                              : zlib
    • Codec ID                                 : S_HDMV/PGS
    • Codec ID/Info                            : Picture based subtitle format used on BDs/HD-DVDs
    • Duration                                 : 1 h 50 min
    • Bit rate                                 : 33.3 kb/s
    • Count of elements                        : 2087
    • Stream size                              : 26.3 MiB (0%)
    • Title                                    : Spanish-PGS
    • Language                                 : Spanish
    • Default                                  : No
    • Forced                                   : No
    • Menu
    • 00:00:00.000                             : en:Chapter 01
    • 00:06:19.629                             : en:Chapter 02
    • 00:14:56.353                             : en:Chapter 03
    • 00:20:00.449                             : en:Chapter 04
    • 00:28:19.322                             : en:Chapter 05
    • 00:38:31.183                             : en:Chapter 06
    • 00:46:29.077                             : en:Chapter 07
    • 00:54:15.752                             : en:Chapter 08
    • 01:00:26.080                             : en:Chapter 09
    • 01:09:39.967                             : en:Chapter 10
    • 01:15:48.919                             : en:Chapter 11
    • 01:23:29.087                             : en:Chapter 12
    • 01:30:17.662                             : en:Chapter 13
    • 01:39:23.248                             : en:Chapter 14
    • 01:44:53.954                             : en:Chapter 15
    • 01:51:35.689                             : en:Chapter 16

    复制代码

    冰海陷落/潜舰猎杀令 Hunter.Killer.2018.1080p.BluRay.x264.DTS-HD.MA.7.1-FGT 11.04GB-2.png 冰海陷落/潜舰猎杀令 Hunter.Killer.2018.1080p.BluRay.x264.DTS-HD.MA.7.1-FGT 11.04GB-3.png 冰海陷落/潜舰猎杀令 Hunter.Killer.2018.1080p.BluRay.x264.DTS-HD.MA.7.1-FGT 11.04GB-4.png





    Hunter.Killer.2018.1080p.BluRay.x264.DTS-HD.MA.7.1-FGT.torrent (55.72 KB, 下载次数: 1509)
    开通VIP免费下载本站所有资源---点这里
    新手必看:资源下载、资源播放、字幕使用、等常见问题---点这里
    回复

    使用道具 举报

  • TA的每日心情

    昨天 08:58
  • 签到天数: 72 天

    [LV.6]常住居民II

    发表于 2019-1-24 10:10:00 | 显示全部楼层
    终于等到了!!!感谢
    开通VIP免费下载本站所有资源---点这里
    新手必看:资源下载、资源播放、字幕使用、等常见问题---点这里
    回复 支持 反对

    使用道具 举报

  • TA的每日心情
    慵懒
    昨天 10:06
  • 签到天数: 80 天

    [LV.6]常住居民II

    发表于 2019-1-24 10:40:46 | 显示全部楼层
    楼主发贴辛苦了,谢谢楼主分享!我觉得蓝光电影网是注册对了!
    [发帖际遇]: 一个袋子砸在了 闲愁浓 头上,闲愁浓 赚了 2 蓝光币. 幸运榜 / 衰神榜
    开通VIP免费下载本站所有资源---点这里
    新手必看:资源下载、资源播放、字幕使用、等常见问题---点这里
    回复 支持 反对

    使用道具 举报

  • TA的每日心情
    开心
    2019-1-24 10:45
  • 签到天数: 1 天

    [LV.1]初来乍到

    发表于 2019-1-24 10:44:32 | 显示全部楼层

    其实我一直觉得楼主的品味不错!呵呵!蓝光电影网太棒了!
    开通VIP免费下载本站所有资源---点这里
    新手必看:资源下载、资源播放、字幕使用、等常见问题---点这里
    回复 支持 反对

    使用道具 举报

  • TA的每日心情
    开心
    前天 10:52
  • 签到天数: 8 天

    [LV.3]偶尔看看II

    发表于 2019-1-24 10:54:05 | 显示全部楼层
    楼主发贴辛苦了,谢谢楼主分享!我觉得蓝光电影网是注册对了!
    开通VIP免费下载本站所有资源---点这里
    新手必看:资源下载、资源播放、字幕使用、等常见问题---点这里
    回复 支持 反对

    使用道具 举报

  • TA的每日心情
    郁闷
    3 天前
  • 签到天数: 12 天

    [LV.3]偶尔看看II

    发表于 2019-1-24 11:02:23 | 显示全部楼层
    这个陷落系列我是一部都没看过。
    最近片荒,既然有了资源,那就试一试吧,感谢楼主。
    开通VIP免费下载本站所有资源---点这里
    新手必看:资源下载、资源播放、字幕使用、等常见问题---点这里
    回复 支持 反对

    使用道具 举报

  • TA的每日心情
    开心
    昨天 12:16
  • 签到天数: 17 天

    [LV.4]偶尔看看III

    发表于 2019-1-24 13:24:51 | 显示全部楼层
    楼主发贴辛苦了,谢谢楼主分享!我觉得蓝光电影网是注册对了!
    开通VIP免费下载本站所有资源---点这里
    新手必看:资源下载、资源播放、字幕使用、等常见问题---点这里
    回复 支持 反对

    使用道具 举报

  • TA的每日心情
    慵懒
    2019-2-10 18:47
  • 签到天数: 5 天

    [LV.2]偶尔看看I

    发表于 2019-1-24 13:29:12 | 显示全部楼层
    楼主发贴辛苦了,谢谢楼主分享!我觉得蓝光电影网是注册对了!
    开通VIP免费下载本站所有资源---点这里
    新手必看:资源下载、资源播放、字幕使用、等常见问题---点这里
    回复 支持 反对

    使用道具 举报

    该用户从未签到

    发表于 2019-1-24 13:37:18 | 显示全部楼层
    楼主发贴辛苦了,谢谢楼主分享!我觉得蓝光电影网是注册对了!
    开通VIP免费下载本站所有资源---点这里
    新手必看:资源下载、资源播放、字幕使用、等常见问题---点这里
    回复 支持 反对

    使用道具 举报

    该用户从未签到

    发表于 2019-1-24 13:37:48 | 显示全部楼层

    这东西我收了!谢谢楼主!蓝光电影网真好!
    开通VIP免费下载本站所有资源---点这里
    新手必看:资源下载、资源播放、字幕使用、等常见问题---点这里
    回复 支持 反对

    使用道具 举报

    懒得打字嘛,点击右侧快捷回复 【右侧内容,后台自定义】
    您需要登录后才可以回帖 登录 | 立即加入

    本版积分规则

    现在加入蓝光电影网,注册一个账号

    QQ| 手机版|小黑屋| 蓝光电影网 |网站地图

    Copyright © 20013-2018 Comsenz Inc.  Template by 蓝光电影论坛 All Rights Reserved.

    Powered by 高清电影网 X3.4
    特别声明:本站所有资源均由网上收集而来,版权归原影音公司所有,如果侵犯了你的权益,请通知我们,我们会及时删除侵权内容.

    快速回复 返回顶部 返回列表