找回密码

蓝光电影网

查看: 32|回复: 1

[剧情片] 混沌爱诗 Chaotic.Love.Poems.2016.1080p.WEBRip.X264-INFLATE 3.77GB

[复制链接]
  • TA的每日心情
    开心
    6 小时前
  • 签到天数: 61 天

    [LV.6]常住居民II

     成长值: 18685

    发表于 2019-1-11 10:18:16 | 显示全部楼层 |阅读模式

    马上注册,获取最新影视资讯,享用更多功能,让你轻松玩转蓝光电影网。

    您需要 登录 才可以下载或查看,没有帐号?立即加入

    x

    混沌爱诗 Chaotic.Love.Poems.2016.1080p.WEBRip.X264-INFLATE 3.77GB-1.jpg
    ◎译  名 混沌爱诗 / Chaotic Love Poems
    ◎片  名 混沌爱诗 Aach... Aku Jatuh Cinta
    ◎年  代 2016
    ◎国  家 印度尼西亚
    ◎类  别 剧情 / 喜剧 / 爱情
    ◎语  言 印度尼西亚语
    ◎上映日期 2016-01-04(印度尼西亚)
    ◎IMDb评分  6.4/10 from 32 users
    ◎IMDb链接  http://www.imdb.com/title/tt6346314/
    ◎豆瓣评分 目前无人评价
    ◎豆瓣链接 https://movie.douban.com/subject/30426463/
    ◎片  长 无片长信息
    ◎导  演 加林·努格罗
    ◎主  演 Chicco Jerikho
          佩维塔·皮尔斯
          Nova Eliza

    ◎简  介 

      A cheerful yet serious Indonesian Romeo and Juliet. A boy and a girl from the same district, but with difficult childhoods and other reasons not to acknowledge their love. Through the ...

    • Video
    • ID                                       : 1
    • Format                                   : AVC
    • Format/Info                              : Advanced Video Codec
    • Format profile                           : [email protected]
    • Format settings                          : CABAC / 4 Ref Frames
    • Format settings, CABAC                   : Yes
    • Format settings, ReFrames                : 4 frames
    • Codec ID                                 : V_MPEG4/ISO/AVC
    • Duration                                 : 1 h 25 min
    • Bit rate                                 : 5 663 kb/s
    • Width                                    : 1 920 pixels
    • Height                                   : 1 012 pixels
    • Display aspect ratio                     : 1.897
    • Frame rate mode                          : Constant
    • Frame rate                               : 24.000 FPS
    • Color space                              : YUV
    • Chroma subsampling                       : 4:2:0
    • Bit depth                                : 8 bits
    • Scan type                                : Progressive
    • Bits/(Pixel*Frame)                       : 0.121
    • Stream size                              : 3.38 GiB (90%)
    • Writing library                          : x264 core 157 r2935 545de2f
    • Encoding settings                        : cabac=1 / ref=4 / deblock=1:-3:-3 / analyse=0x3:0x113 / me=hex / subme=8 / psy=1 / psy_rd=1.00:0.00 / mixed_ref=1 / me_range=16 / chroma_me=1 / trellis=2 / 8x8dct=1 / cqm=0 / deadzone=21,11 / fast_pskip=1 / chroma_qp_offset=-2 / threads=12 / lookahead_threads=2 / sliced_threads=0 / nr=0 / decimate=1 / interlaced=0 / bluray_compat=0 / constrained_intra=0 / bframes=3 / b_pyramid=2 / b_adapt=1 / b_bias=0 / direct=3 / weightb=1 / open_gop=0 / weightp=2 / keyint=250 / keyint_min=24 / scenecut=40 / intra_refresh=0 / rc_lookahead=50 / rc=crf / mbtree=1 / crf=17.0 / qcomp=0.60 / qpmin=0 / qpmax=69 / qpstep=4 / ip_ratio=1.40 / aq=1:1.00
    • Language                                 : English
    • Default                                  : Yes
    • Forced                                   : No
    • Audio
    • ID                                       : 2
    • Format                                   : E-AC-3
    • Format/Info                              : Enhanced AC-3
    • Commercial name                          : Dolby Digital Plus
    • Codec ID                                 : A_EAC3
    • Duration                                 : 1 h 25 min
    • Bit rate mode                            : Constant
    • Bit rate                                 : 640 kb/s
    • Channel(s)                               : 6 channels
    • Channel layout                           : L R C LFE Ls Rs
    • Sampling rate                            : 48.0 kHz
    • Frame rate                               : 31.250 FPS (1536 SPF)
    • Compression mode                         : Lossy
    • Stream size                              : 392 MiB (10%)
    • Title                                    : Indonesian [Original]
    • Language                                 : Indonesian
    • Service kind                             : Complete Main
    • Default                                  : Yes
    • Forced                                   : No
    • Text #1
    • ID                                       : 3
    • Format                                   : UTF-8
    • Codec ID                                 : S_TEXT/UTF8
    • Codec ID/Info                            : UTF-8 Plain Text
    • Duration                                 : 1 h 22 min
    • Bit rate                                 : 46 b/s
    • Count of elements                        : 799
    • Stream size                              : 28.4 KiB (0%)
    • Title                                    : English
    • Language                                 : English
    • Default                                  : Yes
    • Forced                                   : No
    • Text #2
    • ID                                       : 4
    • Format                                   : UTF-8
    • Codec ID                                 : S_TEXT/UTF8
    • Codec ID/Info                            : UTF-8 Plain Text
    • Duration                                 : 1 h 25 min
    • Bit rate                                 : 45 b/s
    • Count of elements                        : 798
    • Stream size                              : 28.7 KiB (0%)
    • Title                                    : Indonesian
    • Language                                 : Indonesian
    • Default                                  : No
    • Forced                                   : No
    • Text #3
    • ID                                       : 5
    • Format                                   : UTF-8
    • Codec ID                                 : S_TEXT/UTF8
    • Codec ID/Info                            : UTF-8 Plain Text
    • Duration                                 : 1 h 25 min
    • Bit rate                                 : 38 b/s
    • Count of elements                        : 799
    • Stream size                              : 23.9 KiB (0%)
    • Title                                    : Chinese (Simplified)
    • Language                                 : Chinese
    • Default                                  : No
    • Forced                                   : No
    • Text #4
    • ID                                       : 6
    • Format                                   : UTF-8
    • Codec ID                                 : S_TEXT/UTF8
    • Codec ID/Info                            : UTF-8 Plain Text
    • Duration                                 : 1 h 25 min
    • Bit rate                                 : 39 b/s
    • Count of elements                        : 799
    • Stream size                              : 24.9 KiB (0%)
    • Title                                    : Chinese (Traditional)
    • Language                                 : Chinese
    • Default                                  : No
    • Forced                                   : No

    复制代码

    混沌爱诗 Chaotic.Love.Poems.2016.1080p.WEBRip.X264-INFLATE 3.77GB-2.jpg





    Chaotic.Love.Poems.2016.1080p.WEBRip.X264-INFLATE.torrent (151.36 KB, 下载次数: 0)
    开通VIP免费下载本站所有资源---点这里
    新手必看:资源下载、资源播放、字幕使用、等常见问题---点这里
    回复

    使用道具 举报

  • TA的每日心情
    擦汗
    4 小时前
  • 签到天数: 39 天

    [LV.5]常住居民I

     成长值: 715

    发表于 2019-1-11 18:23:27 | 显示全部楼层
    感谢。。。。。。感谢你的分享。。。。。。。赞。。。。。。。
    开通VIP免费下载本站所有资源---点这里
    新手必看:资源下载、资源播放、字幕使用、等常见问题---点这里
    回复 支持 反对

    使用道具 举报

    懒得打字嘛,点击右侧快捷回复 【右侧内容,后台自定义】
    您需要登录后才可以回帖 登录 | 立即加入

    本版积分规则

    现在加入蓝光电影网,注册一个账号

    QQ| 手机版|小黑屋| 蓝光电影网 |网站地图

    Copyright © 20013-2018 Comsenz Inc.  Template by 蓝光电影论坛 All Rights Reserved.

    Powered by 高清电影网 X3.4
    特别声明:本站所有资源均由网上收集而来,版权归原影音公司所有,如果侵犯了你的权益,请通知我们,我们会及时删除侵权内容.

    快速回复 返回顶部 返回列表