找回密码

蓝光电影网

查看: 154|回复: 1

[剧情片] 触不到的爱 Dawn.2015.1080p.AMZN.WEBRip.DDP2.0.x264-NTG 3.62GB

[复制链接]
  • TA的每日心情
    开心
    11 小时前
  • 签到天数: 205 天

    [LV.7]常住居民III

     成长值: 20920

    发表于 2019-1-11 10:17:32 | 显示全部楼层 |阅读模式

    马上注册,获取最新影视资讯,享用更多功能,让你轻松玩转蓝光电影网。

    您需要 登录 才可以下载或查看,没有帐号?立即加入

    x

    触不到的爱 Dawn.2015.1080p.AMZN.WEBRip.DDP2.0.x264-NTG 3.62GB-1.jpg
    ◎译  名 触不到的爱
    ◎片  名 触不到的爱 Dawn
    ◎年  代 2015
    ◎国  家 澳大利亚 Australia
    ◎类  别 剧情 / 悬疑 / 惊悚
    ◎语  言 英语
    ◎上映日期 2015-05-21(澳大利亚)
    ◎IMDb评分  6.7/10 from 52 users
    ◎IMDb链接  http://www.imdb.com/title/tt3177264/
    ◎豆瓣评分 4.8/10 from 75 users
    ◎豆瓣链接 https://movie.douban.com/subject/27072222/
    ◎片  长 90分钟
    ◎导  演 Christopher Houghton
    ◎主  演 利安娜·瓦尔斯曼

    ◎简  介 

      澳大利亚惊悚片,看着窗外缓缓变换的景色,彤恩的眼神略带焦虑,因为她刚犯下一宗伤害案,身后还引来一名男子的调查与追缉,她带着女儿驾车逃往偏远的山区,在当地旅馆躲了起来。母女俩待在这与世隔绝的小小世界,享受难得的相处机会,然而当紧追在后的男子出现,却将拆散两人仅有的世界。

    • Video
    • ID                                       : 1
    • Format                                   : AVC
    • Format/Info                              : Advanced Video Codec
    • Format profile                           : [email protected]
    • Format settings                          : CABAC / 4 Ref Frames
    • Format settings, CABAC                   : Yes
    • Format settings, ReFrames                : 4 frames
    • Codec ID                                 : V_MPEG4/ISO/AVC
    • Duration                                 : 1 h 30 min
    • Bit rate mode                            : Variable
    • Bit rate                                 : 5 512 kb/s
    • Maximum bit rate                         : 15.0 Mb/s
    • Width                                    : 1 920 pixels
    • Height                                   : 872 pixels
    • Display aspect ratio                     : 2.2:1
    • Original display aspect ratio            : 2.2:1
    • Frame rate mode                          : Constant
    • Frame rate                               : 24.000 FPS
    • Color space                              : YUV
    • Chroma subsampling                       : 4:2:0
    • Bit depth                                : 8 bits
    • Scan type                                : Progressive
    • Bits/(Pixel*Frame)                       : 0.137
    • Stream size                              : 3.48 GiB (96%)
    • Default                                  : Yes
    • Forced                                   : No
    • Color range                              : Limited
    • Color primaries                          : BT.709
    • Transfer characteristics                 : BT.709
    • Matrix coefficients                      : BT.709
    • Audio
    • ID                                       : 2
    • Format                                   : E-AC-3
    • Format/Info                              : Enhanced AC-3
    • Commercial name                          : Dolby Digital Plus
    • Codec ID                                 : A_EAC3
    • Duration                                 : 1 h 30 min
    • Bit rate mode                            : Constant
    • Bit rate                                 : 224 kb/s
    • Channel(s)                               : 2 channels
    • Channel layout                           : L R
    • Sampling rate                            : 48.0 kHz
    • Frame rate                               : 31.250 FPS (1536 SPF)
    • Compression mode                         : Lossy
    • Stream size                              : 145 MiB (4%)
    • Language                                 : English
    • Service kind                             : Complete Main
    • Default                                  : Yes
    • Forced                                   : No
    • Text
    • ID                                       : 3
    • Format                                   : UTF-8
    • Codec ID                                 : S_TEXT/UTF8
    • Codec ID/Info                            : UTF-8 Plain Text
    • Duration                                 : 1 h 26 min
    • Bit rate                                 : 21 b/s
    • Count of elements                        : 601
    • Stream size                              : 13.9 KiB (0%)
    • Title                                    : SDH
    • Language                                 : English
    • Default                                  : No
    • Forced                                   : No

    复制代码

    触不到的爱 Dawn.2015.1080p.AMZN.WEBRip.DDP2.0.x264-NTG 3.62GB-2.png 触不到的爱 Dawn.2015.1080p.AMZN.WEBRip.DDP2.0.x264-NTG 3.62GB-3.png 触不到的爱 Dawn.2015.1080p.AMZN.WEBRip.DDP2.0.x264-NTG 3.62GB-4.png





    Dawn.2015.1080p.AMZN.WEBRip.DDP2.0.x264-NTG.torrent (72.91 KB, 下载次数: 0)
    开通VIP免费下载本站所有资源---点这里
    新手必看:资源下载、资源播放、字幕使用、等常见问题---点这里
    回复

    使用道具 举报

  • TA的每日心情

    4 天前
  • 签到天数: 142 天

    [LV.7]常住居民III

     成长值: 2950

    发表于 2019-1-11 18:24:11 | 显示全部楼层
    感谢。。。。。。感谢你的分享。。。。。。。赞。。。。。。。
    [发帖际遇]: 一个袋子砸在了 京城安普 头上,京城安普 赚了 1 蓝光币. 幸运榜 / 衰神榜
    开通VIP免费下载本站所有资源---点这里
    新手必看:资源下载、资源播放、字幕使用、等常见问题---点这里
    回复 支持 反对

    使用道具 举报

    *滑动验证:
    懒得打字嘛,点击右侧快捷回复 【右侧内容,后台自定义】
    您需要登录后才可以回帖 登录 | 立即加入

    本版积分规则

    现在加入蓝光电影网,注册一个账号

    QQ| 手机版|小黑屋| 蓝光电影网 |网站地图

    Copyright © 20013-2018 Comsenz Inc.  Template by 蓝光电影论坛 All Rights Reserved.

    Powered by 高清电影网 X3.4
    特别声明:本站所有资源均由网上收集而来,版权归原影音公司所有,如果侵犯了你的权益,请通知我们,我们会及时删除侵权内容.

    快速回复 返回顶部 返回列表