找回密码

蓝光电影网

查看: 886|回复: 21

[10bit.HDR] 月光光心慌慌/月光光新慌慌 Halloween.2018.2160p.BluRay.x265.10bit.HDR.DTS-X.7.1-SWTYBLZ 16.80GB

[复制链接]

 成长值: 21340

发表于 2019-1-11 10:12:46 | 显示全部楼层 |阅读模式
月光光心慌慌/月光光新慌慌 Halloween.2018.2160p.BluRay.x265.10bit.HDR.DTS-X.7.1-SWTYBLZ 16.80GB-1.jpg
◎译  名 月光光心慌慌 / 月光光新慌慌(台) / 万圣节归来 / 万圣节11 / Halloween 3-D / Halloween Returns / Halloween III
◎片  名 月光光心慌慌 Halloween
◎年  代 2018
◎国  家 美国
◎类  别 惊悚 / 恐怖
◎语  言 英语
◎上映日期 2018-09-08(多伦多电影节) / 2018-10-19(美国)
◎IMDb评分  6.8/10 from 65,770 users
◎IMDb链接  http://www.imdb.com/title/tt1502407/
◎豆瓣评分 6.0/10 from 9679 users
◎豆瓣链接 https://movie.douban.com/subject/4017146/
◎片  长 106分钟
◎导  演 大卫·戈登·格林
◎主  演 杰米·李·柯蒂斯
      朱迪·格雷尔
      安迪·马蒂切克
      詹姆斯·裘德·柯特尼
      尼克·卡斯特尔
      哈鲁克·比尔根纳尔
      威尔·帕顿
      里安·里斯
      杰佛逊·豪尔
      托比·胡斯
      维吉尼亚·加德纳
      Dylan Arnold
      迈尔斯·罗宾斯
      Drew Scheid
      Jibrail Nantambu
      Michael 'Mick' Harrity
      Matthew Anderson
      奥马尔·J·多尔西
      克里斯托弗· 艾伦·尼尔森
      PJ·索尔丝
      Sandy Johnson
      乔恩·埃里克·海克瑟姆
      Meeno Peluce
      Jared Moser
      Rob Niter

◎简  介 

  著名杀人狂迈克尔·麦尔斯(Michael Myers)又回来了!帝门影业与特兰卡斯影业将再次推出全新的《万圣节》(月光光心慌慌)续篇——《万圣节归来》,这也是该系列第11部影片。影片的主角主要是一个18岁的男孩,他是曾惨死在迈克尔·麦尔斯手下的受害者的后代,另一个主角是 对迈克尔·麦尔斯案子特别感兴趣的警察,甚至把这个案子看得比自己女儿还重要。迈克尔·麦尔斯身陷死牢等着被执行死刑,但他意外脱身,又有一群年轻人陷入危险中。
  韦恩斯坦影业的副主席鲍勃·韦恩斯坦表示:“迈克尔·麦尔斯已经告别大银幕很久了,影迷们期盼着他的回归。我们希望借此机会创作出一部最吓人的续集奉献给全世界的粉丝们。”
  该片将于7月正式开拍制作,并于2018年万圣节档登陆北美。

◎获奖情况 

  第43届多伦多国际电影节 (2018)
  观众选择奖 午夜疯狂单元(提名)

  第24届美国评论家选择电影奖 (2019)
  最佳科幻/恐怖片(提名)


  1. Video
  2. ID                                       : 1
  3. Format                                   : HEVC
  4. Format/Info                              : High Efficiency Video Coding
  5. Commercial name                          : HDR10
  6. Format profile                           : Main [url=/cdn-cgi/l/email-protection][email protected][/url]@High
  7. Codec ID                                 : V_MPEGH/ISO/HEVC
  8. Duration                                 : 1 h 45 min
  9. Bit rate                                 : 16.5 Mb/s
  10. Width                                    : 3 840 pixels
  11. Height                                   : 1 606 pixels
  12. Display aspect ratio                     : 2.40:1
  13. Frame rate mode                          : Constant
  14. Frame rate                               : 23.976 (24000/1001) FPS
  15. Color space                              : YUV
  16. Chroma subsampling                       : 4:2:0 (Type 2)
  17. Bit depth                                : 10 bits
  18. Bits/(Pixel*Frame)                       : 0.111
  19. Stream size                              : 12.2 GiB (73%)
  20. Title                                    : Halloween.2018.2160p.BluRay.x265.10bit.HDR.DTS-X.7.1-SWTYBLZ
  21. Writing library                          : x265 2.9+15-81373aab81df:[Windows][GCC 8.2.1][64 bit] 10bit
  22. Encoding settings                        : cpuid=1111039 / frame-threads=16 / numa-pools=24,24,24,24 / wpp / no-pmode / no-pme / no-psnr / no-ssim / log-level=2 / input-csp=1 / input-res=3840x1606 / interlace=0 / total-frames=0 / level-idc=51 / high-tier=1 / uhd-bd=0 / ref=3 / no-allow-non-conformance / repeat-headers / annexb / aud / hrd / info / hash=0 / no-temporal-layers / no-open-gop / min-keyint=1 / keyint=24 / gop-lookahead=0 / bframes=4 / b-adapt=2 / b-pyramid / bframe-bias=0 / rc-lookahead=25 / lookahead-slices=4 / scenecut=40 / radl=0 / no-splice / no-intra-refresh / ctu=64 / min-cu-size=8 / no-rect / no-amp / max-tu-size=32 / tu-inter-depth=1 / tu-intra-depth=1 / limit-tu=0 / rdoq-level=0 / dynamic-rd=0.00 / no-ssim-rd / signhide / no-tskip / nr-intra=0 / nr-inter=0 / no-constrained-intra / strong-intra-smoothing / max-merge=2 / limit-refs=3 / no-limit-modes / me=1 / subme=2 / merange=57 / temporal-mvp / weightp / no-weightb / no-analyze-src-pics / deblock=0:0 / no-sao / no-sao-non-deblock / rd=3 / no-early-skip / rskip / no-fast-intra / no-tskip-fast / no-cu-lossless / no-b-intra / no-splitrd-skip / rdpenalty=0 / psy-rd=2.00 / psy-rdoq=0.00 / no-rd-refine / no-lossless / cbqpoffs=0 / crqpoffs=0 / rc=crf / crf=16.0 / qcomp=0.60 / qpstep=4 / stats-write=0 / stats-read=0 / vbv-maxrate=160000 / vbv-bufsize=160000 / vbv-init=0.9 / crf-max=0.0 / crf-min=0.0 / ipratio=1.40 / pbratio=1.30 / aq-mode=1 / aq-strength=1.00 / cutree / zone-count=0 / no-strict-cbr / qg-size=32 / no-rc-grain / qpmax=69 / qpmin=0 / no-const-vbv / sar=1 / overscan=0 / videoformat=5 / range=0 / colorprim=9 / transfer=16 / colormatrix=9 / chromaloc=1 / chromaloc-top=2 / chromaloc-bottom=2 / display-window=0 / master-display=G(13250,34500)B(7500,3000)R(34000,16000)WP(15635,16450)L(10000000,50) / max-cll=456,85 / min-luma=0 / max-luma=1023 / log2-max-poc-lsb=8 / vui-timing-info / vui-hrd-info / slices=1 / opt-qp-pps / opt-ref-list-length-pps / no-multi-pass-opt-rps / scenecut-bias=0.05 / no-opt-cu-delta-qp / no-aq-motion / hdr / hdr-opt / no-dhdr10-opt / no-idr-recovery-sei / analysis-reuse-level=5 / scale-factor=0 / refine-intra=0 / refine-inter=0 / refine-mv=0 / no-limit-sao / ctu-info=0 / no-lowpass-dct / refine-mv-type=0 / copy-pic=1 / max-ausize-factor=1.0 / no-dynamic-refine / no-single-sei
  23. Default                                  : Yes
  24. Forced                                   : No
  25. Color range                              : Limited
  26. Color primaries                          : BT.2020
  27. Transfer characteristics                 : PQ
  28. Matrix coefficients                      : BT.2020 non-constant
  29. Mastering display color primaries        : Display P3
  30. Mastering display luminance              : min: 0.0050 cd/m2, max: 1000 cd/m2
  31. Maximum Content Light Level              : 456 cd/m2
  32. Maximum Frame-Average Light Level        : 85 cd/m2

  33. Audio #1
  34. ID                                       : 2
  35. Format                                   : DTS XLL X
  36. Format/Info                              : Digital Theater Systems
  37. Commercial name                          : DTS-HD Master Audio
  38. Codec ID                                 : A_DTS
  39. Duration                                 : 1 h 45 min
  40. Bit rate mode                            : Variable
  41. Bit rate                                 : 5 465 kb/s
  42. Channel(s)                               : 8 channels
  43. Channel(s)_Original                      : Object Based
  44. Channel layout                           : Object Based
  45. Sampling rate                            : 48.0 kHz
  46. Frame rate                               : 93.750 FPS (512 SPF)
  47. Bit depth                                : 24 bits
  48. Stream size                              : 4.04 GiB (24%)
  49. Title                                    : Halloween.2018.2160p.BluRay.x265.10bit.HDR.DTS-X.7.1-SWTYBLZ
  50. Language                                 : English
  51. Default                                  : Yes
  52. Forced                                   : No

  53. Audio #2
  54. ID                                       : 3
  55. Format                                   : AC-3
  56. Format/Info                              : Audio Coding 3
  57. Commercial name                          : Dolby Digital
  58. Codec ID                                 : A_AC3
  59. Duration                                 : 1 h 45 min
  60. Bit rate mode                            : Constant
  61. Bit rate                                 : 640 kb/s
  62. Channel(s)                               : 6 channels
  63. Channel layout                           : L R C LFE Ls Rs
  64. Sampling rate                            : 48.0 kHz
  65. Frame rate                               : 31.250 FPS (1536 SPF)
  66. Bit depth                                : 16 bits
  67. Compression mode                         : Lossy
  68. Stream size                              : 484 MiB (3%)
  69. Title                                    : Halloween.2018.2160p.BluRay.x265.10bit.HDR.DTS-X.7.1-SWTYBLZ
  70. Language                                 : English
  71. Service kind                             : Complete Main
  72. Default                                  : No
  73. Forced                                   : No

  74. Text #1
  75. ID                                       : 4
  76. Format                                   : UTF-8
  77. Codec ID                                 : S_TEXT/UTF8
  78. Codec ID/Info                            : UTF-8 Plain Text
  79. Duration                                 : 1 h 38 min
  80. Bit rate                                 : 52 b/s
  81. Count of elements                        : 1169
  82. Stream size                              : 38.0 KiB (0%)
  83. Title                                    : English-SRT
  84. Language                                 : English
  85. Default                                  : Yes
  86. Forced                                   : No

  87. Text #2
  88. ID                                       : 5
  89. Format                                   : PGS
  90. Muxing mode                              : zlib
  91. Codec ID                                 : S_HDMV/PGS
  92. Codec ID/Info                            : Picture based subtitle format used on BDs/HD-DVDs
  93. Duration                                 : 1 h 44 min
  94. Bit rate                                 : 42.8 kb/s
  95. Count of elements                        : 3064
  96. Stream size                              : 32.0 MiB (0%)
  97. Title                                    : English-PGS
  98. Language                                 : English
  99. Default                                  : No
  100. Forced                                   : No

  101. Text #3
  102. ID                                       : 6
  103. Format                                   : PGS
  104. Muxing mode                              : zlib
  105. Codec ID                                 : S_HDMV/PGS
  106. Codec ID/Info                            : Picture based subtitle format used on BDs/HD-DVDs
  107. Duration                                 : 1 h 44 min
  108. Bit rate                                 : 29.1 kb/s
  109. Count of elements                        : 2306
  110. Stream size                              : 21.7 MiB (0%)
  111. Title                                    : Spanish-PGS
  112. Language                                 : Spanish
  113. Default                                  : No
  114. Forced                                   : No

  115. Text #4
  116. ID                                       : 7
  117. Format                                   : PGS
  118. Muxing mode                              : zlib
  119. Codec ID                                 : S_HDMV/PGS
  120. Codec ID/Info                            : Picture based subtitle format used on BDs/HD-DVDs
  121. Duration                                 : 1 h 44 min
  122. Bit rate                                 : 29.0 kb/s
  123. Count of elements                        : 2332
  124. Stream size                              : 21.6 MiB (0%)
  125. Title                                    : French-PGS
  126. Language                                 : French
  127. Default                                  : No
  128. Forced                                   : No

  129. Menu
  130. 00:00:00.000                             : :Chapter 1
  131. 00:08:42.522                             : :Chapter 2
  132. 00:14:26.949                             : :Chapter 3
  133. 00:20:46.995                             : :Chapter 4
  134. 00:23:17.854                             : :Chapter 5
  135. 00:27:45.080                             : :Chapter 6
  136. 00:32:55.723                             : :Chapter 7
  137. 00:40:51.365                             : :Chapter 8
  138. 00:44:41.053                             : :Chapter 9
  139. 00:48:26.403                             : :Chapter 10
  140. 00:53:26.453                             : :Chapter 11
  141. 00:59:18.596                             : :Chapter 12
  142. 01:03:22.340                             : :Chapter 13
  143. 01:07:29.628                             : :Chapter 14
  144. 01:14:46.523                             : :Chapter 15
  145. 01:18:10.560                             : :Chapter 16
  146. 01:22:04.836                             : :Chapter 17
  147. 01:30:09.904                             : :Chapter 18
  148. 01:35:33.394                             : :Chapter 19
  149. 01:40:41.493                             : :Chapter 20
复制代码

复制代码

月光光心慌慌/月光光新慌慌 Halloween.2018.2160p.BluRay.x265.10bit.HDR.DTS-X.7.1-SWTYBLZ 16.80GB-2.png 月光光心慌慌/月光光新慌慌 Halloween.2018.2160p.BluRay.x265.10bit.HDR.DTS-X.7.1-SWTYBLZ 16.80GB-3.png 月光光心慌慌/月光光新慌慌 Halloween.2018.2160p.BluRay.x265.10bit.HDR.DTS-X.7.1-SWTYBLZ 16.80GB-4.png 月光光心慌慌/月光光新慌慌 Halloween.2018.2160p.BluRay.x265.10bit.HDR.DTS-X.7.1-SWTYBLZ 16.80GB-5.png 月光光心慌慌/月光光新慌慌 Halloween.2018.2160p.BluRay.x265.10bit.HDR.DTS-X.7.1-SWTYBLZ 16.80GB-6.png 月光光心慌慌/月光光新慌慌 Halloween.2018.2160p.BluRay.x265.10bit.HDR.DTS-X.7.1-SWTYBLZ 16.80GB-7.png





开通VIP免费下载本站所有资源---点这里
新手必看:资源下载、资源播放、字幕使用、等常见问题---点这里
回复

使用道具 举报

发表于 2019-1-11 12:57:21 | 显示全部楼层
挺恐怖的,拍的不错哦
开通VIP免费下载本站所有资源---点这里
新手必看:资源下载、资源播放、字幕使用、等常见问题---点这里
回复 支持 反对

使用道具 举报

已抛锚 成长值: 250

发表于 2019-1-11 13:08:28 | 显示全部楼层

这东西我收了!谢谢楼主!蓝光电影网真好!
开通VIP免费下载本站所有资源---点这里
新手必看:资源下载、资源播放、字幕使用、等常见问题---点这里
回复 支持 反对

使用道具 举报

发表于 2019-1-11 13:12:40 | 显示全部楼层
楼主发贴辛苦了,谢谢楼主分享!我觉得蓝光电影网是注册对了!
开通VIP免费下载本站所有资源---点这里
新手必看:资源下载、资源播放、字幕使用、等常见问题---点这里
回复 支持 反对

使用道具 举报

发表于 2019-1-11 14:57:11 | 显示全部楼层
这部片子不错 值得收藏
开通VIP免费下载本站所有资源---点这里
新手必看:资源下载、资源播放、字幕使用、等常见问题---点这里
回复 支持 反对

使用道具 举报

 成长值: 2965

发表于 2019-1-11 18:28:32 | 显示全部楼层
感谢。。。。。。感谢你的分享。。。。。。。赞。。。。。。。
开通VIP免费下载本站所有资源---点这里
新手必看:资源下载、资源播放、字幕使用、等常见问题---点这里
回复 支持 反对

使用道具 举报

发表于 2019-1-11 21:22:51 | 显示全部楼层
谢谢楼主分享
开通VIP免费下载本站所有资源---点这里
新手必看:资源下载、资源播放、字幕使用、等常见问题---点这里
回复 支持 反对

使用道具 举报

发表于 2019-1-12 07:26:10 | 显示全部楼层
楼主发贴辛苦了,谢谢楼主分享!我觉得蓝光电影网是注册对了!
开通VIP免费下载本站所有资源---点这里
新手必看:资源下载、资源播放、字幕使用、等常见问题---点这里
回复 支持 反对

使用道具 举报

发表于 2019-1-12 07:50:33 | 显示全部楼层

既然你诚信诚意的推荐了,那我就勉为其难的看看吧!蓝光电影网不走平凡路。
开通VIP免费下载本站所有资源---点这里
新手必看:资源下载、资源播放、字幕使用、等常见问题---点这里
回复 支持 反对

使用道具 举报

发表于 2019-1-12 14:43:41 | 显示全部楼层
另一个主角是 对迈克尔·麦尔斯案子特别感兴趣的警察蓝光电影网不走平凡路。
开通VIP免费下载本站所有资源---点这里
新手必看:资源下载、资源播放、字幕使用、等常见问题---点这里
回复 支持 反对

使用道具 举报

懒得打字嘛,点击右侧快捷回复 【右侧内容,后台自定义】
您需要登录后才可以回帖 登录 | 立即加入

本版积分规则

现在加入蓝光电影网,注册一个账号

QQ| 手机版|小黑屋| 蓝光电影网 |网站地图

Copyright © 2015-2019 Comsenz Inc.  Template by 蓝光电影网 All Rights Reserved.

Powered by 蓝光电影网 X3.4

特别声明:本站所有资源均由网上收集而来,版权归原影音公司所有,如果侵犯了你的权益,请通知我们,我们会及时删除侵权内容.

快速回复 返回顶部 返回列表