找回密码

蓝光电影网

查看: 334|回复: 7

月光光心慌慌/月光光新慌慌 Halloween.2018.2160p.BluRay.x265.10bit.SDR.DTS-X.7.1-SWTYBLZ 28.03GB

[复制链接]
  • TA的每日心情
    开心
    17 小时前
  • 签到天数: 117 天

    [LV.6]常住居民II

     成长值: 19555

    发表于 2019-1-11 10:12:20 | 显示全部楼层 |阅读模式

    马上注册,获取最新影视资讯,享用更多功能,让你轻松玩转蓝光电影网。

    您需要 登录 才可以下载或查看,没有帐号?立即加入

    x

    月光光心慌慌/月光光新慌慌 Halloween.2018.2160p.BluRay.x265.10bit.SDR.DTS-X.7.1-SWTYBLZ 28.03GB-1.jpg
    ◎译  名 月光光心慌慌 / 月光光新慌慌(台) / 万圣节归来 / 万圣节11 / Halloween 3-D / Halloween Returns / Halloween III
    ◎片  名 月光光心慌慌 Halloween
    ◎年  代 2018
    ◎国  家 美国
    ◎类  别 惊悚 / 恐怖
    ◎语  言 英语
    ◎上映日期 2018-09-08(多伦多电影节) / 2018-10-19(美国)
    ◎IMDb评分  6.8/10 from 65,770 users
    ◎IMDb链接  http://www.imdb.com/title/tt1502407/
    ◎豆瓣评分 6.0/10 from 9679 users
    ◎豆瓣链接 https://movie.douban.com/subject/4017146/
    ◎片  长 106分钟
    ◎导  演 大卫·戈登·格林
    ◎主  演 杰米·李·柯蒂斯
          朱迪·格雷尔
          安迪·马蒂切克
          詹姆斯·裘德·柯特尼
          尼克·卡斯特尔
          哈鲁克·比尔根纳尔
          威尔·帕顿
          里安·里斯
          杰佛逊·豪尔
          托比·胡斯
          维吉尼亚·加德纳
          Dylan Arnold
          迈尔斯·罗宾斯
          Drew Scheid
          Jibrail Nantambu
          Michael 'Mick' Harrity
          Matthew Anderson
          奥马尔·J·多尔西
          克里斯托弗· 艾伦·尼尔森
          PJ·索尔丝
          Sandy Johnson
          乔恩·埃里克·海克瑟姆
          Meeno Peluce
          Jared Moser
          Rob Niter

    ◎简  介 

      著名杀人狂迈克尔·麦尔斯(Michael Myers)又回来了!帝门影业与特兰卡斯影业将再次推出全新的《万圣节》(月光光心慌慌)续篇——《万圣节归来》,这也是该系列第11部影片。影片的主角主要是一个18岁的男孩,他是曾惨死在迈克尔·麦尔斯手下的受害者的后代,另一个主角是 对迈克尔·麦尔斯案子特别感兴趣的警察,甚至把这个案子看得比自己女儿还重要。迈克尔·麦尔斯身陷死牢等着被执行死刑,但他意外脱身,又有一群年轻人陷入危险中。
      韦恩斯坦影业的副主席鲍勃·韦恩斯坦表示:“迈克尔·麦尔斯已经告别大银幕很久了,影迷们期盼着他的回归。我们希望借此机会创作出一部最吓人的续集奉献给全世界的粉丝们。”
      该片将于7月正式开拍制作,并于2018年万圣节档登陆北美。

    ◎获奖情况 

      第43届多伦多国际电影节 (2018)
      观众选择奖 午夜疯狂单元(提名)

      第24届美国评论家选择电影奖 (2019)
      最佳科幻/恐怖片(提名)

    • Video
    • ID                                       : 1
    • Format                                   : HEVC
    • Format/Info                              : High Efficiency Video Coding
    • Format profile                           : Main [email protected]@High
    • Codec ID                                 : V_MPEGH/ISO/HEVC
    • Duration                                 : 1 h 45 min
    • Bit rate                                 : 31.6 Mb/s
    • Width                                    : 3 840 pixels
    • Height                                   : 1 606 pixels
    • Display aspect ratio                     : 2.40:1
    • Frame rate mode                          : Constant
    • Frame rate                               : 23.976 (24000/1001) FPS
    • Color space                              : YUV
    • Chroma subsampling                       : 4:2:0
    • Bit depth                                : 10 bits
    • Bits/(Pixel*Frame)                       : 0.214
    • Stream size                              : 23.4 GiB (84%)
    • Title                                    : Halloween.2018.2160p.BluRay.x265.10bit.SDR.DTS-X.7.1-SWTYBLZ
    • Writing library                          : x265 2.9+8-27d8424c799d:[Windows][GCC 8.2.0][64 bit] 10bit
    • Encoding settings                        : cpuid=1111039 / frame-threads=16 / numa-pools=20 / wpp / no-pmode / no-pme / no-psnr / no-ssim / log-level=2 / input-csp=1 / input-res=3840x1606 / interlace=0 / total-frames=152184 / level-idc=51 / high-tier=1 / uhd-bd=0 / ref=3 / no-allow-non-conformance / repeat-headers / annexb / aud / hrd / info / hash=0 / no-temporal-layers / no-open-gop / min-keyint=1 / keyint=24 / gop-lookahead=0 / bframes=4 / b-adapt=2 / b-pyramid / bframe-bias=0 / rc-lookahead=25 / lookahead-slices=4 / scenecut=40 / radl=0 / no-intra-refresh / ctu=64 / min-cu-size=8 / no-rect / no-amp / max-tu-size=32 / tu-inter-depth=1 / tu-intra-depth=1 / limit-tu=0 / rdoq-level=0 / dynamic-rd=0.00 / no-ssim-rd / signhide / no-tskip / nr-intra=0 / nr-inter=0 / no-constrained-intra / strong-intra-smoothing / max-merge=2 / limit-refs=3 / no-limit-modes / me=1 / subme=2 / merange=57 / temporal-mvp / weightp / no-weightb / no-analyze-src-pics / deblock=0:0 / no-sao / no-sao-non-deblock / rd=3 / no-early-skip / rskip / no-fast-intra / no-tskip-fast / no-cu-lossless / no-b-intra / no-splitrd-skip / rdpenalty=0 / psy-rd=2.00 / psy-rdoq=0.00 / no-rd-refine / no-lossless / cbqpoffs=0 / crqpoffs=0 / rc=crf / crf=16.0 / qcomp=0.60 / qpstep=4 / stats-write=0 / stats-read=0 / vbv-maxrate=160000 / vbv-bufsize=160000 / vbv-init=0.9 / crf-max=0.0 / crf-min=0.0 / ipratio=1.40 / pbratio=1.30 / aq-mode=1 / aq-strength=1.00 / cutree / zone-count=0 / no-strict-cbr / qg-size=32 / no-rc-grain / qpmax=69 / qpmin=0 / no-const-vbv / sar=1 / overscan=0 / videoformat=5 / range=0 / colorprim=2 / transfer=2 / colormatrix=2 / chromaloc=0 / display-window=0 / max-cll=0,0 / min-luma=0 / max-luma=1023 / log2-max-poc-lsb=8 / vui-timing-info / vui-hrd-info / slices=1 / opt-qp-pps / opt-ref-list-length-pps / no-multi-pass-opt-rps / scenecut-bias=0.05 / no-opt-cu-delta-qp / no-aq-motion / no-hdr / no-hdr-opt / no-dhdr10-opt / no-idr-recovery-sei / analysis-reuse-level=5 / scale-factor=0 / refine-intra=0 / refine-inter=0 / refine-mv=0 / no-limit-sao / ctu-info=0 / no-lowpass-dct / refine-mv-type=0 / copy-pic=1 / max-ausize-factor=1.0 / no-dynamic-refine / no-single-sei
    • Default                                  : Yes
    • Forced                                   : No
    • Audio #1
    • ID                                       : 2
    • Format                                   : DTS XLL X
    • Format/Info                              : Digital Theater Systems
    • Commercial name                          : DTS-HD Master Audio
    • Codec ID                                 : A_DTS
    • Duration                                 : 1 h 45 min
    • Bit rate mode                            : Variable
    • Bit rate                                 : 5 465 kb/s
    • Channel(s)                               : 8 channels
    • Channel(s)_Original                      : Object Based
    • Channel layout                           : Object Based
    • Sampling rate                            : 48.0 kHz
    • Frame rate                               : 93.750 FPS (512 SPF)
    • Bit depth                                : 24 bits
    • Stream size                              : 4.04 GiB (14%)
    • Title                                    : Halloween.2018.2160p.BluRay.x265.10bit.SDR.DTS-X.7.1-SWTYBLZ
    • Language                                 : English
    • Default                                  : Yes
    • Forced                                   : No
    • Audio #2
    • ID                                       : 3
    • Format                                   : AC-3
    • Format/Info                              : Audio Coding 3
    • Commercial name                          : Dolby Digital
    • Codec ID                                 : A_AC3
    • Duration                                 : 1 h 45 min
    • Bit rate mode                            : Constant
    • Bit rate                                 : 640 kb/s
    • Channel(s)                               : 6 channels
    • Channel layout                           : L R C LFE Ls Rs
    • Sampling rate                            : 48.0 kHz
    • Frame rate                               : 31.250 FPS (1536 SPF)
    • Bit depth                                : 16 bits
    • Compression mode                         : Lossy
    • Stream size                              : 484 MiB (2%)
    • Title                                    : Halloween.2018.2160p.BluRay.x265.10bit.SDR.DTS-X.7.1-SWTYBLZ
    • Language                                 : English
    • Service kind                             : Complete Main
    • Default                                  : No
    • Forced                                   : No
    • Text #1
    • ID                                       : 4
    • Format                                   : UTF-8
    • Codec ID                                 : S_TEXT/UTF8
    • Codec ID/Info                            : UTF-8 Plain Text
    • Duration                                 : 1 h 38 min
    • Bit rate                                 : 52 b/s
    • Count of elements                        : 1169
    • Stream size                              : 38.0 KiB (0%)
    • Title                                    : English-SRT
    • Language                                 : English
    • Default                                  : Yes
    • Forced                                   : No
    • Text #2
    • ID                                       : 5
    • Format                                   : PGS
    • Muxing mode                              : zlib
    • Codec ID                                 : S_HDMV/PGS
    • Codec ID/Info                            : Picture based subtitle format used on BDs/HD-DVDs
    • Duration                                 : 1 h 44 min
    • Bit rate                                 : 42.8 kb/s
    • Count of elements                        : 3064
    • Stream size                              : 32.0 MiB (0%)
    • Title                                    : English-PGS
    • Language                                 : English
    • Default                                  : No
    • Forced                                   : No
    • Text #3
    • ID                                       : 6
    • Format                                   : PGS
    • Muxing mode                              : zlib
    • Codec ID                                 : S_HDMV/PGS
    • Codec ID/Info                            : Picture based subtitle format used on BDs/HD-DVDs
    • Duration                                 : 1 h 44 min
    • Bit rate                                 : 29.1 kb/s
    • Count of elements                        : 2306
    • Stream size                              : 21.7 MiB (0%)
    • Title                                    : Spanish-PGS
    • Language                                 : Spanish
    • Default                                  : No
    • Forced                                   : No
    • Text #4
    • ID                                       : 7
    • Format                                   : PGS
    • Muxing mode                              : zlib
    • Codec ID                                 : S_HDMV/PGS
    • Codec ID/Info                            : Picture based subtitle format used on BDs/HD-DVDs
    • Duration                                 : 1 h 44 min
    • Bit rate                                 : 29.0 kb/s
    • Count of elements                        : 2332
    • Stream size                              : 21.6 MiB (0%)
    • Title                                    : French-PGS
    • Language                                 : French
    • Default                                  : No
    • Forced                                   : No
    • Menu
    • 00:00:00.000                             : :Chapter 1
    • 00:08:42.522                             : :Chapter 2
    • 00:14:26.949                             : :Chapter 3
    • 00:20:46.995                             : :Chapter 4
    • 00:23:17.854                             : :Chapter 5
    • 00:27:45.080                             : :Chapter 6
    • 00:32:55.723                             : :Chapter 7
    • 00:40:51.365                             : :Chapter 8
    • 00:44:41.053                             : :Chapter 9
    • 00:48:26.403                             : :Chapter 10
    • 00:53:26.453                             : :Chapter 11
    • 00:59:18.596                             : :Chapter 12
    • 01:03:22.340                             : :Chapter 13
    • 01:07:29.628                             : :Chapter 14
    • 01:14:46.523                             : :Chapter 15
    • 01:18:10.560                             : :Chapter 16
    • 01:22:04.836                             : :Chapter 17
    • 01:30:09.904                             : :Chapter 18
    • 01:35:33.394                             : :Chapter 19
    • 01:40:41.493                             : :Chapter 20

    复制代码

    月光光心慌慌/月光光新慌慌 Halloween.2018.2160p.BluRay.x265.10bit.SDR.DTS-X.7.1-SWTYBLZ 28.03GB-2.png 月光光心慌慌/月光光新慌慌 Halloween.2018.2160p.BluRay.x265.10bit.SDR.DTS-X.7.1-SWTYBLZ 28.03GB-3.png 月光光心慌慌/月光光新慌慌 Halloween.2018.2160p.BluRay.x265.10bit.SDR.DTS-X.7.1-SWTYBLZ 28.03GB-4.png 月光光心慌慌/月光光新慌慌 Halloween.2018.2160p.BluRay.x265.10bit.SDR.DTS-X.7.1-SWTYBLZ 28.03GB-5.png 月光光心慌慌/月光光新慌慌 Halloween.2018.2160p.BluRay.x265.10bit.SDR.DTS-X.7.1-SWTYBLZ 28.03GB-6.png 月光光心慌慌/月光光新慌慌 Halloween.2018.2160p.BluRay.x265.10bit.SDR.DTS-X.7.1-SWTYBLZ 28.03GB-7.png






    Halloween.2018.2160p.BluRay.x265.10bit.SDR.DTS-X.7.1-SWTYBLZ.torrent (70.67 KB, 下载次数: 25)
    开通VIP免费下载本站所有资源---点这里
    新手必看:资源下载、资源播放、字幕使用、等常见问题---点这里
    回复

    使用道具 举报

  • TA的每日心情
    开心
    前天 14:31
  • 签到天数: 84 天

    [LV.6]常住居民II

    发表于 2019-1-12 07:24:26 | 显示全部楼层

    感谢楼主的无私分享!要想蓝光电影网好 就靠你我他
    开通VIP免费下载本站所有资源---点这里
    新手必看:资源下载、资源播放、字幕使用、等常见问题---点这里
    回复 支持 反对

    使用道具 举报

  • TA的每日心情
    开心
    10 小时前
  • 签到天数: 96 天

    [LV.6]常住居民II

    发表于 2019-1-12 14:52:45 | 显示全部楼层
    楼主发贴辛苦了,谢谢楼主分享!我觉得蓝光电影网是注册对了!
    [发帖际遇]: linlida 乐于助人,奖励 1 蓝光币. 幸运榜 / 衰神榜
    开通VIP免费下载本站所有资源---点这里
    新手必看:资源下载、资源播放、字幕使用、等常见问题---点这里
    回复 支持 反对

    使用道具 举报

  • TA的每日心情
    开心
    2019-3-3 15:16
  • 签到天数: 42 天

    [LV.5]常住居民I

    发表于 2019-1-13 13:45:10 | 显示全部楼层
    多谢分享,好电影大家看
    [发帖际遇]: kzxzl 发帖时在路边捡到 1 蓝光币,偷偷放进了口袋. 幸运榜 / 衰神榜
    开通VIP免费下载本站所有资源---点这里
    新手必看:资源下载、资源播放、字幕使用、等常见问题---点这里
    回复 支持 反对

    使用道具 举报

  • TA的每日心情
    无聊
    昨天 20:36
  • 签到天数: 54 天

    [LV.5]常住居民I

    发表于 2019-1-15 15:53:56 | 显示全部楼层

    这个帖子不回对不起自己!我想我是一天也不能离开蓝光电影网
    开通VIP免费下载本站所有资源---点这里
    新手必看:资源下载、资源播放、字幕使用、等常见问题---点这里
    回复 支持 反对

    使用道具 举报

  • TA的每日心情
    郁闷
    2019-2-27 22:12
  • 签到天数: 8 天

    [LV.3]偶尔看看II

    发表于 2019-1-15 22:12:42 | 显示全部楼层
    谢谢分享111
    开通VIP免费下载本站所有资源---点这里
    新手必看:资源下载、资源播放、字幕使用、等常见问题---点这里
    回复 支持 反对

    使用道具 举报

  • TA的每日心情
    奋斗
    2019-1-15 22:30
  • 签到天数: 20 天

    [LV.4]偶尔看看III

    发表于 2019-1-15 22:30:55 | 显示全部楼层
    真是没有想到,这种老梗,还在挣钱啊
    [发帖际遇]: kentaro80 发帖时在路边捡到 2 蓝光币,偷偷放进了口袋. 幸运榜 / 衰神榜
    开通VIP免费下载本站所有资源---点这里
    新手必看:资源下载、资源播放、字幕使用、等常见问题---点这里
    回复 支持 反对

    使用道具 举报

  • TA的每日心情
    开心
    昨天 21:19
  • 签到天数: 98 天

    [LV.6]常住居民II

    发表于 2019-1-15 23:01:23 | 显示全部楼层
    楼主发贴辛苦了,谢谢楼主分享!我觉得蓝光电影网是注册对了!
    [发帖际遇]: aya85058 发帖时在路边捡到 1 蓝光币,偷偷放进了口袋. 幸运榜 / 衰神榜
    开通VIP免费下载本站所有资源---点这里
    新手必看:资源下载、资源播放、字幕使用、等常见问题---点这里
    回复 支持 反对

    使用道具 举报

    *滑动验证:
    懒得打字嘛,点击右侧快捷回复 【右侧内容,后台自定义】
    您需要登录后才可以回帖 登录 | 立即加入

    本版积分规则

    现在加入蓝光电影网,注册一个账号

    QQ| 手机版|小黑屋| 蓝光电影网 |网站地图

    Copyright © 20013-2018 Comsenz Inc.  Template by 蓝光电影论坛 All Rights Reserved.

    Powered by 高清电影网 X3.4
    特别声明:本站所有资源均由网上收集而来,版权归原影音公司所有,如果侵犯了你的权益,请通知我们,我们会及时删除侵权内容.

    快速回复 返回顶部 返回列表