找回密码

蓝光电影网

查看: 295|回复: 16

驯龙高手2/驯龙记2 How.to.Train.Your.Dragon.2.2014.2160p.UHD.BluRay.X265.10bit.HDR.DTS-X.7.1-IAMABLE 10.30GB

[复制链接]
  • TA的每日心情
    开心
    6 小时前
  • 签到天数: 61 天

    [LV.6]常住居民II

     成长值: 18685

    发表于 2019-1-11 10:11:17 | 显示全部楼层 |阅读模式

    马上注册,获取最新影视资讯,享用更多功能,让你轻松玩转蓝光电影网。

    您需要 登录 才可以下载或查看,没有帐号?立即加入

    x

    驯龙高手2/驯龙记2 How.to.Train.Your.Dragon.2.2014.2160p.UHD.BluRay.X265.10bit.HDR.DTS-X.7.1-IAMABLE 10.30GB-1.jpg
    ◎译  名 驯龙高手2 / 驯龙记2(港)
    ◎片  名 驯龙高手2 How to Train Your Dragon 2
    ◎年  代 2014
    ◎国  家 美国
    ◎类  别 喜剧 / 动画 / 奇幻 / 冒险
    ◎语  言 英语
    ◎上映日期 2014-08-14(中国大陆) / 2014-05-16(戛纳电影节) / 2014-06-13(美国)
    ◎IMDb评分  7.8/10 from 263,698 users
    ◎IMDb链接  http://www.imdb.com/title/tt1646971/
    ◎豆瓣评分 7.9/10 from 157412 users
    ◎豆瓣链接 https://movie.douban.com/subject/4824512/
    ◎片  长 102分钟
    ◎导  演 迪恩·德布洛斯
    ◎主  演 杰伊·巴鲁切尔
          凯特·布兰切特
          杰拉德·巴特勒
          克雷格·费格森
          亚美莉卡·费雷拉
          乔纳·希尔
          克里斯托夫·梅兹-普莱瑟
          T·J·米勒
          克里斯汀·韦格
          杰曼·翰苏
          基特·哈灵顿
          基隆·埃利奥特
          菲利普·麦格雷德
          安德鲁·埃布尔森
          吉迪恩·埃默里
          西蒙·卡斯安德斯
          兰迪·汤姆

    ◎简  介 

      年轻英勇的维京勇士小嗝嗝 (杰伊·巴鲁切尔 Jay Baruchel 配音)驯服受伤的龙,更与它成为好友。经过五年时间,博克岛居民的生活彻底渗入龙的气息。博克岛现已是个维京人与龙和平共存的天堂。
      然而,成长却意味着责任。为了寻找答案,小嗝嗝与忠诚的没牙仔开始了他们的冒险旅程,但结果却超乎预料。一方面,小嗝嗝发现神秘的驯龙骑士,正是失踪多年的亲母沃尔卡(凯特·布兰切特 Cate Blanchett 配音);另一方面,嗜权的德雷格(杰曼·翰苏 Djimon Hounsou 配音)与龙猎人埃雷特(基特·哈灵顿 Kit Harington 配音)结盟,威胁到博克岛上人与龙的和平。
      为了保护深受大家喜爱的龙,阿丝翠德(亚美莉卡·费雷拉 America Ferrera 配音)、高博(克雷格·费格森 Craig Ferguson 配音),维京伙伴们:鼻涕虫(乔纳·希尔 Jonah Hill 配音)、鱼脚司(克里斯托夫·梅兹-普莱瑟 Christopher Mintz-Plasse 配音)及双胞胎拉芙纳特(克里斯汀·韦格 Kristen Wiig 配音)、特夫纳特(托德·约瑟夫·米勒 T.J. Miller 配音)都出手相助,加上小嗝嗝、身为部族的首领的父亲斯多戈(杰拉德·巴特勒 Gerard Butler 配音)及母亲连手合作。在这期间,小嗝嗝一直追寻的答案就在不知不觉以意想不到的方式出现了……

    ◎获奖情况 

      第87届奥斯卡金像奖 (2015)
      最佳动画长片(提名) 邦妮·阿诺德 /  迪恩·德布洛斯

      第72届金球奖 (2015)
      电影类 最佳动画长片

      第42届动画安妮奖 (2015)
      最佳动画长片
      最佳导演 迪恩·德布洛斯
      最佳编剧(提名) 迪恩·德布洛斯
      最佳配乐 Jon Thor Birgisson /  约翰·鲍威尔
      最佳剪辑 约翰·K·凯尔
      最佳分镜
      最佳动画角色 Fabio Lignini
      最佳动画角色(提名) Steven Hornby
      最佳动画效果(提名) Tobin Jones

      第86届美国国家评论协会奖 (2014)
      最佳动画片

      第18届好莱坞电影奖 (2014)
      年度动画

      第13届华盛顿影评人协会奖 (2014)
      最佳动画片(提名)

      第27届芝加哥影评人协会奖 (2014)
      最佳动画片(提名)

      第18届美国在线影评人协会奖 (2014)
      最佳动画片(提名)

      第16届美国青少年选择奖 (2014)
      最佳动画片(提名)
      最佳动画配音(提名) 凯特·布兰切特

      第1届豆瓣电影年度榜单 (2014)
      评分最高的动画片(提名)
      8月最受关注电影

    • Video
    • ID                                       : 1
    • Format                                   : HEVC
    • Format/Info                              : High Efficiency Video Coding
    • Commercial name                          : HDR10
    • Format profile                           : Main [email protected]@High
    • Codec ID                                 : V_MPEGH/ISO/HEVC
    • Duration                                 : 1 h 41 min
    • Bit rate                                 : 7 511 kb/s
    • Width                                    : 3 840 pixels
    • Height                                   : 1 628 pixels
    • Display aspect ratio                     : 2.35:1
    • Frame rate mode                          : Constant
    • Frame rate                               : 23.976 (24000/1001) FPS
    • Color space                              : YUV
    • Chroma subsampling                       : 4:2:0 (Type 2)
    • Bit depth                                : 10 bits
    • Bits/(Pixel*Frame)                       : 0.050
    • Stream size                              : 5.35 GiB (52%)
    • Writing library                          : x265 2.9+8-27d8424c799d:[Windows][MSVC 1900][64 bit] 10bit
    • Encoding settings                        : cpuid=1176575 / frame-threads=5 / numa-pools=36 / wpp / no-pmode / no-pme / no-psnr / no-ssim / log-level=2 / input-csp=1 / input-res=3840x1628 / interlace=0 / total-frames=146604 / level-idc=51 / high-tier=1 / uhd-bd=0 / ref=4 / no-allow-non-conformance / repeat-headers / annexb / aud / hrd / info / hash=0 / no-temporal-layers / no-open-gop / min-keyint=24 / keyint=240 / gop-lookahead=0 / bframes=4 / b-adapt=2 / b-pyramid / bframe-bias=0 / rc-lookahead=25 / lookahead-slices=4 / scenecut=40 / radl=0 / no-intra-refresh / ctu=64 / min-cu-size=8 / rect / no-amp / max-tu-size=32 / tu-inter-depth=1 / tu-intra-depth=1 / limit-tu=0 / rdoq-level=2 / dynamic-rd=0.00 / no-ssim-rd / signhide / no-tskip / nr-intra=0 / nr-inter=0 / no-constrained-intra / no-strong-intra-smoothing / max-merge=3 / limit-refs=3 / limit-modes / me=3 / subme=3 / merange=57 / temporal-mvp / weightp / no-weightb / no-analyze-src-pics / deblock=-3:-3 / no-sao / no-sao-non-deblock / rd=4 / no-early-skip / rskip / no-fast-intra / no-tskip-fast / no-cu-lossless / no-b-intra / no-splitrd-skip / rdpenalty=0 / psy-rd=2.00 / psy-rdoq=1.00 / no-rd-refine / no-lossless / cbqpoffs=0 / crqpoffs=0 / rc=crf / crf=17.0 / qcomp=0.60 / qpstep=4 / stats-write=0 / stats-read=0 / vbv-maxrate=160000 / vbv-bufsize=160000 / vbv-init=0.9 / crf-max=0.0 / crf-min=0.0 / ipratio=1.40 / pbratio=1.30 / aq-mode=1 / aq-strength=1.00 / cutree / zone-count=0 / no-strict-cbr / qg-size=32 / no-rc-grain / qpmax=69 / qpmin=0 / no-const-vbv / sar=1 / overscan=0 / videoformat=5 / range=0 / colorprim=9 / transfer=16 / colormatrix=9 / chromaloc=1 / chromaloc-top=2 / chromaloc-bottom=2 / display-window=0 / master-display=G(13250,34500)B(7500,3000)R(34000,16000)WP(15635,16450)L(10000000,50) / max-cll=922,239 / min-luma=0 / max-luma=1023 / log2-max-poc-lsb=8 / vui-timing-info / vui-hrd-info / slices=1 / no-opt-qp-pps / no-opt-ref-list-length-pps / no-multi-pass-opt-rps / scenecut-bias=0.05 / no-opt-cu-delta-qp / no-aq-motion / hdr / hdr-opt / no-dhdr10-opt / no-idr-recovery-sei / analysis-reuse-level=5 / scale-factor=0 / refine-intra=0 / refine-inter=0 / refine-mv=0 / no-limit-sao / ctu-info=0 / no-lowpass-dct / refine-mv-type=0 / copy-pic=1 / max-ausize-factor=1.0 / no-dynamic-refine / no-single-sei
    • Default                                  : Yes
    • Forced                                   : No
    • Color range                              : Limited
    • Color primaries                          : BT.2020
    • Transfer characteristics                 : PQ
    • Matrix coefficients                      : BT.2020 non-constant
    • Mastering display color primaries        : Display P3
    • Mastering display luminance              : min: 0.0050 cd/m2, max: 1000 cd/m2
    • Maximum Content Light Level              : 922 cd/m2
    • Maximum Frame-Average Light Level        : 239 cd/m2
    • Audio #1
    • ID                                       : 2
    • Format                                   : DTS XLL X
    • Format/Info                              : Digital Theater Systems
    • Commercial name                          : DTS-HD Master Audio
    • Codec ID                                 : A_DTS
    • Duration                                 : 1 h 41 min
    • Bit rate mode                            : Variable
    • Bit rate                                 : 6 553 kb/s
    • Channel(s)                               : 8 channels
    • Channel(s)_Original                      : Object Based
    • Channel layout                           : Object Based
    • Sampling rate                            : 48.0 kHz
    • Frame rate                               : 93.750 FPS (512 SPF)
    • Bit depth                                : 24 bits
    • Stream size                              : 4.66 GiB (45%)
    • Title                                    : DTS-HD MA 7.1
    • Language                                 : English
    • Default                                  : Yes
    • Forced                                   : No
    • Audio #2
    • ID                                       : 3
    • Format                                   : AC-3
    • Format/Info                              : Audio Coding 3
    • Commercial name                          : Dolby Digital
    • Codec ID                                 : A_AC3
    • Duration                                 : 1 h 41 min
    • Bit rate mode                            : Constant
    • Bit rate                                 : 192 kb/s
    • Channel(s)                               : 2 channels
    • Channel layout                           : L R
    • Sampling rate                            : 48.0 kHz
    • Frame rate                               : 31.250 FPS (1536 SPF)
    • Bit depth                                : 16 bits
    • Compression mode                         : Lossy
    • Stream size                              : 140 MiB (1%)
    • Title                                    : Commentary with Screenwriter/director Dean DeBlois, head of character animation/story artist Simon Otto, producer Bonnie Arnold, and production designer Pierre-Olivier Vincent
    • Language                                 : English
    • Service kind                             : Complete Main
    • Default                                  : No
    • Forced                                   : No
    • Text #1
    • ID                                       : 4
    • Format                                   : UTF-8
    • Codec ID                                 : S_TEXT/UTF8
    • Codec ID/Info                            : UTF-8 Plain Text
    • Duration                                 : 1 h 31 min
    • Bit rate                                 : 51 b/s
    • Count of elements                        : 1374
    • Stream size                              : 34.2 KiB (0%)
    • Title                                    : Stripped SRT
    • Language                                 : English
    • Default                                  : No
    • Forced                                   : No
    • Text #2
    • ID                                       : 5
    • Format                                   : UTF-8
    • Codec ID                                 : S_TEXT/UTF8
    • Codec ID/Info                            : UTF-8 Plain Text
    • Duration                                 : 1 h 40 min
    • Bit rate                                 : 60 b/s
    • Count of elements                        : 1935
    • Stream size                              : 44.8 KiB (0%)
    • Title                                    : SDH SRT
    • Language                                 : English
    • Default                                  : No
    • Forced                                   : No
    • Text #3
    • ID                                       : 6
    • Format                                   : PGS
    • Muxing mode                              : zlib
    • Codec ID                                 : S_HDMV/PGS
    • Codec ID/Info                            : Picture based subtitle format used on BDs/HD-DVDs
    • Duration                                 : 1 h 40 min
    • Bit rate                                 : 46.0 kb/s
    • Count of elements                        : 3870
    • Stream size                              : 33.1 MiB (0%)
    • Title                                    : SDH
    • Language                                 : English
    • Default                                  : No
    • Forced                                   : No
    • Text #4
    • ID                                       : 7
    • Format                                   : PGS
    • Muxing mode                              : zlib
    • Codec ID                                 : S_HDMV/PGS
    • Codec ID/Info                            : Picture based subtitle format used on BDs/HD-DVDs
    • Duration                                 : 1 h 33 min
    • Bit rate                                 : 81.1 kb/s
    • Count of elements                        : 3227
    • Stream size                              : 54.0 MiB (1%)
    • Title                                    : Commentary with Screenwriter/director Dean DeBlois, head of character animation/story artist Simon Otto, producer Bonnie Arnold, and production designer Pierre-Olivier Vincent
    • Language                                 : English
    • Default                                  : No
    • Forced                                   : No
    • Text #5
    • ID                                       : 8
    • Format                                   : PGS
    • Muxing mode                              : zlib
    • Codec ID                                 : S_HDMV/PGS
    • Codec ID/Info                            : Picture based subtitle format used on BDs/HD-DVDs
    • Duration                                 : 1 h 40 min
    • Bit rate                                 : 32.3 kb/s
    • Count of elements                        : 2302
    • Stream size                              : 23.2 MiB (0%)
    • Language                                 : Spanish
    • Default                                  : No
    • Forced                                   : No
    • Text #6
    • ID                                       : 9
    • Format                                   : PGS
    • Muxing mode                              : zlib
    • Codec ID                                 : S_HDMV/PGS
    • Codec ID/Info                            : Picture based subtitle format used on BDs/HD-DVDs
    • Duration                                 : 9 min 24 s
    • Bit rate                                 : 449 b/s
    • Count of elements                        : 4
    • Stream size                              : 30.9 KiB (0%)
    • Language                                 : Catalan
    • Default                                  : No
    • Forced                                   : No
    • Text #7
    • ID                                       : 10
    • Format                                   : PGS
    • Muxing mode                              : zlib
    • Codec ID                                 : S_HDMV/PGS
    • Codec ID/Info                            : Picture based subtitle format used on BDs/HD-DVDs
    • Duration                                 : 1 h 40 min
    • Bit rate                                 : 33.1 kb/s
    • Count of elements                        : 2228
    • Stream size                              : 23.8 MiB (0%)
    • Language                                 : Portuguese
    • Default                                  : No
    • Forced                                   : No
    • Text #8
    • ID                                       : 11
    • Format                                   : PGS
    • Muxing mode                              : zlib
    • Codec ID                                 : S_HDMV/PGS
    • Codec ID/Info                            : Picture based subtitle format used on BDs/HD-DVDs
    • Duration                                 : 1 h 40 min
    • Bit rate                                 : 31.4 kb/s
    • Count of elements                        : 2252
    • Stream size                              : 22.6 MiB (0%)
    • Language                                 : Italian
    • Default                                  : No
    • Forced                                   : No
    • Text #9
    • ID                                       : 12
    • Format                                   : PGS
    • Muxing mode                              : zlib
    • Codec ID                                 : S_HDMV/PGS
    • Codec ID/Info                            : Picture based subtitle format used on BDs/HD-DVDs
    • Duration                                 : 1 h 40 min
    • Bit rate                                 : 28.9 kb/s
    • Count of elements                        : 2292
    • Stream size                              : 20.8 MiB (0%)
    • Language                                 : Czech
    • Default                                  : No
    • Forced                                   : No
    • Text #10
    • ID                                       : 13
    • Format                                   : PGS
    • Muxing mode                              : zlib
    • Codec ID                                 : S_HDMV/PGS
    • Codec ID/Info                            : Picture based subtitle format used on BDs/HD-DVDs
    • Duration                                 : 1 h 40 min
    • Bit rate                                 : 31.0 kb/s
    • Count of elements                        : 2238
    • Stream size                              : 22.3 MiB (0%)
    • Language                                 : Polish
    • Default                                  : No
    • Forced                                   : No
    • Text #11
    • ID                                       : 14
    • Format                                   : PGS
    • Muxing mode                              : zlib
    • Codec ID                                 : S_HDMV/PGS
    • Codec ID/Info                            : Picture based subtitle format used on BDs/HD-DVDs
    • Duration                                 : 1 h 40 min
    • Bit rate                                 : 30.6 kb/s
    • Count of elements                        : 1868
    • Stream size                              : 22.0 MiB (0%)
    • Language                                 : Hungarian
    • Default                                  : No
    • Forced                                   : No
    • Menu
    • 00:00:00.000                             : :Chapter 01
    • 00:03:31.920                             : :Chapter 02
    • 00:05:24.616                             : :Chapter 03
    • 00:07:49.928                             : :Chapter 04
    • 00:10:19.953                             : :Chapter 05
    • 00:13:20.258                             : :Chapter 06
    • 00:17:02.980                             : :Chapter 07
    • 00:20:05.621                             : :Chapter 08
    • 00:23:47.176                             : :Chapter 09
    • 00:27:18.387                             : :Chapter 10
    • 00:29:25.389                             : :Chapter 11
    • 00:33:45.857                             : :Chapter 12
    • 00:37:09.394                             : :Chapter 13
    • 00:39:10.890                             : :Chapter 14
    • 00:41:03.086                             : :Chapter 15
    • 00:45:07.914                             : :Chapter 16
    • 00:47:20.546                             : :Chapter 17
    • 00:51:55.446                             : :Chapter 18
    • 00:54:39.651                             : :Chapter 19
    • 00:56:19.918                             : :Chapter 20
    • 01:00:37.092                             : :Chapter 21
    • 01:04:32.702                             : :Chapter 22
    • 01:06:38.870                             : :Chapter 23
    • 01:09:48.059                             : :Chapter 24
    • 01:14:05.024                             : :Chapter 25
    • 01:18:39.048                             : :Chapter 26
    • 01:21:11.075                             : :Chapter 27
    • 01:22:58.974                             : :Chapter 28
    • 01:24:33.986                             : :Chapter 29
    • 01:28:08.575                             : :Chapter 30
    • 01:31:07.420                             : :Chapter 31
    • 01:32:25.915                             : :Chapter 32

    复制代码

    驯龙高手2/驯龙记2 How.to.Train.Your.Dragon.2.2014.2160p.UHD.BluRay.X265.10bit.HDR.DTS-X.7.1-IAMABLE 10.30GB-2.png 驯龙高手2/驯龙记2 How.to.Train.Your.Dragon.2.2014.2160p.UHD.BluRay.X265.10bit.HDR.DTS-X.7.1-IAMABLE 10.30GB-3.png 驯龙高手2/驯龙记2 How.to.Train.Your.Dragon.2.2014.2160p.UHD.BluRay.X265.10bit.HDR.DTS-X.7.1-IAMABLE 10.30GB-4.png





    How.to.Train.Your.Dragon.2.2014.2160p.UHD.BluRay.X265.10bit.HDR.DTS-X.7.1-IAMABLE.torrent (52.25 KB, 下载次数: 35)
    开通VIP免费下载本站所有资源---点这里
    新手必看:资源下载、资源播放、字幕使用、等常见问题---点这里
    回复

    使用道具 举报

    该用户从未签到

    发表于 2019-1-11 14:44:22 | 显示全部楼层
    这个好东西啊  来的是时候
    [发帖际遇]: jinyuanbao1972 发帖时在路边捡到 1 蓝光币,偷偷放进了口袋. 幸运榜 / 衰神榜
    开通VIP免费下载本站所有资源---点这里
    新手必看:资源下载、资源播放、字幕使用、等常见问题---点这里
    回复 支持 反对

    使用道具 举报

    该用户从未签到

    发表于 2019-1-11 17:12:13 | 显示全部楼层

    这个好东西啊  来的是时候
    开通VIP免费下载本站所有资源---点这里
    新手必看:资源下载、资源播放、字幕使用、等常见问题---点这里
    回复 支持 反对

    使用道具 举报

  • TA的每日心情
    开心
    3 天前
  • 签到天数: 4 天

    [LV.2]偶尔看看I

    发表于 2019-1-11 19:10:43 | 显示全部楼层
    驯龙高手2/驯龙记2 How.to.Train.Your.Dragon.2.2014.2160p.UHD.BluRay.X265.10bit.HDR.DTS-X.7.1-IAMABLE 10.30G 下一季在哪里
    开通VIP免费下载本站所有资源---点这里
    新手必看:资源下载、资源播放、字幕使用、等常见问题---点这里
    回复 支持 反对

    使用道具 举报

  • TA的每日心情
    开心
    2019-1-12 21:09
  • 签到天数: 16 天

    [LV.4]偶尔看看III

    发表于 2019-1-11 20:28:35 | 显示全部楼层

    我看不错噢 谢谢楼主!蓝光电影网越来越好!
    开通VIP免费下载本站所有资源---点这里
    新手必看:资源下载、资源播放、字幕使用、等常见问题---点这里
    回复 支持 反对

    使用道具 举报

  • TA的每日心情
    开心
    昨天 12:37
  • 签到天数: 63 天

    [LV.6]常住居民II

    发表于 2019-1-11 21:29:08 | 显示全部楼层
    谢谢楼主分享
    开通VIP免费下载本站所有资源---点这里
    新手必看:资源下载、资源播放、字幕使用、等常见问题---点这里
    回复 支持 反对

    使用道具 举报

  • TA的每日心情
    无聊
    昨天 07:15
  • 签到天数: 13 天

    [LV.3]偶尔看看II

    发表于 2019-1-12 08:04:41 | 显示全部楼层
    谢谢楼主分享
    开通VIP免费下载本站所有资源---点这里
    新手必看:资源下载、资源播放、字幕使用、等常见问题---点这里
    回复 支持 反对

    使用道具 举报

  • TA的每日心情
    开心
    2019-1-12 12:46
  • 签到天数: 1 天

    [LV.1]初来乍到

    发表于 2019-1-12 12:53:12 | 显示全部楼层

    感谢楼主的无私分享!要想蓝光电影网好 就靠你我他
    开通VIP免费下载本站所有资源---点这里
    新手必看:资源下载、资源播放、字幕使用、等常见问题---点这里
    回复 支持 反对

    使用道具 举报

  • TA的每日心情
    无聊
    前天 08:16
  • 签到天数: 11 天

    [LV.3]偶尔看看II

    发表于 7 天前 | 显示全部楼层
    6666666666666666
    开通VIP免费下载本站所有资源---点这里
    新手必看:资源下载、资源播放、字幕使用、等常见问题---点这里
    回复 支持 反对

    使用道具 举报

  • TA的每日心情
    开心
    昨天 12:37
  • 签到天数: 63 天

    [LV.6]常住居民II

    发表于 7 天前 | 显示全部楼层
    谢谢楼主分享
    开通VIP免费下载本站所有资源---点这里
    新手必看:资源下载、资源播放、字幕使用、等常见问题---点这里
    回复 支持 反对

    使用道具 举报

    懒得打字嘛,点击右侧快捷回复 【右侧内容,后台自定义】
    您需要登录后才可以回帖 登录 | 立即加入

    本版积分规则

    现在加入蓝光电影网,注册一个账号

    QQ| 手机版|小黑屋| 蓝光电影网 |网站地图

    Copyright © 20013-2018 Comsenz Inc.  Template by 蓝光电影论坛 All Rights Reserved.

    Powered by 高清电影网 X3.4
    特别声明:本站所有资源均由网上收集而来,版权归原影音公司所有,如果侵犯了你的权益,请通知我们,我们会及时删除侵权内容.

    快速回复 返回顶部 返回列表