找回密码

蓝光电影网

查看: 1116|回复: 25

[10bit.HDR] 驯龙高手2/驯龙记2 How.to.Train.Your.Dragon.2.2014.2160p.UHD.BluRay.X265.10bit.HDR.DTS-X.7.1-IAMABLE 10.30GB

[复制链接]

 成长值: 21340

发表于 2019-1-11 10:11:17 | 显示全部楼层 |阅读模式
驯龙高手2/驯龙记2 How.to.Train.Your.Dragon.2.2014.2160p.UHD.BluRay.X265.10bit.HDR.DTS-X.7.1-IAMABLE 10.30GB-1.jpg
◎译  名 驯龙高手2 / 驯龙记2(港)
◎片  名 驯龙高手2 How to Train Your Dragon 2
◎年  代 2014
◎国  家 美国
◎类  别 喜剧 / 动画 / 奇幻 / 冒险
◎语  言 英语
◎上映日期 2014-08-14(中国大陆) / 2014-05-16(戛纳电影节) / 2014-06-13(美国)
◎IMDb评分  7.8/10 from 263,698 users
◎IMDb链接  http://www.imdb.com/title/tt1646971/
◎豆瓣评分 7.9/10 from 157412 users
◎豆瓣链接 https://movie.douban.com/subject/4824512/
◎片  长 102分钟
◎导  演 迪恩·德布洛斯
◎主  演 杰伊·巴鲁切尔
      凯特·布兰切特
      杰拉德·巴特勒
      克雷格·费格森
      亚美莉卡·费雷拉
      乔纳·希尔
      克里斯托夫·梅兹-普莱瑟
      T·J·米勒
      克里斯汀·韦格
      杰曼·翰苏
      基特·哈灵顿
      基隆·埃利奥特
      菲利普·麦格雷德
      安德鲁·埃布尔森
      吉迪恩·埃默里
      西蒙·卡斯安德斯
      兰迪·汤姆

◎简  介 

  年轻英勇的维京勇士小嗝嗝 (杰伊·巴鲁切尔 Jay Baruchel 配音)驯服受伤的龙,更与它成为好友。经过五年时间,博克岛居民的生活彻底渗入龙的气息。博克岛现已是个维京人与龙和平共存的天堂。
  然而,成长却意味着责任。为了寻找答案,小嗝嗝与忠诚的没牙仔开始了他们的冒险旅程,但结果却超乎预料。一方面,小嗝嗝发现神秘的驯龙骑士,正是失踪多年的亲母沃尔卡(凯特·布兰切特 Cate Blanchett 配音);另一方面,嗜权的德雷格(杰曼·翰苏 Djimon Hounsou 配音)与龙猎人埃雷特(基特·哈灵顿 Kit Harington 配音)结盟,威胁到博克岛上人与龙的和平。
  为了保护深受大家喜爱的龙,阿丝翠德(亚美莉卡·费雷拉 America Ferrera 配音)、高博(克雷格·费格森 Craig Ferguson 配音),维京伙伴们:鼻涕虫(乔纳·希尔 Jonah Hill 配音)、鱼脚司(克里斯托夫·梅兹-普莱瑟 Christopher Mintz-Plasse 配音)及双胞胎拉芙纳特(克里斯汀·韦格 Kristen Wiig 配音)、特夫纳特(托德·约瑟夫·米勒 T.J. Miller 配音)都出手相助,加上小嗝嗝、身为部族的首领的父亲斯多戈(杰拉德·巴特勒 Gerard Butler 配音)及母亲连手合作。在这期间,小嗝嗝一直追寻的答案就在不知不觉以意想不到的方式出现了……

◎获奖情况 

  第87届奥斯卡金像奖 (2015)
  最佳动画长片(提名) 邦妮·阿诺德 /  迪恩·德布洛斯

  第72届金球奖 (2015)
  电影类 最佳动画长片

  第42届动画安妮奖 (2015)
  最佳动画长片
  最佳导演 迪恩·德布洛斯
  最佳编剧(提名) 迪恩·德布洛斯
  最佳配乐 Jon Thor Birgisson /  约翰·鲍威尔
  最佳剪辑 约翰·K·凯尔
  最佳分镜
  最佳动画角色 Fabio Lignini
  最佳动画角色(提名) Steven Hornby
  最佳动画效果(提名) Tobin Jones

  第86届美国国家评论协会奖 (2014)
  最佳动画片

  第18届好莱坞电影奖 (2014)
  年度动画

  第13届华盛顿影评人协会奖 (2014)
  最佳动画片(提名)

  第27届芝加哥影评人协会奖 (2014)
  最佳动画片(提名)

  第18届美国在线影评人协会奖 (2014)
  最佳动画片(提名)

  第16届美国青少年选择奖 (2014)
  最佳动画片(提名)
  最佳动画配音(提名) 凯特·布兰切特

  第1届豆瓣电影年度榜单 (2014)
  评分最高的动画片(提名)
  8月最受关注电影


  1. Video
  2. ID                                       : 1
  3. Format                                   : HEVC
  4. Format/Info                              : High Efficiency Video Coding
  5. Commercial name                          : HDR10
  6. Format profile                           : Main [url=/cdn-cgi/l/email-protection][email protected][/url]@High
  7. Codec ID                                 : V_MPEGH/ISO/HEVC
  8. Duration                                 : 1 h 41 min
  9. Bit rate                                 : 7 511 kb/s
  10. Width                                    : 3 840 pixels
  11. Height                                   : 1 628 pixels
  12. Display aspect ratio                     : 2.35:1
  13. Frame rate mode                          : Constant
  14. Frame rate                               : 23.976 (24000/1001) FPS
  15. Color space                              : YUV
  16. Chroma subsampling                       : 4:2:0 (Type 2)
  17. Bit depth                                : 10 bits
  18. Bits/(Pixel*Frame)                       : 0.050
  19. Stream size                              : 5.35 GiB (52%)
  20. Writing library                          : x265 2.9+8-27d8424c799d:[Windows][MSVC 1900][64 bit] 10bit
  21. Encoding settings                        : cpuid=1176575 / frame-threads=5 / numa-pools=36 / wpp / no-pmode / no-pme / no-psnr / no-ssim / log-level=2 / input-csp=1 / input-res=3840x1628 / interlace=0 / total-frames=146604 / level-idc=51 / high-tier=1 / uhd-bd=0 / ref=4 / no-allow-non-conformance / repeat-headers / annexb / aud / hrd / info / hash=0 / no-temporal-layers / no-open-gop / min-keyint=24 / keyint=240 / gop-lookahead=0 / bframes=4 / b-adapt=2 / b-pyramid / bframe-bias=0 / rc-lookahead=25 / lookahead-slices=4 / scenecut=40 / radl=0 / no-intra-refresh / ctu=64 / min-cu-size=8 / rect / no-amp / max-tu-size=32 / tu-inter-depth=1 / tu-intra-depth=1 / limit-tu=0 / rdoq-level=2 / dynamic-rd=0.00 / no-ssim-rd / signhide / no-tskip / nr-intra=0 / nr-inter=0 / no-constrained-intra / no-strong-intra-smoothing / max-merge=3 / limit-refs=3 / limit-modes / me=3 / subme=3 / merange=57 / temporal-mvp / weightp / no-weightb / no-analyze-src-pics / deblock=-3:-3 / no-sao / no-sao-non-deblock / rd=4 / no-early-skip / rskip / no-fast-intra / no-tskip-fast / no-cu-lossless / no-b-intra / no-splitrd-skip / rdpenalty=0 / psy-rd=2.00 / psy-rdoq=1.00 / no-rd-refine / no-lossless / cbqpoffs=0 / crqpoffs=0 / rc=crf / crf=17.0 / qcomp=0.60 / qpstep=4 / stats-write=0 / stats-read=0 / vbv-maxrate=160000 / vbv-bufsize=160000 / vbv-init=0.9 / crf-max=0.0 / crf-min=0.0 / ipratio=1.40 / pbratio=1.30 / aq-mode=1 / aq-strength=1.00 / cutree / zone-count=0 / no-strict-cbr / qg-size=32 / no-rc-grain / qpmax=69 / qpmin=0 / no-const-vbv / sar=1 / overscan=0 / videoformat=5 / range=0 / colorprim=9 / transfer=16 / colormatrix=9 / chromaloc=1 / chromaloc-top=2 / chromaloc-bottom=2 / display-window=0 / master-display=G(13250,34500)B(7500,3000)R(34000,16000)WP(15635,16450)L(10000000,50) / max-cll=922,239 / min-luma=0 / max-luma=1023 / log2-max-poc-lsb=8 / vui-timing-info / vui-hrd-info / slices=1 / no-opt-qp-pps / no-opt-ref-list-length-pps / no-multi-pass-opt-rps / scenecut-bias=0.05 / no-opt-cu-delta-qp / no-aq-motion / hdr / hdr-opt / no-dhdr10-opt / no-idr-recovery-sei / analysis-reuse-level=5 / scale-factor=0 / refine-intra=0 / refine-inter=0 / refine-mv=0 / no-limit-sao / ctu-info=0 / no-lowpass-dct / refine-mv-type=0 / copy-pic=1 / max-ausize-factor=1.0 / no-dynamic-refine / no-single-sei
  22. Default                                  : Yes
  23. Forced                                   : No
  24. Color range                              : Limited
  25. Color primaries                          : BT.2020
  26. Transfer characteristics                 : PQ
  27. Matrix coefficients                      : BT.2020 non-constant
  28. Mastering display color primaries        : Display P3
  29. Mastering display luminance              : min: 0.0050 cd/m2, max: 1000 cd/m2
  30. Maximum Content Light Level              : 922 cd/m2
  31. Maximum Frame-Average Light Level        : 239 cd/m2

  32. Audio #1
  33. ID                                       : 2
  34. Format                                   : DTS XLL X
  35. Format/Info                              : Digital Theater Systems
  36. Commercial name                          : DTS-HD Master Audio
  37. Codec ID                                 : A_DTS
  38. Duration                                 : 1 h 41 min
  39. Bit rate mode                            : Variable
  40. Bit rate                                 : 6 553 kb/s
  41. Channel(s)                               : 8 channels
  42. Channel(s)_Original                      : Object Based
  43. Channel layout                           : Object Based
  44. Sampling rate                            : 48.0 kHz
  45. Frame rate                               : 93.750 FPS (512 SPF)
  46. Bit depth                                : 24 bits
  47. Stream size                              : 4.66 GiB (45%)
  48. Title                                    : DTS-HD MA 7.1
  49. Language                                 : English
  50. Default                                  : Yes
  51. Forced                                   : No

  52. Audio #2
  53. ID                                       : 3
  54. Format                                   : AC-3
  55. Format/Info                              : Audio Coding 3
  56. Commercial name                          : Dolby Digital
  57. Codec ID                                 : A_AC3
  58. Duration                                 : 1 h 41 min
  59. Bit rate mode                            : Constant
  60. Bit rate                                 : 192 kb/s
  61. Channel(s)                               : 2 channels
  62. Channel layout                           : L R
  63. Sampling rate                            : 48.0 kHz
  64. Frame rate                               : 31.250 FPS (1536 SPF)
  65. Bit depth                                : 16 bits
  66. Compression mode                         : Lossy
  67. Stream size                              : 140 MiB (1%)
  68. Title                                    : Commentary with Screenwriter/director Dean DeBlois, head of character animation/story artist Simon Otto, producer Bonnie Arnold, and production designer Pierre-Olivier Vincent
  69. Language                                 : English
  70. Service kind                             : Complete Main
  71. Default                                  : No
  72. Forced                                   : No

  73. Text #1
  74. ID                                       : 4
  75. Format                                   : UTF-8
  76. Codec ID                                 : S_TEXT/UTF8
  77. Codec ID/Info                            : UTF-8 Plain Text
  78. Duration                                 : 1 h 31 min
  79. Bit rate                                 : 51 b/s
  80. Count of elements                        : 1374
  81. Stream size                              : 34.2 KiB (0%)
  82. Title                                    : Stripped SRT
  83. Language                                 : English
  84. Default                                  : No
  85. Forced                                   : No

  86. Text #2
  87. ID                                       : 5
  88. Format                                   : UTF-8
  89. Codec ID                                 : S_TEXT/UTF8
  90. Codec ID/Info                            : UTF-8 Plain Text
  91. Duration                                 : 1 h 40 min
  92. Bit rate                                 : 60 b/s
  93. Count of elements                        : 1935
  94. Stream size                              : 44.8 KiB (0%)
  95. Title                                    : SDH SRT
  96. Language                                 : English
  97. Default                                  : No
  98. Forced                                   : No

  99. Text #3
  100. ID                                       : 6
  101. Format                                   : PGS
  102. Muxing mode                              : zlib
  103. Codec ID                                 : S_HDMV/PGS
  104. Codec ID/Info                            : Picture based subtitle format used on BDs/HD-DVDs
  105. Duration                                 : 1 h 40 min
  106. Bit rate                                 : 46.0 kb/s
  107. Count of elements                        : 3870
  108. Stream size                              : 33.1 MiB (0%)
  109. Title                                    : SDH
  110. Language                                 : English
  111. Default                                  : No
  112. Forced                                   : No

  113. Text #4
  114. ID                                       : 7
  115. Format                                   : PGS
  116. Muxing mode                              : zlib
  117. Codec ID                                 : S_HDMV/PGS
  118. Codec ID/Info                            : Picture based subtitle format used on BDs/HD-DVDs
  119. Duration                                 : 1 h 33 min
  120. Bit rate                                 : 81.1 kb/s
  121. Count of elements                        : 3227
  122. Stream size                              : 54.0 MiB (1%)
  123. Title                                    : Commentary with Screenwriter/director Dean DeBlois, head of character animation/story artist Simon Otto, producer Bonnie Arnold, and production designer Pierre-Olivier Vincent
  124. Language                                 : English
  125. Default                                  : No
  126. Forced                                   : No

  127. Text #5
  128. ID                                       : 8
  129. Format                                   : PGS
  130. Muxing mode                              : zlib
  131. Codec ID                                 : S_HDMV/PGS
  132. Codec ID/Info                            : Picture based subtitle format used on BDs/HD-DVDs
  133. Duration                                 : 1 h 40 min
  134. Bit rate                                 : 32.3 kb/s
  135. Count of elements                        : 2302
  136. Stream size                              : 23.2 MiB (0%)
  137. Language                                 : Spanish
  138. Default                                  : No
  139. Forced                                   : No

  140. Text #6
  141. ID                                       : 9
  142. Format                                   : PGS
  143. Muxing mode                              : zlib
  144. Codec ID                                 : S_HDMV/PGS
  145. Codec ID/Info                            : Picture based subtitle format used on BDs/HD-DVDs
  146. Duration                                 : 9 min 24 s
  147. Bit rate                                 : 449 b/s
  148. Count of elements                        : 4
  149. Stream size                              : 30.9 KiB (0%)
  150. Language                                 : Catalan
  151. Default                                  : No
  152. Forced                                   : No

  153. Text #7
  154. ID                                       : 10
  155. Format                                   : PGS
  156. Muxing mode                              : zlib
  157. Codec ID                                 : S_HDMV/PGS
  158. Codec ID/Info                            : Picture based subtitle format used on BDs/HD-DVDs
  159. Duration                                 : 1 h 40 min
  160. Bit rate                                 : 33.1 kb/s
  161. Count of elements                        : 2228
  162. Stream size                              : 23.8 MiB (0%)
  163. Language                                 : Portuguese
  164. Default                                  : No
  165. Forced                                   : No

  166. Text #8
  167. ID                                       : 11
  168. Format                                   : PGS
  169. Muxing mode                              : zlib
  170. Codec ID                                 : S_HDMV/PGS
  171. Codec ID/Info                            : Picture based subtitle format used on BDs/HD-DVDs
  172. Duration                                 : 1 h 40 min
  173. Bit rate                                 : 31.4 kb/s
  174. Count of elements                        : 2252
  175. Stream size                              : 22.6 MiB (0%)
  176. Language                                 : Italian
  177. Default                                  : No
  178. Forced                                   : No

  179. Text #9
  180. ID                                       : 12
  181. Format                                   : PGS
  182. Muxing mode                              : zlib
  183. Codec ID                                 : S_HDMV/PGS
  184. Codec ID/Info                            : Picture based subtitle format used on BDs/HD-DVDs
  185. Duration                                 : 1 h 40 min
  186. Bit rate                                 : 28.9 kb/s
  187. Count of elements                        : 2292
  188. Stream size                              : 20.8 MiB (0%)
  189. Language                                 : Czech
  190. Default                                  : No
  191. Forced                                   : No

  192. Text #10
  193. ID                                       : 13
  194. Format                                   : PGS
  195. Muxing mode                              : zlib
  196. Codec ID                                 : S_HDMV/PGS
  197. Codec ID/Info                            : Picture based subtitle format used on BDs/HD-DVDs
  198. Duration                                 : 1 h 40 min
  199. Bit rate                                 : 31.0 kb/s
  200. Count of elements                        : 2238
  201. Stream size                              : 22.3 MiB (0%)
  202. Language                                 : Polish
  203. Default                                  : No
  204. Forced                                   : No

  205. Text #11
  206. ID                                       : 14
  207. Format                                   : PGS
  208. Muxing mode                              : zlib
  209. Codec ID                                 : S_HDMV/PGS
  210. Codec ID/Info                            : Picture based subtitle format used on BDs/HD-DVDs
  211. Duration                                 : 1 h 40 min
  212. Bit rate                                 : 30.6 kb/s
  213. Count of elements                        : 1868
  214. Stream size                              : 22.0 MiB (0%)
  215. Language                                 : Hungarian
  216. Default                                  : No
  217. Forced                                   : No

  218. Menu
  219. 00:00:00.000                             : :Chapter 01
  220. 00:03:31.920                             : :Chapter 02
  221. 00:05:24.616                             : :Chapter 03
  222. 00:07:49.928                             : :Chapter 04
  223. 00:10:19.953                             : :Chapter 05
  224. 00:13:20.258                             : :Chapter 06
  225. 00:17:02.980                             : :Chapter 07
  226. 00:20:05.621                             : :Chapter 08
  227. 00:23:47.176                             : :Chapter 09
  228. 00:27:18.387                             : :Chapter 10
  229. 00:29:25.389                             : :Chapter 11
  230. 00:33:45.857                             : :Chapter 12
  231. 00:37:09.394                             : :Chapter 13
  232. 00:39:10.890                             : :Chapter 14
  233. 00:41:03.086                             : :Chapter 15
  234. 00:45:07.914                             : :Chapter 16
  235. 00:47:20.546                             : :Chapter 17
  236. 00:51:55.446                             : :Chapter 18
  237. 00:54:39.651                             : :Chapter 19
  238. 00:56:19.918                             : :Chapter 20
  239. 01:00:37.092                             : :Chapter 21
  240. 01:04:32.702                             : :Chapter 22
  241. 01:06:38.870                             : :Chapter 23
  242. 01:09:48.059                             : :Chapter 24
  243. 01:14:05.024                             : :Chapter 25
  244. 01:18:39.048                             : :Chapter 26
  245. 01:21:11.075                             : :Chapter 27
  246. 01:22:58.974                             : :Chapter 28
  247. 01:24:33.986                             : :Chapter 29
  248. 01:28:08.575                             : :Chapter 30
  249. 01:31:07.420                             : :Chapter 31
  250. 01:32:25.915                             : :Chapter 32
复制代码

复制代码

驯龙高手2/驯龙记2 How.to.Train.Your.Dragon.2.2014.2160p.UHD.BluRay.X265.10bit.HDR.DTS-X.7.1-IAMABLE 10.30GB-2.png 驯龙高手2/驯龙记2 How.to.Train.Your.Dragon.2.2014.2160p.UHD.BluRay.X265.10bit.HDR.DTS-X.7.1-IAMABLE 10.30GB-3.png 驯龙高手2/驯龙记2 How.to.Train.Your.Dragon.2.2014.2160p.UHD.BluRay.X265.10bit.HDR.DTS-X.7.1-IAMABLE 10.30GB-4.png





开通VIP免费下载本站所有资源---点这里
新手必看:资源下载、资源播放、字幕使用、等常见问题---点这里
回复

使用道具 举报

发表于 2019-1-11 14:44:22 | 显示全部楼层
这个好东西啊  来的是时候
开通VIP免费下载本站所有资源---点这里
新手必看:资源下载、资源播放、字幕使用、等常见问题---点这里
回复 支持 反对

使用道具 举报

发表于 2019-1-11 17:12:13 | 显示全部楼层

这个好东西啊  来的是时候
开通VIP免费下载本站所有资源---点这里
新手必看:资源下载、资源播放、字幕使用、等常见问题---点这里
回复 支持 反对

使用道具 举报

发表于 2019-1-11 19:10:43 | 显示全部楼层
驯龙高手2/驯龙记2 How.to.Train.Your.Dragon.2.2014.2160p.UHD.BluRay.X265.10bit.HDR.DTS-X.7.1-IAMABLE 10.30G 下一季在哪里
开通VIP免费下载本站所有资源---点这里
新手必看:资源下载、资源播放、字幕使用、等常见问题---点这里
回复 支持 反对

使用道具 举报

发表于 2019-1-11 20:28:35 | 显示全部楼层

我看不错噢 谢谢楼主!蓝光电影网越来越好!
开通VIP免费下载本站所有资源---点这里
新手必看:资源下载、资源播放、字幕使用、等常见问题---点这里
回复 支持 反对

使用道具 举报

发表于 2019-1-11 21:29:08 | 显示全部楼层
谢谢楼主分享
开通VIP免费下载本站所有资源---点这里
新手必看:资源下载、资源播放、字幕使用、等常见问题---点这里
回复 支持 反对

使用道具 举报

发表于 2019-1-12 08:04:41 | 显示全部楼层
谢谢楼主分享
开通VIP免费下载本站所有资源---点这里
新手必看:资源下载、资源播放、字幕使用、等常见问题---点这里
回复 支持 反对

使用道具 举报

发表于 2019-1-12 12:53:12 | 显示全部楼层

感谢楼主的无私分享!要想蓝光电影网好 就靠你我他
开通VIP免费下载本站所有资源---点这里
新手必看:资源下载、资源播放、字幕使用、等常见问题---点这里
回复 支持 反对

使用道具 举报

发表于 2019-1-13 14:24:41 | 显示全部楼层
6666666666666666
开通VIP免费下载本站所有资源---点这里
新手必看:资源下载、资源播放、字幕使用、等常见问题---点这里
回复 支持 反对

使用道具 举报

发表于 2019-1-13 19:19:47 | 显示全部楼层
谢谢楼主分享
开通VIP免费下载本站所有资源---点这里
新手必看:资源下载、资源播放、字幕使用、等常见问题---点这里
回复 支持 反对

使用道具 举报

懒得打字嘛,点击右侧快捷回复 【右侧内容,后台自定义】
您需要登录后才可以回帖 登录 | 立即加入

本版积分规则

现在加入蓝光电影网,注册一个账号

QQ| 手机版|小黑屋| 蓝光电影网 |网站地图

Copyright © 2015-2019 Comsenz Inc.  Template by 蓝光电影网 All Rights Reserved.

Powered by 蓝光电影网 X3.4

特别声明:本站所有资源均由网上收集而来,版权归原影音公司所有,如果侵犯了你的权益,请通知我们,我们会及时删除侵权内容.

快速回复 返回顶部 返回列表