找回密码

蓝光电影网

查看: 176|回复: 14

月光光心慌慌/月光光新慌慌 Halloween.2018.2160p.BluRay.REMUX.HEVC.DTS-X.7.1-FGT 48.29GB

[复制链接]
  • TA的每日心情
    开心
    6 小时前
  • 签到天数: 61 天

    [LV.6]常住居民II

     成长值: 18685

    发表于 2019-1-11 10:10:53 | 显示全部楼层 |阅读模式

    马上注册,获取最新影视资讯,享用更多功能,让你轻松玩转蓝光电影网。

    您需要 登录 才可以下载或查看,没有帐号?立即加入

    x

    月光光心慌慌/月光光新慌慌 Halloween.2018.2160p.BluRay.REMUX.HEVC.DTS-X.7.1-FGT 48.29GB-1.jpg
    ◎译  名 月光光心慌慌 / 月光光新慌慌(台) / 万圣节归来 / 万圣节11 / Halloween 3-D / Halloween Returns / Halloween III
    ◎片  名 月光光心慌慌 Halloween
    ◎年  代 2018
    ◎国  家 美国
    ◎类  别 惊悚 / 恐怖
    ◎语  言 英语
    ◎上映日期 2018-09-08(多伦多电影节) / 2018-10-19(美国)
    ◎IMDb评分  6.8/10 from 65,770 users
    ◎IMDb链接  http://www.imdb.com/title/tt1502407/
    ◎豆瓣评分 6.0/10 from 9679 users
    ◎豆瓣链接 https://movie.douban.com/subject/4017146/
    ◎片  长 106分钟
    ◎导  演 大卫·戈登·格林
    ◎主  演 杰米·李·柯蒂斯
          朱迪·格雷尔
          安迪·马蒂切克
          詹姆斯·裘德·柯特尼
          尼克·卡斯特尔
          哈鲁克·比尔根纳尔
          威尔·帕顿
          里安·里斯
          杰佛逊·豪尔
          托比·胡斯
          维吉尼亚·加德纳
          Dylan Arnold
          迈尔斯·罗宾斯
          Drew Scheid
          Jibrail Nantambu
          Michael 'Mick' Harrity
          Matthew Anderson
          奥马尔·J·多尔西
          克里斯托弗· 艾伦·尼尔森
          PJ·索尔丝
          Sandy Johnson
          乔恩·埃里克·海克瑟姆
          Meeno Peluce
          Jared Moser
          Rob Niter

    ◎简  介 

      著名杀人狂迈克尔·麦尔斯(Michael Myers)又回来了!帝门影业与特兰卡斯影业将再次推出全新的《万圣节》(月光光心慌慌)续篇——《万圣节归来》,这也是该系列第11部影片。影片的主角主要是一个18岁的男孩,他是曾惨死在迈克尔·麦尔斯手下的受害者的后代,另一个主角是 对迈克尔·麦尔斯案子特别感兴趣的警察,甚至把这个案子看得比自己女儿还重要。迈克尔·麦尔斯身陷死牢等着被执行死刑,但他意外脱身,又有一群年轻人陷入危险中。
      韦恩斯坦影业的副主席鲍勃·韦恩斯坦表示:“迈克尔·麦尔斯已经告别大银幕很久了,影迷们期盼着他的回归。我们希望借此机会创作出一部最吓人的续集奉献给全世界的粉丝们。”
      该片将于7月正式开拍制作,并于2018年万圣节档登陆北美。

    ◎获奖情况 

      第43届多伦多国际电影节 (2018)
      观众选择奖 午夜疯狂单元(提名)

      第24届美国评论家选择电影奖 (2019)
      最佳科幻/恐怖片(提名)

    • Video
    • ID                                       : 1
    • Format                                   : HEVC
    • Format/Info                              : High Efficiency Video Coding
    • Commercial name                          : HDR10
    • Format profile                           : Main [email protected]@High
    • Codec ID                                 : V_MPEGH/ISO/HEVC
    • Duration                                 : 1 h 45 min
    • Bit rate                                 : 58.3 Mb/s
    • Width                                    : 3 840 pixels
    • Height                                   : 2 160 pixels
    • Display aspect ratio                     : 16:9
    • Frame rate mode                          : Constant
    • Frame rate                               : 23.976 (24000/1001) FPS
    • Color space                              : YUV
    • Chroma subsampling                       : 4:2:0 (Type 2)
    • Bit depth                                : 10 bits
    • Bits/(Pixel*Frame)                       : 0.293
    • Stream size                              : 43.1 GiB (89%)
    • Title                                    : Halloween.2018.2160p.BluRay.REMUX.HEVC.DTS-X.7.1-FGT
    • Default                                  : Yes
    • Forced                                   : No
    • Color range                              : Limited
    • Color primaries                          : BT.2020
    • Transfer characteristics                 : PQ
    • Matrix coefficients                      : BT.2020 non-constant
    • Mastering display color primaries        : Display P3
    • Mastering display luminance              : min: 0.0050 cd/m2, max: 1000 cd/m2
    • Maximum Content Light Level              : 456 cd/m2
    • Maximum Frame-Average Light Level        : 85 cd/m2
    • Audio #1
    • ID                                       : 2
    • Format                                   : DTS XLL X
    • Format/Info                              : Digital Theater Systems
    • Commercial name                          : DTS-HD Master Audio
    • Codec ID                                 : A_DTS
    • Duration                                 : 1 h 45 min
    • Bit rate mode                            : Variable
    • Bit rate                                 : 5 465 kb/s
    • Channel(s)                               : 8 channels
    • Channel(s)_Original                      : Object Based
    • Channel layout                           : Object Based
    • Sampling rate                            : 48.0 kHz
    • Frame rate                               : 93.750 FPS (512 SPF)
    • Bit depth                                : 24 bits
    • Stream size                              : 4.04 GiB (8%)
    • Title                                    : Halloween.2018.2160p.BluRay.REMUX.HEVC.DTS-X.7.1-FGT
    • Language                                 : English
    • Default                                  : Yes
    • Forced                                   : No
    • Audio #2
    • ID                                       : 3
    • Format                                   : DTS
    • Format/Info                              : Digital Theater Systems
    • Codec ID                                 : A_DTS
    • Duration                                 : 1 h 45 min
    • Bit rate mode                            : Constant
    • Bit rate                                 : 768 kb/s
    • Channel(s)                               : 6 channels
    • Channel layout                           : C L R Ls Rs LFE
    • Sampling rate                            : 48.0 kHz
    • Frame rate                               : 93.750 FPS (512 SPF)
    • Bit depth                                : 24 bits
    • Compression mode                         : Lossy
    • Stream size                              : 581 MiB (1%)
    • Title                                    : Halloween.2018.2160p.BluRay.REMUX.HEVC.DTS-X.7.1-FGT
    • Language                                 : Spanish
    • Default                                  : No
    • Forced                                   : No
    • Audio #3
    • ID                                       : 4
    • Format                                   : DTS
    • Format/Info                              : Digital Theater Systems
    • Codec ID                                 : A_DTS
    • Duration                                 : 1 h 45 min
    • Bit rate mode                            : Constant
    • Bit rate                                 : 768 kb/s
    • Channel(s)                               : 6 channels
    • Channel layout                           : C L R Ls Rs LFE
    • Sampling rate                            : 48.0 kHz
    • Frame rate                               : 93.750 FPS (512 SPF)
    • Bit depth                                : 24 bits
    • Compression mode                         : Lossy
    • Stream size                              : 581 MiB (1%)
    • Title                                    : Halloween.2018.2160p.BluRay.REMUX.HEVC.DTS-X.7.1-FGT
    • Language                                 : French
    • Default                                  : No
    • Forced                                   : No
    • Text #1
    • ID                                       : 5
    • Format                                   : UTF-8
    • Codec ID                                 : S_TEXT/UTF8
    • Codec ID/Info                            : UTF-8 Plain Text
    • Duration                                 : 1 h 38 min
    • Bit rate                                 : 52 b/s
    • Count of elements                        : 1169
    • Stream size                              : 38.0 KiB (0%)
    • Title                                    : English-SRT
    • Language                                 : English
    • Default                                  : Yes
    • Forced                                   : No
    • Text #2
    • ID                                       : 6
    • Format                                   : PGS
    • Muxing mode                              : zlib
    • Codec ID                                 : S_HDMV/PGS
    • Codec ID/Info                            : Picture based subtitle format used on BDs/HD-DVDs
    • Duration                                 : 1 h 44 min
    • Bit rate                                 : 42.8 kb/s
    • Count of elements                        : 3064
    • Stream size                              : 32.0 MiB (0%)
    • Title                                    : English-PGS
    • Language                                 : English
    • Default                                  : No
    • Forced                                   : No
    • Text #3
    • ID                                       : 7
    • Format                                   : PGS
    • Muxing mode                              : zlib
    • Codec ID                                 : S_HDMV/PGS
    • Codec ID/Info                            : Picture based subtitle format used on BDs/HD-DVDs
    • Duration                                 : 1 h 44 min
    • Bit rate                                 : 29.1 kb/s
    • Count of elements                        : 2306
    • Stream size                              : 21.7 MiB (0%)
    • Title                                    : Spanish-PGS
    • Language                                 : Spanish
    • Default                                  : No
    • Forced                                   : No
    • Text #4
    • ID                                       : 8
    • Format                                   : PGS
    • Muxing mode                              : zlib
    • Codec ID                                 : S_HDMV/PGS
    • Codec ID/Info                            : Picture based subtitle format used on BDs/HD-DVDs
    • Duration                                 : 1 h 44 min
    • Bit rate                                 : 29.0 kb/s
    • Count of elements                        : 2332
    • Stream size                              : 21.6 MiB (0%)
    • Title                                    : French-PGS
    • Language                                 : French
    • Default                                  : No
    • Forced                                   : No
    • Text #5
    • ID                                       : 9
    • Format                                   : PGS
    • Muxing mode                              : zlib
    • Codec ID                                 : S_HDMV/PGS
    • Codec ID/Info                            : Picture based subtitle format used on BDs/HD-DVDs
    • Duration                                 : 1 h 12 min
    • Bit rate                                 : 215 b/s
    • Count of elements                        : 10
    • Stream size                              : 115 KiB (0%)
    • Title                                    : Spanish-FORCED-PGS
    • Language                                 : Spanish
    • Default                                  : No
    • Forced                                   : No
    • Text #6
    • ID                                       : 10
    • Format                                   : PGS
    • Muxing mode                              : zlib
    • Codec ID                                 : S_HDMV/PGS
    • Codec ID/Info                            : Picture based subtitle format used on BDs/HD-DVDs
    • Duration                                 : 1 h 12 min
    • Bit rate                                 : 155 b/s
    • Count of elements                        : 8
    • Stream size                              : 82.7 KiB (0%)
    • Title                                    : French-FORCED-PGS
    • Language                                 : French
    • Default                                  : No
    • Forced                                   : No
    • Menu
    • 00:00:00.000                             : :Chapter 1
    • 00:08:42.522                             : :Chapter 2
    • 00:14:26.949                             : :Chapter 3
    • 00:20:46.995                             : :Chapter 4
    • 00:23:17.854                             : :Chapter 5
    • 00:27:45.080                             : :Chapter 6
    • 00:32:55.723                             : :Chapter 7
    • 00:40:51.365                             : :Chapter 8
    • 00:44:41.053                             : :Chapter 9
    • 00:48:26.403                             : :Chapter 10
    • 00:53:26.453                             : :Chapter 11
    • 00:59:18.596                             : :Chapter 12
    • 01:03:22.340                             : :Chapter 13
    • 01:07:29.628                             : :Chapter 14
    • 01:14:46.523                             : :Chapter 15
    • 01:18:10.560                             : :Chapter 16
    • 01:22:04.836                             : :Chapter 17
    • 01:30:09.904                             : :Chapter 18
    • 01:35:33.394                             : :Chapter 19
    • 01:40:41.493                             : :Chapter 20

    复制代码

    月光光心慌慌/月光光新慌慌 Halloween.2018.2160p.BluRay.REMUX.HEVC.DTS-X.7.1-FGT 48.29GB-2.png 月光光心慌慌/月光光新慌慌 Halloween.2018.2160p.BluRay.REMUX.HEVC.DTS-X.7.1-FGT 48.29GB-3.png 月光光心慌慌/月光光新慌慌 Halloween.2018.2160p.BluRay.REMUX.HEVC.DTS-X.7.1-FGT 48.29GB-4.png




    Halloween.2018.2160p.BluRay.REMUX.HEVC.DTS-X.7.1-FGT.torrent (121.25 KB, 下载次数: 14)
    开通VIP免费下载本站所有资源---点这里
    新手必看:资源下载、资源播放、字幕使用、等常见问题---点这里
    回复

    使用道具 举报

  • TA的每日心情
    开心
    昨天 16:00
  • 签到天数: 3 天

    [LV.2]偶尔看看I

    发表于 2019-1-12 10:29:59 | 显示全部楼层
    楼主发贴辛苦了,谢谢楼主分享!我觉得蓝光电影网是注册对了!
    开通VIP免费下载本站所有资源---点这里
    新手必看:资源下载、资源播放、字幕使用、等常见问题---点这里
    回复 支持 反对

    使用道具 举报

  • TA的每日心情
    慵懒
    5 小时前
  • 签到天数: 59 天

    [LV.5]常住居民I

    发表于 2019-1-12 10:55:01 | 显示全部楼层

    论坛不能没有像楼主这样的人才啊!我会一直支持蓝光电影网
    开通VIP免费下载本站所有资源---点这里
    新手必看:资源下载、资源播放、字幕使用、等常见问题---点这里
    回复 支持 反对

    使用道具 举报

  • TA的每日心情
    开心
    2019-1-12 12:46
  • 签到天数: 1 天

    [LV.1]初来乍到

    发表于 2019-1-12 12:54:17 | 显示全部楼层

    楼主,我太崇拜你了!我想我是一天也不能离开蓝光电影网
    开通VIP免费下载本站所有资源---点这里
    新手必看:资源下载、资源播放、字幕使用、等常见问题---点这里
    回复 支持 反对

    使用道具 举报

  • TA的每日心情
    擦汗
    昨天 12:38
  • 签到天数: 61 天

    [LV.6]常住居民II

    发表于 2019-1-12 13:05:27 | 显示全部楼层
    谢谢发片。
    开通VIP免费下载本站所有资源---点这里
    新手必看:资源下载、资源播放、字幕使用、等常见问题---点这里
    回复

    使用道具 举报

    该用户从未签到

    发表于 7 天前 | 显示全部楼层
    谢谢你的资源
    开通VIP免费下载本站所有资源---点这里
    新手必看:资源下载、资源播放、字幕使用、等常见问题---点这里
    回复 支持 反对

    使用道具 举报

    该用户从未签到

    发表于 7 天前 | 显示全部楼层
    楼主发贴辛苦了,谢谢楼主分享!我觉得蓝光电影网是注册对了!
    [发帖际遇]: 一个袋子砸在了 jinyuanbao1972 头上,jinyuanbao1972 赚了 1 蓝光币. 幸运榜 / 衰神榜
    开通VIP免费下载本站所有资源---点这里
    新手必看:资源下载、资源播放、字幕使用、等常见问题---点这里
    回复 支持 反对

    使用道具 举报

  • TA的每日心情
    开心
    4 天前
  • 签到天数: 7 天

    [LV.3]偶尔看看II

    发表于 7 天前 | 显示全部楼层
    感谢楼主分享!
    开通VIP免费下载本站所有资源---点这里
    新手必看:资源下载、资源播放、字幕使用、等常见问题---点这里
    回复 支持 反对

    使用道具 举报

  • TA的每日心情
    慵懒
    5 小时前
  • 签到天数: 59 天

    [LV.5]常住居民I

    发表于 7 天前 | 显示全部楼层

    其实我一直觉得楼主的品味不错!呵呵!蓝光电影网太棒了!
    开通VIP免费下载本站所有资源---点这里
    新手必看:资源下载、资源播放、字幕使用、等常见问题---点这里
    回复 支持 反对

    使用道具 举报

  • TA的每日心情
    奋斗
    前天 10:52
  • 签到天数: 3 天

    [LV.2]偶尔看看I

    发表于 5 天前 | 显示全部楼层
    楼主发贴辛苦了,谢谢楼主分享!我觉得蓝光电影网是注册对了!
    开通VIP免费下载本站所有资源---点这里
    新手必看:资源下载、资源播放、字幕使用、等常见问题---点这里
    回复 支持 反对

    使用道具 举报

    懒得打字嘛,点击右侧快捷回复 【右侧内容,后台自定义】
    您需要登录后才可以回帖 登录 | 立即加入

    本版积分规则

    现在加入蓝光电影网,注册一个账号

    QQ| 手机版|小黑屋| 蓝光电影网 |网站地图

    Copyright © 20013-2018 Comsenz Inc.  Template by 蓝光电影论坛 All Rights Reserved.

    Powered by 高清电影网 X3.4
    特别声明:本站所有资源均由网上收集而来,版权归原影音公司所有,如果侵犯了你的权益,请通知我们,我们会及时删除侵权内容.

    快速回复 返回顶部 返回列表