找回密码

蓝光电影网

查看: 691|回复: 16

[REMUX.HEVC] 月光光心慌慌/月光光新慌慌 Halloween.2018.2160p.BluRay.REMUX.HEVC.DTS-X.7.1-FGT 48.29GB

[复制链接]

 成长值: 21340

发表于 2019-1-11 10:10:53 | 显示全部楼层 |阅读模式
月光光心慌慌/月光光新慌慌 Halloween.2018.2160p.BluRay.REMUX.HEVC.DTS-X.7.1-FGT 48.29GB-1.jpg
◎译  名 月光光心慌慌 / 月光光新慌慌(台) / 万圣节归来 / 万圣节11 / Halloween 3-D / Halloween Returns / Halloween III
◎片  名 月光光心慌慌 Halloween
◎年  代 2018
◎国  家 美国
◎类  别 惊悚 / 恐怖
◎语  言 英语
◎上映日期 2018-09-08(多伦多电影节) / 2018-10-19(美国)
◎IMDb评分  6.8/10 from 65,770 users
◎IMDb链接  http://www.imdb.com/title/tt1502407/
◎豆瓣评分 6.0/10 from 9679 users
◎豆瓣链接 https://movie.douban.com/subject/4017146/
◎片  长 106分钟
◎导  演 大卫·戈登·格林
◎主  演 杰米·李·柯蒂斯
      朱迪·格雷尔
      安迪·马蒂切克
      詹姆斯·裘德·柯特尼
      尼克·卡斯特尔
      哈鲁克·比尔根纳尔
      威尔·帕顿
      里安·里斯
      杰佛逊·豪尔
      托比·胡斯
      维吉尼亚·加德纳
      Dylan Arnold
      迈尔斯·罗宾斯
      Drew Scheid
      Jibrail Nantambu
      Michael 'Mick' Harrity
      Matthew Anderson
      奥马尔·J·多尔西
      克里斯托弗· 艾伦·尼尔森
      PJ·索尔丝
      Sandy Johnson
      乔恩·埃里克·海克瑟姆
      Meeno Peluce
      Jared Moser
      Rob Niter

◎简  介 

  著名杀人狂迈克尔·麦尔斯(Michael Myers)又回来了!帝门影业与特兰卡斯影业将再次推出全新的《万圣节》(月光光心慌慌)续篇——《万圣节归来》,这也是该系列第11部影片。影片的主角主要是一个18岁的男孩,他是曾惨死在迈克尔·麦尔斯手下的受害者的后代,另一个主角是 对迈克尔·麦尔斯案子特别感兴趣的警察,甚至把这个案子看得比自己女儿还重要。迈克尔·麦尔斯身陷死牢等着被执行死刑,但他意外脱身,又有一群年轻人陷入危险中。
  韦恩斯坦影业的副主席鲍勃·韦恩斯坦表示:“迈克尔·麦尔斯已经告别大银幕很久了,影迷们期盼着他的回归。我们希望借此机会创作出一部最吓人的续集奉献给全世界的粉丝们。”
  该片将于7月正式开拍制作,并于2018年万圣节档登陆北美。

◎获奖情况 

  第43届多伦多国际电影节 (2018)
  观众选择奖 午夜疯狂单元(提名)

  第24届美国评论家选择电影奖 (2019)
  最佳科幻/恐怖片(提名)


  1. Video
  2. ID                                       : 1
  3. Format                                   : HEVC
  4. Format/Info                              : High Efficiency Video Coding
  5. Commercial name                          : HDR10
  6. Format profile                           : Main [url=/cdn-cgi/l/email-protection][email protected][/url]@High
  7. Codec ID                                 : V_MPEGH/ISO/HEVC
  8. Duration                                 : 1 h 45 min
  9. Bit rate                                 : 58.3 Mb/s
  10. Width                                    : 3 840 pixels
  11. Height                                   : 2 160 pixels
  12. Display aspect ratio                     : 16:9
  13. Frame rate mode                          : Constant
  14. Frame rate                               : 23.976 (24000/1001) FPS
  15. Color space                              : YUV
  16. Chroma subsampling                       : 4:2:0 (Type 2)
  17. Bit depth                                : 10 bits
  18. Bits/(Pixel*Frame)                       : 0.293
  19. Stream size                              : 43.1 GiB (89%)
  20. Title                                    : Halloween.2018.2160p.BluRay.REMUX.HEVC.DTS-X.7.1-FGT
  21. Default                                  : Yes
  22. Forced                                   : No
  23. Color range                              : Limited
  24. Color primaries                          : BT.2020
  25. Transfer characteristics                 : PQ
  26. Matrix coefficients                      : BT.2020 non-constant
  27. Mastering display color primaries        : Display P3
  28. Mastering display luminance              : min: 0.0050 cd/m2, max: 1000 cd/m2
  29. Maximum Content Light Level              : 456 cd/m2
  30. Maximum Frame-Average Light Level        : 85 cd/m2

  31. Audio #1
  32. ID                                       : 2
  33. Format                                   : DTS XLL X
  34. Format/Info                              : Digital Theater Systems
  35. Commercial name                          : DTS-HD Master Audio
  36. Codec ID                                 : A_DTS
  37. Duration                                 : 1 h 45 min
  38. Bit rate mode                            : Variable
  39. Bit rate                                 : 5 465 kb/s
  40. Channel(s)                               : 8 channels
  41. Channel(s)_Original                      : Object Based
  42. Channel layout                           : Object Based
  43. Sampling rate                            : 48.0 kHz
  44. Frame rate                               : 93.750 FPS (512 SPF)
  45. Bit depth                                : 24 bits
  46. Stream size                              : 4.04 GiB (8%)
  47. Title                                    : Halloween.2018.2160p.BluRay.REMUX.HEVC.DTS-X.7.1-FGT
  48. Language                                 : English
  49. Default                                  : Yes
  50. Forced                                   : No

  51. Audio #2
  52. ID                                       : 3
  53. Format                                   : DTS
  54. Format/Info                              : Digital Theater Systems
  55. Codec ID                                 : A_DTS
  56. Duration                                 : 1 h 45 min
  57. Bit rate mode                            : Constant
  58. Bit rate                                 : 768 kb/s
  59. Channel(s)                               : 6 channels
  60. Channel layout                           : C L R Ls Rs LFE
  61. Sampling rate                            : 48.0 kHz
  62. Frame rate                               : 93.750 FPS (512 SPF)
  63. Bit depth                                : 24 bits
  64. Compression mode                         : Lossy
  65. Stream size                              : 581 MiB (1%)
  66. Title                                    : Halloween.2018.2160p.BluRay.REMUX.HEVC.DTS-X.7.1-FGT
  67. Language                                 : Spanish
  68. Default                                  : No
  69. Forced                                   : No

  70. Audio #3
  71. ID                                       : 4
  72. Format                                   : DTS
  73. Format/Info                              : Digital Theater Systems
  74. Codec ID                                 : A_DTS
  75. Duration                                 : 1 h 45 min
  76. Bit rate mode                            : Constant
  77. Bit rate                                 : 768 kb/s
  78. Channel(s)                               : 6 channels
  79. Channel layout                           : C L R Ls Rs LFE
  80. Sampling rate                            : 48.0 kHz
  81. Frame rate                               : 93.750 FPS (512 SPF)
  82. Bit depth                                : 24 bits
  83. Compression mode                         : Lossy
  84. Stream size                              : 581 MiB (1%)
  85. Title                                    : Halloween.2018.2160p.BluRay.REMUX.HEVC.DTS-X.7.1-FGT
  86. Language                                 : French
  87. Default                                  : No
  88. Forced                                   : No

  89. Text #1
  90. ID                                       : 5
  91. Format                                   : UTF-8
  92. Codec ID                                 : S_TEXT/UTF8
  93. Codec ID/Info                            : UTF-8 Plain Text
  94. Duration                                 : 1 h 38 min
  95. Bit rate                                 : 52 b/s
  96. Count of elements                        : 1169
  97. Stream size                              : 38.0 KiB (0%)
  98. Title                                    : English-SRT
  99. Language                                 : English
  100. Default                                  : Yes
  101. Forced                                   : No

  102. Text #2
  103. ID                                       : 6
  104. Format                                   : PGS
  105. Muxing mode                              : zlib
  106. Codec ID                                 : S_HDMV/PGS
  107. Codec ID/Info                            : Picture based subtitle format used on BDs/HD-DVDs
  108. Duration                                 : 1 h 44 min
  109. Bit rate                                 : 42.8 kb/s
  110. Count of elements                        : 3064
  111. Stream size                              : 32.0 MiB (0%)
  112. Title                                    : English-PGS
  113. Language                                 : English
  114. Default                                  : No
  115. Forced                                   : No

  116. Text #3
  117. ID                                       : 7
  118. Format                                   : PGS
  119. Muxing mode                              : zlib
  120. Codec ID                                 : S_HDMV/PGS
  121. Codec ID/Info                            : Picture based subtitle format used on BDs/HD-DVDs
  122. Duration                                 : 1 h 44 min
  123. Bit rate                                 : 29.1 kb/s
  124. Count of elements                        : 2306
  125. Stream size                              : 21.7 MiB (0%)
  126. Title                                    : Spanish-PGS
  127. Language                                 : Spanish
  128. Default                                  : No
  129. Forced                                   : No

  130. Text #4
  131. ID                                       : 8
  132. Format                                   : PGS
  133. Muxing mode                              : zlib
  134. Codec ID                                 : S_HDMV/PGS
  135. Codec ID/Info                            : Picture based subtitle format used on BDs/HD-DVDs
  136. Duration                                 : 1 h 44 min
  137. Bit rate                                 : 29.0 kb/s
  138. Count of elements                        : 2332
  139. Stream size                              : 21.6 MiB (0%)
  140. Title                                    : French-PGS
  141. Language                                 : French
  142. Default                                  : No
  143. Forced                                   : No

  144. Text #5
  145. ID                                       : 9
  146. Format                                   : PGS
  147. Muxing mode                              : zlib
  148. Codec ID                                 : S_HDMV/PGS
  149. Codec ID/Info                            : Picture based subtitle format used on BDs/HD-DVDs
  150. Duration                                 : 1 h 12 min
  151. Bit rate                                 : 215 b/s
  152. Count of elements                        : 10
  153. Stream size                              : 115 KiB (0%)
  154. Title                                    : Spanish-FORCED-PGS
  155. Language                                 : Spanish
  156. Default                                  : No
  157. Forced                                   : No

  158. Text #6
  159. ID                                       : 10
  160. Format                                   : PGS
  161. Muxing mode                              : zlib
  162. Codec ID                                 : S_HDMV/PGS
  163. Codec ID/Info                            : Picture based subtitle format used on BDs/HD-DVDs
  164. Duration                                 : 1 h 12 min
  165. Bit rate                                 : 155 b/s
  166. Count of elements                        : 8
  167. Stream size                              : 82.7 KiB (0%)
  168. Title                                    : French-FORCED-PGS
  169. Language                                 : French
  170. Default                                  : No
  171. Forced                                   : No

  172. Menu
  173. 00:00:00.000                             : :Chapter 1
  174. 00:08:42.522                             : :Chapter 2
  175. 00:14:26.949                             : :Chapter 3
  176. 00:20:46.995                             : :Chapter 4
  177. 00:23:17.854                             : :Chapter 5
  178. 00:27:45.080                             : :Chapter 6
  179. 00:32:55.723                             : :Chapter 7
  180. 00:40:51.365                             : :Chapter 8
  181. 00:44:41.053                             : :Chapter 9
  182. 00:48:26.403                             : :Chapter 10
  183. 00:53:26.453                             : :Chapter 11
  184. 00:59:18.596                             : :Chapter 12
  185. 01:03:22.340                             : :Chapter 13
  186. 01:07:29.628                             : :Chapter 14
  187. 01:14:46.523                             : :Chapter 15
  188. 01:18:10.560                             : :Chapter 16
  189. 01:22:04.836                             : :Chapter 17
  190. 01:30:09.904                             : :Chapter 18
  191. 01:35:33.394                             : :Chapter 19
  192. 01:40:41.493                             : :Chapter 20
复制代码

复制代码

月光光心慌慌/月光光新慌慌 Halloween.2018.2160p.BluRay.REMUX.HEVC.DTS-X.7.1-FGT 48.29GB-2.png 月光光心慌慌/月光光新慌慌 Halloween.2018.2160p.BluRay.REMUX.HEVC.DTS-X.7.1-FGT 48.29GB-3.png 月光光心慌慌/月光光新慌慌 Halloween.2018.2160p.BluRay.REMUX.HEVC.DTS-X.7.1-FGT 48.29GB-4.png




开通VIP免费下载本站所有资源---点这里
新手必看:资源下载、资源播放、字幕使用、等常见问题---点这里
回复

使用道具 举报

发表于 2019-1-12 10:29:59 | 显示全部楼层
楼主发贴辛苦了,谢谢楼主分享!我觉得蓝光电影网是注册对了!
开通VIP免费下载本站所有资源---点这里
新手必看:资源下载、资源播放、字幕使用、等常见问题---点这里
回复 支持 反对

使用道具 举报

发表于 2019-1-12 10:55:01 | 显示全部楼层

论坛不能没有像楼主这样的人才啊!我会一直支持蓝光电影网
开通VIP免费下载本站所有资源---点这里
新手必看:资源下载、资源播放、字幕使用、等常见问题---点这里
回复 支持 反对

使用道具 举报

发表于 2019-1-12 12:54:17 | 显示全部楼层

楼主,我太崇拜你了!我想我是一天也不能离开蓝光电影网
开通VIP免费下载本站所有资源---点这里
新手必看:资源下载、资源播放、字幕使用、等常见问题---点这里
回复 支持 反对

使用道具 举报

发表于 2019-1-12 13:05:27 | 显示全部楼层
谢谢发片。
开通VIP免费下载本站所有资源---点这里
新手必看:资源下载、资源播放、字幕使用、等常见问题---点这里
回复

使用道具 举报

发表于 2019-1-13 03:00:16 | 显示全部楼层
谢谢你的资源
开通VIP免费下载本站所有资源---点这里
新手必看:资源下载、资源播放、字幕使用、等常见问题---点这里
回复 支持 反对

使用道具 举报

发表于 2019-1-13 07:13:32 | 显示全部楼层
楼主发贴辛苦了,谢谢楼主分享!我觉得蓝光电影网是注册对了!
开通VIP免费下载本站所有资源---点这里
新手必看:资源下载、资源播放、字幕使用、等常见问题---点这里
回复 支持 反对

使用道具 举报

发表于 2019-1-13 19:13:00 | 显示全部楼层
感谢楼主分享!
开通VIP免费下载本站所有资源---点这里
新手必看:资源下载、资源播放、字幕使用、等常见问题---点这里
回复 支持 反对

使用道具 举报

发表于 2019-1-13 21:14:43 | 显示全部楼层

其实我一直觉得楼主的品味不错!呵呵!蓝光电影网太棒了!
开通VIP免费下载本站所有资源---点这里
新手必看:资源下载、资源播放、字幕使用、等常见问题---点这里
回复 支持 反对

使用道具 举报

发表于 2019-1-15 16:45:18 | 显示全部楼层
楼主发贴辛苦了,谢谢楼主分享!我觉得蓝光电影网是注册对了!
开通VIP免费下载本站所有资源---点这里
新手必看:资源下载、资源播放、字幕使用、等常见问题---点这里
回复 支持 反对

使用道具 举报

懒得打字嘛,点击右侧快捷回复 【右侧内容,后台自定义】
您需要登录后才可以回帖 登录 | 立即加入

本版积分规则

现在加入蓝光电影网,注册一个账号

QQ| 手机版|小黑屋| 蓝光电影网 |网站地图

Copyright © 2015-2019 Comsenz Inc.  Template by 蓝光电影网 All Rights Reserved.

Powered by 蓝光电影网 X3.4

特别声明:本站所有资源均由网上收集而来,版权归原影音公司所有,如果侵犯了你的权益,请通知我们,我们会及时删除侵权内容.

快速回复 返回顶部 返回列表