找回密码

蓝光电影网

查看: 453|回复: 6

[10bit.HDR] 鸡皮疙瘩2:闹鬼万圣节/毛骨悚然2 Goosebumps.2.Haunted.Halloween.2018.2160p.BluRay.x265.10bit.HDR.DTS-HD.MA.TrueHD.7.1.Atmos-SWTYBLZ 17.71GB

[复制链接]

 成长值: 21340

发表于 2019-1-11 10:08:55 | 显示全部楼层 |阅读模式
鸡皮疙瘩2:闹鬼万圣节/毛骨悚然2 Goosebumps.2.Haunted.Halloween.2018.2160p.BluRay.x265.10bit.HDR.DTS-HD.MA.TrueHD.7.1.Atmos-SWTYBLZ 17.71GB-1.jpg
◎译  名 鸡皮疙瘩2:闹鬼万圣节 / 毛骨悚然2 / Goosebumps 2 / Goosebumps: Horrorland / 书中自有魔怪谷2: 翻生万圣节(港)
◎片  名 鸡皮疙瘩2:闹鬼万圣节 Goosebumps: Haunted Halloween
◎年  代 2018
◎国  家 美国
◎类  别 喜剧 / 恐怖 / 奇幻 / 冒险
◎语  言 英语
◎上映日期 2018-10-12(美国)
◎IMDb评分  5.7/10 from 6,523 users
◎IMDb链接  http://www.imdb.com/title/tt5664636/
◎豆瓣评分 5.3/10 from 1165 users
◎豆瓣链接 https://movie.douban.com/subject/26779967/
◎片  长 90分钟
◎导  演 阿里·桑德尔
◎主  演 温迪·麦克伦登-考威
      麦迪森·伊瑟曼
      杰里米·雷·泰勒
      郑肯
      卡里尔·哈里斯
      杰克·布莱克
      克里斯·帕内尔
      布赖斯·卡斯
      佩顿·威奇
      沙里·海德利
      克里斯蒂安·芬拉森
      马修·J·瓦斯奎斯
      考特尼·劳伦·卡明斯
      洁西·高伊
      肯德里克·克罗斯
      R·L·斯坦
      米克·温格特
      达林·德·保罗
      肖恩·麦克米伦
      帕蒂·舍尔哈斯

◎简  介 

  《鸡皮疙瘩2:闹鬼万圣节》(英语:Goosebumps 2: Haunted Halloween)是一部于2018年上映的美国恐怖喜剧片,由阿里·桑德尔执导,罗布·李伯编剧。电影改编自R·L·史汀的儿童文学系列《鸡皮疙瘩》,为2015年电影《鸡皮疙瘩》的续集。由杰瑞米·雷·泰勒、麦迪森·伊瑟曼、杰克·布莱克和郑肯主演。


  1. Video
  2. ID                                       : 1
  3. Format                                   : HEVC
  4. Format/Info                              : High Efficiency Video Coding
  5. Commercial name                          : HDR10
  6. Format profile                           : Main [url=/cdn-cgi/l/email-protection][email protected][/url]@High
  7. Codec ID                                 : V_MPEGH/ISO/HEVC
  8. Duration                                 : 1 h 29 min
  9. Bit rate                                 : 18.9 Mb/s
  10. Width                                    : 3 840 pixels
  11. Height                                   : 1 606 pixels
  12. Display aspect ratio                     : 2.40:1
  13. Frame rate mode                          : Constant
  14. Frame rate                               : 23.976 (24000/1001) FPS
  15. Color space                              : YUV
  16. Chroma subsampling                       : 4:2:0 (Type 2)
  17. Bit depth                                : 10 bits
  18. Bits/(Pixel*Frame)                       : 0.128
  19. Stream size                              : 11.9 GiB (67%)
  20. Title                                    : Goosebumps.2.Haunted.Halloween.2018.2160p.BluRay.x265.10bit.HDR.DTS-HD.MA.TrueHD.7.1.Atmos-SWTYBLZ
  21. Writing library                          : x265 2.9+15-81373aab81df:[Windows][GCC 8.2.1][64 bit] 10bit
  22. Encoding settings                        : cpuid=1111039 / frame-threads=16 / numa-pools=24,24,24,24 / wpp / no-pmode / no-pme / no-psnr / no-ssim / log-level=2 / input-csp=1 / input-res=3840x1606 / interlace=0 / total-frames=0 / level-idc=51 / high-tier=1 / uhd-bd=0 / ref=3 / no-allow-non-conformance / repeat-headers / annexb / aud / hrd / info / hash=0 / no-temporal-layers / no-open-gop / min-keyint=1 / keyint=24 / gop-lookahead=0 / bframes=4 / b-adapt=2 / b-pyramid / bframe-bias=0 / rc-lookahead=25 / lookahead-slices=4 / scenecut=40 / radl=0 / no-splice / no-intra-refresh / ctu=64 / min-cu-size=8 / no-rect / no-amp / max-tu-size=32 / tu-inter-depth=1 / tu-intra-depth=1 / limit-tu=0 / rdoq-level=0 / dynamic-rd=0.00 / no-ssim-rd / signhide / no-tskip / nr-intra=0 / nr-inter=0 / no-constrained-intra / strong-intra-smoothing / max-merge=2 / limit-refs=3 / no-limit-modes / me=1 / subme=2 / merange=57 / temporal-mvp / weightp / no-weightb / no-analyze-src-pics / deblock=0:0 / no-sao / no-sao-non-deblock / rd=3 / no-early-skip / rskip / no-fast-intra / no-tskip-fast / no-cu-lossless / no-b-intra / no-splitrd-skip / rdpenalty=0 / psy-rd=2.00 / psy-rdoq=0.00 / no-rd-refine / no-lossless / cbqpoffs=0 / crqpoffs=0 / rc=crf / crf=16.0 / qcomp=0.60 / qpstep=4 / stats-write=0 / stats-read=0 / vbv-maxrate=160000 / vbv-bufsize=160000 / vbv-init=0.9 / crf-max=0.0 / crf-min=0.0 / ipratio=1.40 / pbratio=1.30 / aq-mode=1 / aq-strength=1.00 / cutree / zone-count=0 / no-strict-cbr / qg-size=32 / no-rc-grain / qpmax=69 / qpmin=0 / no-const-vbv / sar=1 / overscan=0 / videoformat=5 / range=0 / colorprim=9 / transfer=16 / colormatrix=9 / chromaloc=1 / chromaloc-top=2 / chromaloc-bottom=2 / display-window=0 / master-display=G(13250,34500)B(7500,3000)R(34000,16000)WP(15635,16450)L(40000000,50) / max-cll=981,979 / min-luma=0 / max-luma=1023 / log2-max-poc-lsb=8 / vui-timing-info / vui-hrd-info / slices=1 / opt-qp-pps / opt-ref-list-length-pps / no-multi-pass-opt-rps / scenecut-bias=0.05 / no-opt-cu-delta-qp / no-aq-motion / hdr / hdr-opt / no-dhdr10-opt / no-idr-recovery-sei / analysis-reuse-level=5 / scale-factor=0 / refine-intra=0 / refine-inter=0 / refine-mv=0 / no-limit-sao / ctu-info=0 / no-lowpass-dct / refine-mv-type=0 / copy-pic=1 / max-ausize-factor=1.0 / no-dynamic-refine / no-single-sei
  23. Default                                  : Yes
  24. Forced                                   : No
  25. Color range                              : Limited
  26. Color primaries                          : BT.2020
  27. Transfer characteristics                 : PQ
  28. Matrix coefficients                      : BT.2020 non-constant
  29. Mastering display color primaries        : Display P3
  30. Mastering display luminance              : min: 0.0050 cd/m2, max: 4000 cd/m2
  31. Maximum Content Light Level              : 981 cd/m2
  32. Maximum Frame-Average Light Level        : 979 cd/m2

  33. Audio #1
  34. ID                                       : 2
  35. Format                                   : MLP FBA 16-ch
  36. Format/Info                              : Meridian Lossless Packing FBA with 16-channel presentation
  37. Commercial name                          : Dolby TrueHD with Dolby Atmos
  38. Codec ID                                 : A_TRUEHD
  39. Duration                                 : 1 h 29 min
  40. Bit rate mode                            : Variable
  41. Bit rate                                 : 4 317 kb/s
  42. Maximum bit rate                         : 7 593 kb/s
  43. Channel(s)                               : 8 channels
  44. Channel layout                           : L R C LFE Ls Rs Lb Rb
  45. Sampling rate                            : 48.0 kHz
  46. Frame rate                               : 1 200.000 FPS (40 SPF)
  47. Compression mode                         : Lossless
  48. Delay relative to video                  : 8 ms
  49. Stream size                              : 2.71 GiB (15%)
  50. Title                                    : Goosebumps.2.Haunted.Halloween.2018.2160p.BluRay.x265.10bit.HDR.DTS-HD.MA.TrueHD.7.1.Atmos-SWTYBLZ
  51. Language                                 : English
  52. Default                                  : Yes
  53. Forced                                   : No
  54. Number of dynamic objects                : 11
  55. Bed channel count                        : 1 channel
  56. Bed channel configuration                : LFE

  57. Audio #2
  58. ID                                       : 3
  59. Format                                   : DTS XLL
  60. Format/Info                              : Digital Theater Systems
  61. Commercial name                          : DTS-HD Master Audio
  62. Codec ID                                 : A_DTS
  63. Duration                                 : 1 h 29 min
  64. Bit rate mode                            : Variable
  65. Bit rate                                 : 4 045 kb/s
  66. Channel(s)                               : 8 channels
  67. Channel layout                           : C L R LFE Lb Rb Lss Rss
  68. Sampling rate                            : 48.0 kHz
  69. Frame rate                               : 93.750 FPS (512 SPF)
  70. Bit depth                                : 24 bits
  71. Compression mode                         : Lossless
  72. Stream size                              : 2.54 GiB (14%)
  73. Title                                    : Goosebumps.2.Haunted.Halloween.2018.2160p.BluRay.x265.10bit.HDR.DTS-HD.MA.TrueHD.7.1.Atmos-SWTYBLZ
  74. Language                                 : English
  75. Default                                  : No
  76. Forced                                   : No

  77. Audio #3
  78. ID                                       : 4
  79. Format                                   : AC-3
  80. Format/Info                              : Audio Coding 3
  81. Commercial name                          : Dolby Digital
  82. Codec ID                                 : A_AC3
  83. Duration                                 : 1 h 29 min
  84. Bit rate mode                            : Constant
  85. Bit rate                                 : 640 kb/s
  86. Channel(s)                               : 6 channels
  87. Channel layout                           : L R C LFE Ls Rs
  88. Sampling rate                            : 48.0 kHz
  89. Frame rate                               : 31.250 FPS (1536 SPF)
  90. Bit depth                                : 16 bits
  91. Compression mode                         : Lossy
  92. Delay relative to video                  : 8 ms
  93. Stream size                              : 411 MiB (2%)
  94. Title                                    : Goosebumps.2.Haunted.Halloween.2018.2160p.BluRay.x265.10bit.HDR.DTS-HD.MA.TrueHD.7.1.Atmos-SWTYBLZ
  95. Language                                 : English
  96. Service kind                             : Complete Main
  97. Default                                  : No
  98. Forced                                   : No

  99. Text #1
  100. ID                                       : 5
  101. Format                                   : UTF-8
  102. Codec ID                                 : S_TEXT/UTF8
  103. Codec ID/Info                            : UTF-8 Plain Text
  104. Duration                                 : 1 h 27 min
  105. Bit rate                                 : 57 b/s
  106. Count of elements                        : 1251
  107. Stream size                              : 36.8 KiB (0%)
  108. Title                                    : English-SRT
  109. Language                                 : English
  110. Default                                  : Yes
  111. Forced                                   : No

  112. Text #2
  113. ID                                       : 6
  114. Format                                   : PGS
  115. Muxing mode                              : zlib
  116. Codec ID                                 : S_HDMV/PGS
  117. Codec ID/Info                            : Picture based subtitle format used on BDs/HD-DVDs
  118. Duration                                 : 1 h 27 min
  119. Bit rate                                 : 34.5 kb/s
  120. Count of elements                        : 2179
  121. Stream size                              : 21.6 MiB (0%)
  122. Title                                    : English-PGS
  123. Language                                 : English
  124. Default                                  : No
  125. Forced                                   : No

  126. Text #3
  127. ID                                       : 7
  128. Format                                   : PGS
  129. Muxing mode                              : zlib
  130. Codec ID                                 : S_HDMV/PGS
  131. Codec ID/Info                            : Picture based subtitle format used on BDs/HD-DVDs
  132. Duration                                 : 1 h 28 min
  133. Bit rate                                 : 41.1 kb/s
  134. Count of elements                        : 2761
  135. Stream size                              : 26.1 MiB (0%)
  136. Title                                    : English-SDH-PGS
  137. Language                                 : English
  138. Default                                  : No
  139. Forced                                   : No

  140. Text #4
  141. ID                                       : 8
  142. Format                                   : PGS
  143. Muxing mode                              : zlib
  144. Codec ID                                 : S_HDMV/PGS
  145. Codec ID/Info                            : Picture based subtitle format used on BDs/HD-DVDs
  146. Duration                                 : 1 h 28 min
  147. Bit rate                                 : 23.5 kb/s
  148. Count of elements                        : 2037
  149. Stream size                              : 14.9 MiB (0%)
  150. Title                                    : French-PGS
  151. Language                                 : French
  152. Default                                  : No
  153. Forced                                   : No

  154. Text #5
  155. ID                                       : 9
  156. Format                                   : PGS
  157. Muxing mode                              : zlib
  158. Codec ID                                 : S_HDMV/PGS
  159. Codec ID/Info                            : Picture based subtitle format used on BDs/HD-DVDs
  160. Duration                                 : 1 h 28 min
  161. Bit rate                                 : 32.5 kb/s
  162. Count of elements                        : 2243
  163. Stream size                              : 20.6 MiB (0%)
  164. Title                                    : Spanish-PGS
  165. Language                                 : Spanish
  166. Default                                  : No
  167. Forced                                   : No

  168. Menu
  169. 00:00:00.000                             : :Chapter 1
  170. 00:04:33.439                             : :Chapter 2
  171. 00:11:16.175                             : :Chapter 3
  172. 00:18:43.914                             : :Chapter 4
  173. 00:21:41.633                             : :Chapter 5
  174. 00:27:23.350                             : :Chapter 6
  175. 00:32:37.121                             : :Chapter 7
  176. 00:37:48.432                             : :Chapter 8
  177. 00:45:14.920                             : :Chapter 9
  178. 00:50:11.717                             : :Chapter 10
  179. 00:56:17.707                             : :Chapter 11
  180. 01:00:35.757                             : :Chapter 12
  181. 01:05:28.132                             : :Chapter 13
  182. 01:09:25.119                             : :Chapter 14
  183. 01:14:37.931                             : :Chapter 15
  184. 01:20:29.324                             : :Chapter 16
复制代码

复制代码

鸡皮疙瘩2:闹鬼万圣节/毛骨悚然2 Goosebumps.2.Haunted.Halloween.2018.2160p.BluRay.x265.10bit.HDR.DTS-HD.MA.TrueHD.7.1.Atmos-SWTYBLZ 17.71GB-2.png 鸡皮疙瘩2:闹鬼万圣节/毛骨悚然2 Goosebumps.2.Haunted.Halloween.2018.2160p.BluRay.x265.10bit.HDR.DTS-HD.MA.TrueHD.7.1.Atmos-SWTYBLZ 17.71GB-3.png 鸡皮疙瘩2:闹鬼万圣节/毛骨悚然2 Goosebumps.2.Haunted.Halloween.2018.2160p.BluRay.x265.10bit.HDR.DTS-HD.MA.TrueHD.7.1.Atmos-SWTYBLZ 17.71GB-4.png 鸡皮疙瘩2:闹鬼万圣节/毛骨悚然2 Goosebumps.2.Haunted.Halloween.2018.2160p.BluRay.x265.10bit.HDR.DTS-HD.MA.TrueHD.7.1.Atmos-SWTYBLZ 17.71GB-5.png 鸡皮疙瘩2:闹鬼万圣节/毛骨悚然2 Goosebumps.2.Haunted.Halloween.2018.2160p.BluRay.x265.10bit.HDR.DTS-HD.MA.TrueHD.7.1.Atmos-SWTYBLZ 17.71GB-6.png





开通VIP免费下载本站所有资源---点这里
新手必看:资源下载、资源播放、字幕使用、等常见问题---点这里
回复

使用道具 举报

发表于 2019-1-11 14:17:45 | 显示全部楼层
感谢楼主,分享的好及时
开通VIP免费下载本站所有资源---点这里
新手必看:资源下载、资源播放、字幕使用、等常见问题---点这里
回复 支持 反对

使用道具 举报

发表于 2019-1-19 18:26:23 | 显示全部楼层
鸡皮疙瘩2:闹鬼万圣节/毛骨悚然2
开通VIP免费下载本站所有资源---点这里
新手必看:资源下载、资源播放、字幕使用、等常见问题---点这里
回复 支持 反对

使用道具 举报

发表于 2019-1-22 09:15:30 | 显示全部楼层

楼主太厉害了!楼主,电影应该很好看我觉得蓝光电影网真是个好地方!
开通VIP免费下载本站所有资源---点这里
新手必看:资源下载、资源播放、字幕使用、等常见问题---点这里
回复 支持 反对

使用道具 举报

发表于 2019-3-13 21:16:50 | 显示全部楼层
我的机也就只能放20G以内的片了。感谢楼主分享
开通VIP免费下载本站所有资源---点这里
新手必看:资源下载、资源播放、字幕使用、等常见问题---点这里
回复 支持 反对

使用道具 举报

发表于 2019-3-20 16:56:14 | 显示全部楼层
楼主发贴辛苦了,谢谢楼主分享!我觉得蓝光电影网是注册对了!
开通VIP免费下载本站所有资源---点这里
新手必看:资源下载、资源播放、字幕使用、等常见问题---点这里
回复 支持 反对

使用道具 举报

发表于 2019-5-17 22:35:34 | 显示全部楼层
谢谢楼主分享
开通VIP免费下载本站所有资源---点这里
新手必看:资源下载、资源播放、字幕使用、等常见问题---点这里
回复 支持 反对

使用道具 举报

懒得打字嘛,点击右侧快捷回复 【右侧内容,后台自定义】
您需要登录后才可以回帖 登录 | 立即加入

本版积分规则

现在加入蓝光电影网,注册一个账号

QQ| 手机版|小黑屋| 蓝光电影网 |网站地图

Copyright © 2015-2019 Comsenz Inc.  Template by 蓝光电影网 All Rights Reserved.

Powered by 蓝光电影网 X3.4

特别声明:本站所有资源均由网上收集而来,版权归原影音公司所有,如果侵犯了你的权益,请通知我们,我们会及时删除侵权内容.

快速回复 返回顶部 返回列表