找回密码

蓝光电影网

查看: 462|回复: 1

[10bit.SDR] 鸡皮疙瘩2:闹鬼万圣节/毛骨悚然2 Goosebumps.2.Haunted.Halloween.2018.2160p.BluRay.x265.10bit.SDR.DTS-HD.MA.TrueHD.7.1.Atmos-SWTYBLZ 28.20GB

[复制链接]

 成长值: 21340

发表于 2019-1-11 10:08:32 | 显示全部楼层 |阅读模式
鸡皮疙瘩2:闹鬼万圣节/毛骨悚然2 Goosebumps.2.Haunted.Halloween.2018.2160p.BluRay.x265.10bit.SDR.DTS-HD.MA.TrueHD.7.1.Atmos-SWTYBLZ 28.20GB-1.jpg
◎译  名 鸡皮疙瘩2:闹鬼万圣节 / 毛骨悚然2 / Goosebumps 2 / Goosebumps: Horrorland / 书中自有魔怪谷2: 翻生万圣节(港)
◎片  名 鸡皮疙瘩2:闹鬼万圣节 Goosebumps: Haunted Halloween
◎年  代 2018
◎国  家 美国
◎类  别 喜剧 / 恐怖 / 奇幻 / 冒险
◎语  言 英语
◎上映日期 2018-10-12(美国)
◎IMDb评分  5.7/10 from 6,523 users
◎IMDb链接  http://www.imdb.com/title/tt5664636/
◎豆瓣评分 5.3/10 from 1165 users
◎豆瓣链接 https://movie.douban.com/subject/26779967/
◎片  长 90分钟
◎导  演 阿里·桑德尔
◎主  演 温迪·麦克伦登-考威
      麦迪森·伊瑟曼
      杰里米·雷·泰勒
      郑肯
      卡里尔·哈里斯
      杰克·布莱克
      克里斯·帕内尔
      布赖斯·卡斯
      佩顿·威奇
      沙里·海德利
      克里斯蒂安·芬拉森
      马修·J·瓦斯奎斯
      考特尼·劳伦·卡明斯
      洁西·高伊
      肯德里克·克罗斯
      R·L·斯坦
      米克·温格特
      达林·德·保罗
      肖恩·麦克米伦
      帕蒂·舍尔哈斯

◎简  介 

  《鸡皮疙瘩2:闹鬼万圣节》(英语:Goosebumps 2: Haunted Halloween)是一部于2018年上映的美国恐怖喜剧片,由阿里·桑德尔执导,罗布·李伯编剧。电影改编自R·L·史汀的儿童文学系列《鸡皮疙瘩》,为2015年电影《鸡皮疙瘩》的续集。由杰瑞米·雷·泰勒、麦迪森·伊瑟曼、杰克·布莱克和郑肯主演。


  1. Video
  2. ID                                       : 1
  3. Format                                   : HEVC
  4. Format/Info                              : High Efficiency Video Coding
  5. Format profile                           : Main [url=/cdn-cgi/l/email-protection][email protected][/url]@High
  6. Codec ID                                 : V_MPEGH/ISO/HEVC
  7. Duration                                 : 1 h 29 min
  8. Bit rate                                 : 35.6 Mb/s
  9. Width                                    : 3 840 pixels
  10. Height                                   : 1 606 pixels
  11. Display aspect ratio                     : 2.40:1
  12. Frame rate mode                          : Constant
  13. Frame rate                               : 23.976 (24000/1001) FPS
  14. Color space                              : YUV
  15. Chroma subsampling                       : 4:2:0
  16. Bit depth                                : 10 bits
  17. Bits/(Pixel*Frame)                       : 0.240
  18. Stream size                              : 22.3 GiB (80%)
  19. Title                                    : Goosebumps.2.Haunted.Halloween.2018.2160p.BluRay.x265.10bit.SDR.DTS-HD.MA.TrueHD.7.1.Atmos-SWTYBLZ
  20. Writing library                          : x265 2.9+8-27d8424c799d:[Windows][GCC 8.2.0][64 bit] 10bit
  21. Encoding settings                        : cpuid=1111039 / frame-threads=16 / numa-pools=20 / wpp / no-pmode / no-pme / no-psnr / no-ssim / log-level=2 / input-csp=1 / input-res=3840x1606 / interlace=0 / total-frames=129192 / level-idc=51 / high-tier=1 / uhd-bd=0 / ref=3 / no-allow-non-conformance / repeat-headers / annexb / aud / hrd / info / hash=0 / no-temporal-layers / no-open-gop / min-keyint=1 / keyint=24 / gop-lookahead=0 / bframes=4 / b-adapt=2 / b-pyramid / bframe-bias=0 / rc-lookahead=25 / lookahead-slices=4 / scenecut=40 / radl=0 / no-intra-refresh / ctu=64 / min-cu-size=8 / no-rect / no-amp / max-tu-size=32 / tu-inter-depth=1 / tu-intra-depth=1 / limit-tu=0 / rdoq-level=0 / dynamic-rd=0.00 / no-ssim-rd / signhide / no-tskip / nr-intra=0 / nr-inter=0 / no-constrained-intra / strong-intra-smoothing / max-merge=2 / limit-refs=3 / no-limit-modes / me=1 / subme=2 / merange=57 / temporal-mvp / weightp / no-weightb / no-analyze-src-pics / deblock=0:0 / no-sao / no-sao-non-deblock / rd=3 / no-early-skip / rskip / no-fast-intra / no-tskip-fast / no-cu-lossless / no-b-intra / no-splitrd-skip / rdpenalty=0 / psy-rd=2.00 / psy-rdoq=0.00 / no-rd-refine / no-lossless / cbqpoffs=0 / crqpoffs=0 / rc=crf / crf=16.0 / qcomp=0.60 / qpstep=4 / stats-write=0 / stats-read=0 / vbv-maxrate=160000 / vbv-bufsize=160000 / vbv-init=0.9 / crf-max=0.0 / crf-min=0.0 / ipratio=1.40 / pbratio=1.30 / aq-mode=1 / aq-strength=1.00 / cutree / zone-count=0 / no-strict-cbr / qg-size=32 / no-rc-grain / qpmax=69 / qpmin=0 / no-const-vbv / sar=1 / overscan=0 / videoformat=5 / range=0 / colorprim=2 / transfer=2 / colormatrix=2 / chromaloc=0 / display-window=0 / max-cll=0,0 / min-luma=0 / max-luma=1023 / log2-max-poc-lsb=8 / vui-timing-info / vui-hrd-info / slices=1 / opt-qp-pps / opt-ref-list-length-pps / no-multi-pass-opt-rps / scenecut-bias=0.05 / no-opt-cu-delta-qp / no-aq-motion / no-hdr / no-hdr-opt / no-dhdr10-opt / no-idr-recovery-sei / analysis-reuse-level=5 / scale-factor=0 / refine-intra=0 / refine-inter=0 / refine-mv=0 / no-limit-sao / ctu-info=0 / no-lowpass-dct / refine-mv-type=0 / copy-pic=1 / max-ausize-factor=1.0 / no-dynamic-refine / no-single-sei
  22. Default                                  : Yes
  23. Forced                                   : No

  24. Audio #1
  25. ID                                       : 2
  26. Format                                   : MLP FBA 16-ch
  27. Format/Info                              : Meridian Lossless Packing FBA with 16-channel presentation
  28. Commercial name                          : Dolby TrueHD with Dolby Atmos
  29. Codec ID                                 : A_TRUEHD
  30. Duration                                 : 1 h 29 min
  31. Bit rate mode                            : Variable
  32. Bit rate                                 : 4 317 kb/s
  33. Maximum bit rate                         : 7 593 kb/s
  34. Channel(s)                               : 8 channels
  35. Channel layout                           : L R C LFE Ls Rs Lb Rb
  36. Sampling rate                            : 48.0 kHz
  37. Frame rate                               : 1 200.000 FPS (40 SPF)
  38. Compression mode                         : Lossless
  39. Delay relative to video                  : 8 ms
  40. Stream size                              : 2.71 GiB (10%)
  41. Title                                    : Goosebumps.2.Haunted.Halloween.2018.2160p.BluRay.x265.10bit.SDR.DTS-HD.MA.TrueHD.7.1.Atmos-SWTYBLZ
  42. Language                                 : English
  43. Default                                  : Yes
  44. Forced                                   : No
  45. Number of dynamic objects                : 11
  46. Bed channel count                        : 1 channel
  47. Bed channel configuration                : LFE

  48. Audio #2
  49. ID                                       : 3
  50. Format                                   : DTS XLL
  51. Format/Info                              : Digital Theater Systems
  52. Commercial name                          : DTS-HD Master Audio
  53. Codec ID                                 : A_DTS
  54. Duration                                 : 1 h 29 min
  55. Bit rate mode                            : Variable
  56. Bit rate                                 : 4 045 kb/s
  57. Channel(s)                               : 8 channels
  58. Channel layout                           : C L R LFE Lb Rb Lss Rss
  59. Sampling rate                            : 48.0 kHz
  60. Frame rate                               : 93.750 FPS (512 SPF)
  61. Bit depth                                : 24 bits
  62. Compression mode                         : Lossless
  63. Stream size                              : 2.54 GiB (9%)
  64. Title                                    : Goosebumps.2.Haunted.Halloween.2018.2160p.BluRay.x265.10bit.SDR.DTS-HD.MA.TrueHD.7.1.Atmos-SWTYBLZ
  65. Language                                 : English
  66. Default                                  : No
  67. Forced                                   : No

  68. Audio #3
  69. ID                                       : 4
  70. Format                                   : AC-3
  71. Format/Info                              : Audio Coding 3
  72. Commercial name                          : Dolby Digital
  73. Codec ID                                 : A_AC3
  74. Duration                                 : 1 h 29 min
  75. Bit rate mode                            : Constant
  76. Bit rate                                 : 640 kb/s
  77. Channel(s)                               : 6 channels
  78. Channel layout                           : L R C LFE Ls Rs
  79. Sampling rate                            : 48.0 kHz
  80. Frame rate                               : 31.250 FPS (1536 SPF)
  81. Bit depth                                : 16 bits
  82. Compression mode                         : Lossy
  83. Delay relative to video                  : 8 ms
  84. Stream size                              : 411 MiB (1%)
  85. Title                                    : Goosebumps.2.Haunted.Halloween.2018.2160p.BluRay.x265.10bit.SDR.DTS-HD.MA.TrueHD.7.1.Atmos-SWTYBLZ
  86. Language                                 : English
  87. Service kind                             : Complete Main
  88. Default                                  : No
  89. Forced                                   : No

  90. Text #1
  91. ID                                       : 5
  92. Format                                   : UTF-8
  93. Codec ID                                 : S_TEXT/UTF8
  94. Codec ID/Info                            : UTF-8 Plain Text
  95. Duration                                 : 1 h 27 min
  96. Bit rate                                 : 57 b/s
  97. Count of elements                        : 1251
  98. Stream size                              : 36.8 KiB (0%)
  99. Title                                    : English-SRT
  100. Language                                 : English
  101. Default                                  : Yes
  102. Forced                                   : No

  103. Text #2
  104. ID                                       : 6
  105. Format                                   : PGS
  106. Muxing mode                              : zlib
  107. Codec ID                                 : S_HDMV/PGS
  108. Codec ID/Info                            : Picture based subtitle format used on BDs/HD-DVDs
  109. Duration                                 : 1 h 27 min
  110. Bit rate                                 : 34.5 kb/s
  111. Count of elements                        : 2179
  112. Stream size                              : 21.6 MiB (0%)
  113. Title                                    : English-PGS
  114. Language                                 : English
  115. Default                                  : No
  116. Forced                                   : No

  117. Text #3
  118. ID                                       : 7
  119. Format                                   : PGS
  120. Muxing mode                              : zlib
  121. Codec ID                                 : S_HDMV/PGS
  122. Codec ID/Info                            : Picture based subtitle format used on BDs/HD-DVDs
  123. Duration                                 : 1 h 28 min
  124. Bit rate                                 : 41.1 kb/s
  125. Count of elements                        : 2761
  126. Stream size                              : 26.1 MiB (0%)
  127. Title                                    : English-SDH-PGS
  128. Language                                 : English
  129. Default                                  : No
  130. Forced                                   : No

  131. Text #4
  132. ID                                       : 8
  133. Format                                   : PGS
  134. Muxing mode                              : zlib
  135. Codec ID                                 : S_HDMV/PGS
  136. Codec ID/Info                            : Picture based subtitle format used on BDs/HD-DVDs
  137. Duration                                 : 1 h 28 min
  138. Bit rate                                 : 23.5 kb/s
  139. Count of elements                        : 2037
  140. Stream size                              : 14.9 MiB (0%)
  141. Title                                    : French-PGS
  142. Language                                 : French
  143. Default                                  : No
  144. Forced                                   : No

  145. Text #5
  146. ID                                       : 9
  147. Format                                   : PGS
  148. Muxing mode                              : zlib
  149. Codec ID                                 : S_HDMV/PGS
  150. Codec ID/Info                            : Picture based subtitle format used on BDs/HD-DVDs
  151. Duration                                 : 1 h 28 min
  152. Bit rate                                 : 32.5 kb/s
  153. Count of elements                        : 2243
  154. Stream size                              : 20.6 MiB (0%)
  155. Title                                    : Spanish-PGS
  156. Language                                 : Spanish
  157. Default                                  : No
  158. Forced                                   : No

  159. Menu
  160. 00:00:00.000                             : :Chapter 1
  161. 00:04:33.439                             : :Chapter 2
  162. 00:11:16.175                             : :Chapter 3
  163. 00:18:43.914                             : :Chapter 4
  164. 00:21:41.633                             : :Chapter 5
  165. 00:27:23.350                             : :Chapter 6
  166. 00:32:37.121                             : :Chapter 7
  167. 00:37:48.432                             : :Chapter 8
  168. 00:45:14.920                             : :Chapter 9
  169. 00:50:11.717                             : :Chapter 10
  170. 00:56:17.707                             : :Chapter 11
  171. 01:00:35.757                             : :Chapter 12
  172. 01:05:28.132                             : :Chapter 13
  173. 01:09:25.119                             : :Chapter 14
  174. 01:14:37.931                             : :Chapter 15
  175. 01:20:29.324                             : :Chapter 16
复制代码

复制代码

鸡皮疙瘩2:闹鬼万圣节/毛骨悚然2 Goosebumps.2.Haunted.Halloween.2018.2160p.BluRay.x265.10bit.SDR.DTS-HD.MA.TrueHD.7.1.Atmos-SWTYBLZ 28.20GB-2.png 鸡皮疙瘩2:闹鬼万圣节/毛骨悚然2 Goosebumps.2.Haunted.Halloween.2018.2160p.BluRay.x265.10bit.SDR.DTS-HD.MA.TrueHD.7.1.Atmos-SWTYBLZ 28.20GB-3.png 鸡皮疙瘩2:闹鬼万圣节/毛骨悚然2 Goosebumps.2.Haunted.Halloween.2018.2160p.BluRay.x265.10bit.SDR.DTS-HD.MA.TrueHD.7.1.Atmos-SWTYBLZ 28.20GB-4.png 鸡皮疙瘩2:闹鬼万圣节/毛骨悚然2 Goosebumps.2.Haunted.Halloween.2018.2160p.BluRay.x265.10bit.SDR.DTS-HD.MA.TrueHD.7.1.Atmos-SWTYBLZ 28.20GB-5.png 鸡皮疙瘩2:闹鬼万圣节/毛骨悚然2 Goosebumps.2.Haunted.Halloween.2018.2160p.BluRay.x265.10bit.SDR.DTS-HD.MA.TrueHD.7.1.Atmos-SWTYBLZ 28.20GB-6.png





开通VIP免费下载本站所有资源---点这里
新手必看:资源下载、资源播放、字幕使用、等常见问题---点这里
回复

使用道具 举报

发表于 2019-1-11 19:56:56 | 显示全部楼层
只需每日盖一楼即可领取奖励。每日申请一次。
开通VIP免费下载本站所有资源---点这里
新手必看:资源下载、资源播放、字幕使用、等常见问题---点这里
回复 支持 反对

使用道具 举报

懒得打字嘛,点击右侧快捷回复 【右侧内容,后台自定义】
您需要登录后才可以回帖 登录 | 立即加入

本版积分规则

现在加入蓝光电影网,注册一个账号

QQ| 手机版|小黑屋| 蓝光电影网 |网站地图

Copyright © 2015-2019 Comsenz Inc.  Template by 蓝光电影网 All Rights Reserved.

Powered by 蓝光电影网 X3.4

特别声明:本站所有资源均由网上收集而来,版权归原影音公司所有,如果侵犯了你的权益,请通知我们,我们会及时删除侵权内容.

快速回复 返回顶部 返回列表