找回密码

蓝光电影网

查看: 215|回复: 2

鸡皮疙瘩2:闹鬼万圣节/毛骨悚然2 Goosebumps.2.Haunted.Halloween.2018.2160p.BluRay.REMUX.HEVC.DTS-HD.MA.TrueHD.Atmos.7.1-FGT 48.62GB

[复制链接]
  • TA的每日心情
    开心
    9 小时前
  • 签到天数: 123 天

    [LV.7]常住居民III

     成长值: 19660

    发表于 2019-1-11 10:07:38 | 显示全部楼层 |阅读模式

    马上注册,获取最新影视资讯,享用更多功能,让你轻松玩转蓝光电影网。

    您需要 登录 才可以下载或查看,没有帐号?立即加入

    x

    鸡皮疙瘩2:闹鬼万圣节/毛骨悚然2 Goosebumps.2.Haunted.Halloween.2018.2160p.BluRay.REMUX.HEVC.DTS-HD.MA.TrueHD.Atmos.7.1-FGT 48.62GB-1.jpg
    ◎译  名 鸡皮疙瘩2:闹鬼万圣节 / 毛骨悚然2 / Goosebumps 2 / Goosebumps: Horrorland / 书中自有魔怪谷2: 翻生万圣节(港)
    ◎片  名 鸡皮疙瘩2:闹鬼万圣节 Goosebumps: Haunted Halloween
    ◎年  代 2018
    ◎国  家 美国
    ◎类  别 喜剧 / 恐怖 / 奇幻 / 冒险
    ◎语  言 英语
    ◎上映日期 2018-10-12(美国)
    ◎IMDb评分  5.7/10 from 6,523 users
    ◎IMDb链接  http://www.imdb.com/title/tt5664636/
    ◎豆瓣评分 5.3/10 from 1165 users
    ◎豆瓣链接 https://movie.douban.com/subject/26779967/
    ◎片  长 90分钟
    ◎导  演 阿里·桑德尔
    ◎主  演 温迪·麦克伦登-考威
          麦迪森·伊瑟曼
          杰里米·雷·泰勒
          郑肯
          卡里尔·哈里斯
          杰克·布莱克
          克里斯·帕内尔
          布赖斯·卡斯
          佩顿·威奇
          沙里·海德利
          克里斯蒂安·芬拉森
          马修·J·瓦斯奎斯
          考特尼·劳伦·卡明斯
          洁西·高伊
          肯德里克·克罗斯
          R·L·斯坦
          米克·温格特
          达林·德·保罗
          肖恩·麦克米伦
          帕蒂·舍尔哈斯

    ◎简  介 

      《鸡皮疙瘩2:闹鬼万圣节》(英语:Goosebumps 2: Haunted Halloween)是一部于2018年上映的美国恐怖喜剧片,由阿里·桑德尔执导,罗布·李伯编剧。电影改编自R·L·史汀的儿童文学系列《鸡皮疙瘩》,为2015年电影《鸡皮疙瘩》的续集。由杰瑞米·雷·泰勒、麦迪森·伊瑟曼、杰克·布莱克和郑肯主演。

    • Video
    • ID                                       : 1
    • Format                                   : HEVC
    • Format/Info                              : High Efficiency Video Coding
    • Commercial name                          : HDR10
    • Format profile                           : Main [email protected]@High
    • Codec ID                                 : V_MPEGH/ISO/HEVC
    • Duration                                 : 1 h 29 min
    • Bit rate                                 : 64.2 Mb/s
    • Width                                    : 3 840 pixels
    • Height                                   : 2 160 pixels
    • Display aspect ratio                     : 16:9
    • Frame rate mode                          : Constant
    • Frame rate                               : 23.976 (24000/1001) FPS
    • Color space                              : YUV
    • Chroma subsampling                       : 4:2:0 (Type 2)
    • Bit depth                                : 10 bits
    • Bits/(Pixel*Frame)                       : 0.323
    • Stream size                              : 40.3 GiB (83%)
    • Title                                    : Goosebumps.2.Haunted.Halloween.2018.2160p.BluRay.REMUX.HEVC.DTS-HD.MA.TrueHD.Atmos.7.1-FGT
    • Default                                  : Yes
    • Forced                                   : No
    • Color range                              : Limited
    • Color primaries                          : BT.2020
    • Transfer characteristics                 : PQ
    • Matrix coefficients                      : BT.2020 non-constant
    • Mastering display color primaries        : Display P3
    • Mastering display luminance              : min: 0.0050 cd/m2, max: 4000 cd/m2
    • Maximum Content Light Level              : 981 cd/m2
    • Maximum Frame-Average Light Level        : 979 cd/m2
    • Audio #1
    • ID                                       : 2
    • Format                                   : MLP FBA 16-ch
    • Format/Info                              : Meridian Lossless Packing FBA with 16-channel presentation
    • Commercial name                          : Dolby TrueHD with Dolby Atmos
    • Codec ID                                 : A_TRUEHD
    • Duration                                 : 1 h 29 min
    • Bit rate mode                            : Variable
    • Bit rate                                 : 4 317 kb/s
    • Maximum bit rate                         : 7 593 kb/s
    • Channel(s)                               : 8 channels
    • Channel layout                           : L R C LFE Ls Rs Lb Rb
    • Sampling rate                            : 48.0 kHz
    • Frame rate                               : 1 200.000 FPS (40 SPF)
    • Compression mode                         : Lossless
    • Stream size                              : 2.71 GiB (6%)
    • Title                                    : Goosebumps.2.Haunted.Halloween.2018.2160p.BluRay.REMUX.HEVC.DTS-HD.MA.TrueHD.Atmos.7.1-FGT
    • Language                                 : English
    • Default                                  : Yes
    • Forced                                   : No
    • Number of dynamic objects                : 11
    • Bed channel count                        : 1 channel
    • Bed channel configuration                : LFE
    • Audio #2
    • ID                                       : 3
    • Format                                   : DTS XLL
    • Format/Info                              : Digital Theater Systems
    • Commercial name                          : DTS-HD Master Audio
    • Codec ID                                 : A_DTS
    • Duration                                 : 1 h 29 min
    • Bit rate mode                            : Variable
    • Bit rate                                 : 4 045 kb/s
    • Channel(s)                               : 8 channels
    • Channel layout                           : C L R LFE Lb Rb Lss Rss
    • Sampling rate                            : 48.0 kHz
    • Frame rate                               : 93.750 FPS (512 SPF)
    • Bit depth                                : 24 bits
    • Compression mode                         : Lossless
    • Delay relative to video                  : -8 ms
    • Stream size                              : 2.54 GiB (5%)
    • Title                                    : Goosebumps.2.Haunted.Halloween.2018.2160p.BluRay.REMUX.HEVC.DTS-HD.MA.TrueHD.Atmos.7.1-FGT
    • Language                                 : English
    • Default                                  : No
    • Forced                                   : No
    • Audio #3
    • ID                                       : 4
    • Format                                   : AC-3
    • Format/Info                              : Audio Coding 3
    • Commercial name                          : Dolby Digital
    • Codec ID                                 : A_AC3
    • Duration                                 : 1 h 29 min
    • Bit rate mode                            : Constant
    • Bit rate                                 : 640 kb/s
    • Channel(s)                               : 6 channels
    • Channel layout                           : L R C LFE Ls Rs
    • Sampling rate                            : 48.0 kHz
    • Frame rate                               : 31.250 FPS (1536 SPF)
    • Bit depth                                : 16 bits
    • Compression mode                         : Lossy
    • Stream size                              : 411 MiB (1%)
    • Title                                    : Goosebumps.2.Haunted.Halloween.2018.2160p.BluRay.REMUX.HEVC.DTS-HD.MA.TrueHD.Atmos.7.1-FGT
    • Language                                 : English
    • Service kind                             : Complete Main
    • Default                                  : No
    • Forced                                   : No
    • Audio #4
    • ID                                       : 5
    • Format                                   : AC-3
    • Format/Info                              : Audio Coding 3
    • Commercial name                          : Dolby Digital
    • Codec ID                                 : A_AC3
    • Duration                                 : 1 h 29 min
    • Bit rate mode                            : Constant
    • Bit rate                                 : 640 kb/s
    • Channel(s)                               : 6 channels
    • Channel layout                           : L R C LFE Ls Rs
    • Sampling rate                            : 48.0 kHz
    • Frame rate                               : 31.250 FPS (1536 SPF)
    • Bit depth                                : 16 bits
    • Compression mode                         : Lossy
    • Delay relative to video                  : 24 ms
    • Stream size                              : 411 MiB (1%)
    • Title                                    : Goosebumps.2.Haunted.Halloween.2018.2160p.BluRay.REMUX.HEVC.DTS-HD.MA.TrueHD.Atmos.7.1-FGT
    • Language                                 : English
    • Service kind                             : Complete Main
    • Default                                  : No
    • Forced                                   : No
    • Audio #5
    • ID                                       : 6
    • Format                                   : DTS XLL
    • Format/Info                              : Digital Theater Systems
    • Commercial name                          : DTS-HD Master Audio
    • Codec ID                                 : A_DTS
    • Duration                                 : 1 h 29 min
    • Bit rate mode                            : Variable
    • Bit rate                                 : 2 241 kb/s
    • Channel(s)                               : 6 channels
    • Channel layout                           : C L R Ls Rs LFE
    • Sampling rate                            : 48.0 kHz
    • Frame rate                               : 93.750 FPS (512 SPF)
    • Bit depth                                : 16 bits
    • Compression mode                         : Lossless
    • Stream size                              : 1.41 GiB (3%)
    • Title                                    : Goosebumps.2.Haunted.Halloween.2018.2160p.BluRay.REMUX.HEVC.DTS-HD.MA.TrueHD.Atmos.7.1-FGT
    • Language                                 : French
    • Default                                  : No
    • Forced                                   : No
    • Audio #6
    • ID                                       : 7
    • Format                                   : AC-3
    • Format/Info                              : Audio Coding 3
    • Commercial name                          : Dolby Digital
    • Codec ID                                 : A_AC3
    • Duration                                 : 1 h 29 min
    • Bit rate mode                            : Constant
    • Bit rate                                 : 640 kb/s
    • Channel(s)                               : 6 channels
    • Channel layout                           : L R C LFE Ls Rs
    • Sampling rate                            : 48.0 kHz
    • Frame rate                               : 31.250 FPS (1536 SPF)
    • Bit depth                                : 16 bits
    • Compression mode                         : Lossy
    • Delay relative to video                  : 24 ms
    • Stream size                              : 411 MiB (1%)
    • Title                                    : Goosebumps.2.Haunted.Halloween.2018.2160p.BluRay.REMUX.HEVC.DTS-HD.MA.TrueHD.Atmos.7.1-FGT
    • Language                                 : French
    • Service kind                             : Complete Main
    • Default                                  : No
    • Forced                                   : No
    • Audio #7
    • ID                                       : 8
    • Format                                   : AC-3
    • Format/Info                              : Audio Coding 3
    • Commercial name                          : Dolby Digital
    • Codec ID                                 : A_AC3
    • Duration                                 : 1 h 29 min
    • Bit rate mode                            : Constant
    • Bit rate                                 : 640 kb/s
    • Channel(s)                               : 6 channels
    • Channel layout                           : L R C LFE Ls Rs
    • Sampling rate                            : 48.0 kHz
    • Frame rate                               : 31.250 FPS (1536 SPF)
    • Bit depth                                : 16 bits
    • Compression mode                         : Lossy
    • Delay relative to video                  : 24 ms
    • Stream size                              : 411 MiB (1%)
    • Title                                    : Goosebumps.2.Haunted.Halloween.2018.2160p.BluRay.REMUX.HEVC.DTS-HD.MA.TrueHD.Atmos.7.1-FGT
    • Language                                 : Spanish
    • Service kind                             : Complete Main
    • Default                                  : No
    • Forced                                   : No
    • Text #1
    • ID                                       : 9
    • Format                                   : UTF-8
    • Codec ID                                 : S_TEXT/UTF8
    • Codec ID/Info                            : UTF-8 Plain Text
    • Duration                                 : 1 h 27 min
    • Bit rate                                 : 57 b/s
    • Count of elements                        : 1251
    • Stream size                              : 36.8 KiB (0%)
    • Title                                    : English-SRT
    • Language                                 : English
    • Default                                  : Yes
    • Forced                                   : No
    • Text #2
    • ID                                       : 10
    • Format                                   : PGS
    • Muxing mode                              : zlib
    • Codec ID                                 : S_HDMV/PGS
    • Codec ID/Info                            : Picture based subtitle format used on BDs/HD-DVDs
    • Duration                                 : 1 h 27 min
    • Bit rate                                 : 34.5 kb/s
    • Count of elements                        : 2179
    • Stream size                              : 21.6 MiB (0%)
    • Title                                    : English-PGS
    • Language                                 : English
    • Default                                  : No
    • Forced                                   : No
    • Text #3
    • ID                                       : 11
    • Format                                   : PGS
    • Muxing mode                              : zlib
    • Codec ID                                 : S_HDMV/PGS
    • Codec ID/Info                            : Picture based subtitle format used on BDs/HD-DVDs
    • Duration                                 : 1 h 28 min
    • Bit rate                                 : 41.1 kb/s
    • Count of elements                        : 2761
    • Stream size                              : 26.1 MiB (0%)
    • Title                                    : English-SDH-PGS
    • Language                                 : English
    • Default                                  : No
    • Forced                                   : No
    • Text #4
    • ID                                       : 12
    • Format                                   : PGS
    • Muxing mode                              : zlib
    • Codec ID                                 : S_HDMV/PGS
    • Codec ID/Info                            : Picture based subtitle format used on BDs/HD-DVDs
    • Duration                                 : 1 h 28 min
    • Bit rate                                 : 23.5 kb/s
    • Count of elements                        : 2037
    • Stream size                              : 14.9 MiB (0%)
    • Title                                    : French-PGS
    • Language                                 : French
    • Default                                  : No
    • Forced                                   : No
    • Text #5
    • ID                                       : 13
    • Format                                   : PGS
    • Muxing mode                              : zlib
    • Codec ID                                 : S_HDMV/PGS
    • Codec ID/Info                            : Picture based subtitle format used on BDs/HD-DVDs
    • Duration                                 : 1 h 28 min
    • Bit rate                                 : 32.5 kb/s
    • Count of elements                        : 2243
    • Stream size                              : 20.6 MiB (0%)
    • Title                                    : Spanish-PGS
    • Language                                 : Spanish
    • Default                                  : No
    • Forced                                   : No
    • Text #6
    • ID                                       : 14
    • Format                                   : PGS
    • Muxing mode                              : zlib
    • Codec ID                                 : S_HDMV/PGS
    • Codec ID/Info                            : Picture based subtitle format used on BDs/HD-DVDs
    • Duration                                 : 49 min 40 s
    • Bit rate                                 : 243 b/s
    • Count of elements                        : 8
    • Stream size                              : 88.5 KiB (0%)
    • Title                                    : French-FORCED-PGS
    • Language                                 : French
    • Default                                  : No
    • Forced                                   : No
    • Menu
    • 00:00:00.000                             : :Chapter 1
    • 00:04:33.439                             : :Chapter 2
    • 00:11:16.175                             : :Chapter 3
    • 00:18:43.914                             : :Chapter 4
    • 00:21:41.633                             : :Chapter 5
    • 00:27:23.350                             : :Chapter 6
    • 00:32:37.121                             : :Chapter 7
    • 00:37:48.432                             : :Chapter 8
    • 00:45:14.920                             : :Chapter 9
    • 00:50:11.717                             : :Chapter 10
    • 00:56:17.707                             : :Chapter 11
    • 01:00:35.757                             : :Chapter 12
    • 01:05:28.132                             : :Chapter 13
    • 01:09:25.119                             : :Chapter 14
    • 01:14:37.931                             : :Chapter 15
    • 01:20:29.324                             : :Chapter 16

    复制代码

    鸡皮疙瘩2:闹鬼万圣节/毛骨悚然2 Goosebumps.2.Haunted.Halloween.2018.2160p.BluRay.REMUX.HEVC.DTS-HD.MA.TrueHD.Atmos.7.1-FGT 48.62GB-2.png 鸡皮疙瘩2:闹鬼万圣节/毛骨悚然2 Goosebumps.2.Haunted.Halloween.2018.2160p.BluRay.REMUX.HEVC.DTS-HD.MA.TrueHD.Atmos.7.1-FGT 48.62GB-3.png 鸡皮疙瘩2:闹鬼万圣节/毛骨悚然2 Goosebumps.2.Haunted.Halloween.2018.2160p.BluRay.REMUX.HEVC.DTS-HD.MA.TrueHD.Atmos.7.1-FGT 48.62GB-4.png





    Goosebumps.2.Haunted.Halloween.2018.2160p.BluRay.REMUX.HEVC.DTS-HD.MA.TrueHD.Atm.torrent (122.16 KB, 下载次数: 18)
    开通VIP免费下载本站所有资源---点这里
    新手必看:资源下载、资源播放、字幕使用、等常见问题---点这里
    回复

    使用道具 举报

  • TA的每日心情
    慵懒
    2019-3-12 13:36
  • 签到天数: 3 天

    [LV.2]偶尔看看I

    发表于 2019-1-12 22:05:22 | 显示全部楼层
    楼主发贴辛苦了,谢谢楼主分享!我觉得蓝光电影网是注册对了!
    [发帖际遇]: 一个袋子砸在了 bajiao 头上,bajiao 赚了 1 蓝光币. 幸运榜 / 衰神榜
    开通VIP免费下载本站所有资源---点这里
    新手必看:资源下载、资源播放、字幕使用、等常见问题---点这里
    回复 支持 反对

    使用道具 举报

  • TA的每日心情
    无聊
    半小时前
  • 签到天数: 125 天

    [LV.7]常住居民III

    发表于 2019-1-19 12:47:12 | 显示全部楼层
    谢谢发片。
    开通VIP免费下载本站所有资源---点这里
    新手必看:资源下载、资源播放、字幕使用、等常见问题---点这里
    回复

    使用道具 举报

    *滑动验证:
    懒得打字嘛,点击右侧快捷回复 【右侧内容,后台自定义】
    您需要登录后才可以回帖 登录 | 立即加入

    本版积分规则

    现在加入蓝光电影网,注册一个账号

    QQ| 手机版|小黑屋| 蓝光电影网 |网站地图

    Copyright © 20013-2018 Comsenz Inc.  Template by 蓝光电影论坛 All Rights Reserved.

    Powered by 高清电影网 X3.4
    特别声明:本站所有资源均由网上收集而来,版权归原影音公司所有,如果侵犯了你的权益,请通知我们,我们会及时删除侵权内容.

    快速回复 返回顶部 返回列表