找回密码

蓝光电影网

查看: 349|回复: 2

[REMUX.HEVC] 鸡皮疙瘩2:闹鬼万圣节/毛骨悚然2 Goosebumps.2.Haunted.Halloween.2018.2160p.BluRay.REMUX.HEVC.DTS-HD.MA.TrueHD.Atmos.7.1-FGT 48.62GB

[复制链接]

 成长值: 21340

发表于 2019-1-11 10:07:38 | 显示全部楼层 |阅读模式
鸡皮疙瘩2:闹鬼万圣节/毛骨悚然2 Goosebumps.2.Haunted.Halloween.2018.2160p.BluRay.REMUX.HEVC.DTS-HD.MA.TrueHD.Atmos.7.1-FGT 48.62GB-1.jpg
◎译  名 鸡皮疙瘩2:闹鬼万圣节 / 毛骨悚然2 / Goosebumps 2 / Goosebumps: Horrorland / 书中自有魔怪谷2: 翻生万圣节(港)
◎片  名 鸡皮疙瘩2:闹鬼万圣节 Goosebumps: Haunted Halloween
◎年  代 2018
◎国  家 美国
◎类  别 喜剧 / 恐怖 / 奇幻 / 冒险
◎语  言 英语
◎上映日期 2018-10-12(美国)
◎IMDb评分  5.7/10 from 6,523 users
◎IMDb链接  http://www.imdb.com/title/tt5664636/
◎豆瓣评分 5.3/10 from 1165 users
◎豆瓣链接 https://movie.douban.com/subject/26779967/
◎片  长 90分钟
◎导  演 阿里·桑德尔
◎主  演 温迪·麦克伦登-考威
      麦迪森·伊瑟曼
      杰里米·雷·泰勒
      郑肯
      卡里尔·哈里斯
      杰克·布莱克
      克里斯·帕内尔
      布赖斯·卡斯
      佩顿·威奇
      沙里·海德利
      克里斯蒂安·芬拉森
      马修·J·瓦斯奎斯
      考特尼·劳伦·卡明斯
      洁西·高伊
      肯德里克·克罗斯
      R·L·斯坦
      米克·温格特
      达林·德·保罗
      肖恩·麦克米伦
      帕蒂·舍尔哈斯

◎简  介 

  《鸡皮疙瘩2:闹鬼万圣节》(英语:Goosebumps 2: Haunted Halloween)是一部于2018年上映的美国恐怖喜剧片,由阿里·桑德尔执导,罗布·李伯编剧。电影改编自R·L·史汀的儿童文学系列《鸡皮疙瘩》,为2015年电影《鸡皮疙瘩》的续集。由杰瑞米·雷·泰勒、麦迪森·伊瑟曼、杰克·布莱克和郑肯主演。


  1. Video
  2. ID                                       : 1
  3. Format                                   : HEVC
  4. Format/Info                              : High Efficiency Video Coding
  5. Commercial name                          : HDR10
  6. Format profile                           : Main [url=/cdn-cgi/l/email-protection][email protected][/url]@High
  7. Codec ID                                 : V_MPEGH/ISO/HEVC
  8. Duration                                 : 1 h 29 min
  9. Bit rate                                 : 64.2 Mb/s
  10. Width                                    : 3 840 pixels
  11. Height                                   : 2 160 pixels
  12. Display aspect ratio                     : 16:9
  13. Frame rate mode                          : Constant
  14. Frame rate                               : 23.976 (24000/1001) FPS
  15. Color space                              : YUV
  16. Chroma subsampling                       : 4:2:0 (Type 2)
  17. Bit depth                                : 10 bits
  18. Bits/(Pixel*Frame)                       : 0.323
  19. Stream size                              : 40.3 GiB (83%)
  20. Title                                    : Goosebumps.2.Haunted.Halloween.2018.2160p.BluRay.REMUX.HEVC.DTS-HD.MA.TrueHD.Atmos.7.1-FGT
  21. Default                                  : Yes
  22. Forced                                   : No
  23. Color range                              : Limited
  24. Color primaries                          : BT.2020
  25. Transfer characteristics                 : PQ
  26. Matrix coefficients                      : BT.2020 non-constant
  27. Mastering display color primaries        : Display P3
  28. Mastering display luminance              : min: 0.0050 cd/m2, max: 4000 cd/m2
  29. Maximum Content Light Level              : 981 cd/m2
  30. Maximum Frame-Average Light Level        : 979 cd/m2

  31. Audio #1
  32. ID                                       : 2
  33. Format                                   : MLP FBA 16-ch
  34. Format/Info                              : Meridian Lossless Packing FBA with 16-channel presentation
  35. Commercial name                          : Dolby TrueHD with Dolby Atmos
  36. Codec ID                                 : A_TRUEHD
  37. Duration                                 : 1 h 29 min
  38. Bit rate mode                            : Variable
  39. Bit rate                                 : 4 317 kb/s
  40. Maximum bit rate                         : 7 593 kb/s
  41. Channel(s)                               : 8 channels
  42. Channel layout                           : L R C LFE Ls Rs Lb Rb
  43. Sampling rate                            : 48.0 kHz
  44. Frame rate                               : 1 200.000 FPS (40 SPF)
  45. Compression mode                         : Lossless
  46. Stream size                              : 2.71 GiB (6%)
  47. Title                                    : Goosebumps.2.Haunted.Halloween.2018.2160p.BluRay.REMUX.HEVC.DTS-HD.MA.TrueHD.Atmos.7.1-FGT
  48. Language                                 : English
  49. Default                                  : Yes
  50. Forced                                   : No
  51. Number of dynamic objects                : 11
  52. Bed channel count                        : 1 channel
  53. Bed channel configuration                : LFE

  54. Audio #2
  55. ID                                       : 3
  56. Format                                   : DTS XLL
  57. Format/Info                              : Digital Theater Systems
  58. Commercial name                          : DTS-HD Master Audio
  59. Codec ID                                 : A_DTS
  60. Duration                                 : 1 h 29 min
  61. Bit rate mode                            : Variable
  62. Bit rate                                 : 4 045 kb/s
  63. Channel(s)                               : 8 channels
  64. Channel layout                           : C L R LFE Lb Rb Lss Rss
  65. Sampling rate                            : 48.0 kHz
  66. Frame rate                               : 93.750 FPS (512 SPF)
  67. Bit depth                                : 24 bits
  68. Compression mode                         : Lossless
  69. Delay relative to video                  : -8 ms
  70. Stream size                              : 2.54 GiB (5%)
  71. Title                                    : Goosebumps.2.Haunted.Halloween.2018.2160p.BluRay.REMUX.HEVC.DTS-HD.MA.TrueHD.Atmos.7.1-FGT
  72. Language                                 : English
  73. Default                                  : No
  74. Forced                                   : No

  75. Audio #3
  76. ID                                       : 4
  77. Format                                   : AC-3
  78. Format/Info                              : Audio Coding 3
  79. Commercial name                          : Dolby Digital
  80. Codec ID                                 : A_AC3
  81. Duration                                 : 1 h 29 min
  82. Bit rate mode                            : Constant
  83. Bit rate                                 : 640 kb/s
  84. Channel(s)                               : 6 channels
  85. Channel layout                           : L R C LFE Ls Rs
  86. Sampling rate                            : 48.0 kHz
  87. Frame rate                               : 31.250 FPS (1536 SPF)
  88. Bit depth                                : 16 bits
  89. Compression mode                         : Lossy
  90. Stream size                              : 411 MiB (1%)
  91. Title                                    : Goosebumps.2.Haunted.Halloween.2018.2160p.BluRay.REMUX.HEVC.DTS-HD.MA.TrueHD.Atmos.7.1-FGT
  92. Language                                 : English
  93. Service kind                             : Complete Main
  94. Default                                  : No
  95. Forced                                   : No

  96. Audio #4
  97. ID                                       : 5
  98. Format                                   : AC-3
  99. Format/Info                              : Audio Coding 3
  100. Commercial name                          : Dolby Digital
  101. Codec ID                                 : A_AC3
  102. Duration                                 : 1 h 29 min
  103. Bit rate mode                            : Constant
  104. Bit rate                                 : 640 kb/s
  105. Channel(s)                               : 6 channels
  106. Channel layout                           : L R C LFE Ls Rs
  107. Sampling rate                            : 48.0 kHz
  108. Frame rate                               : 31.250 FPS (1536 SPF)
  109. Bit depth                                : 16 bits
  110. Compression mode                         : Lossy
  111. Delay relative to video                  : 24 ms
  112. Stream size                              : 411 MiB (1%)
  113. Title                                    : Goosebumps.2.Haunted.Halloween.2018.2160p.BluRay.REMUX.HEVC.DTS-HD.MA.TrueHD.Atmos.7.1-FGT
  114. Language                                 : English
  115. Service kind                             : Complete Main
  116. Default                                  : No
  117. Forced                                   : No

  118. Audio #5
  119. ID                                       : 6
  120. Format                                   : DTS XLL
  121. Format/Info                              : Digital Theater Systems
  122. Commercial name                          : DTS-HD Master Audio
  123. Codec ID                                 : A_DTS
  124. Duration                                 : 1 h 29 min
  125. Bit rate mode                            : Variable
  126. Bit rate                                 : 2 241 kb/s
  127. Channel(s)                               : 6 channels
  128. Channel layout                           : C L R Ls Rs LFE
  129. Sampling rate                            : 48.0 kHz
  130. Frame rate                               : 93.750 FPS (512 SPF)
  131. Bit depth                                : 16 bits
  132. Compression mode                         : Lossless
  133. Stream size                              : 1.41 GiB (3%)
  134. Title                                    : Goosebumps.2.Haunted.Halloween.2018.2160p.BluRay.REMUX.HEVC.DTS-HD.MA.TrueHD.Atmos.7.1-FGT
  135. Language                                 : French
  136. Default                                  : No
  137. Forced                                   : No

  138. Audio #6
  139. ID                                       : 7
  140. Format                                   : AC-3
  141. Format/Info                              : Audio Coding 3
  142. Commercial name                          : Dolby Digital
  143. Codec ID                                 : A_AC3
  144. Duration                                 : 1 h 29 min
  145. Bit rate mode                            : Constant
  146. Bit rate                                 : 640 kb/s
  147. Channel(s)                               : 6 channels
  148. Channel layout                           : L R C LFE Ls Rs
  149. Sampling rate                            : 48.0 kHz
  150. Frame rate                               : 31.250 FPS (1536 SPF)
  151. Bit depth                                : 16 bits
  152. Compression mode                         : Lossy
  153. Delay relative to video                  : 24 ms
  154. Stream size                              : 411 MiB (1%)
  155. Title                                    : Goosebumps.2.Haunted.Halloween.2018.2160p.BluRay.REMUX.HEVC.DTS-HD.MA.TrueHD.Atmos.7.1-FGT
  156. Language                                 : French
  157. Service kind                             : Complete Main
  158. Default                                  : No
  159. Forced                                   : No

  160. Audio #7
  161. ID                                       : 8
  162. Format                                   : AC-3
  163. Format/Info                              : Audio Coding 3
  164. Commercial name                          : Dolby Digital
  165. Codec ID                                 : A_AC3
  166. Duration                                 : 1 h 29 min
  167. Bit rate mode                            : Constant
  168. Bit rate                                 : 640 kb/s
  169. Channel(s)                               : 6 channels
  170. Channel layout                           : L R C LFE Ls Rs
  171. Sampling rate                            : 48.0 kHz
  172. Frame rate                               : 31.250 FPS (1536 SPF)
  173. Bit depth                                : 16 bits
  174. Compression mode                         : Lossy
  175. Delay relative to video                  : 24 ms
  176. Stream size                              : 411 MiB (1%)
  177. Title                                    : Goosebumps.2.Haunted.Halloween.2018.2160p.BluRay.REMUX.HEVC.DTS-HD.MA.TrueHD.Atmos.7.1-FGT
  178. Language                                 : Spanish
  179. Service kind                             : Complete Main
  180. Default                                  : No
  181. Forced                                   : No

  182. Text #1
  183. ID                                       : 9
  184. Format                                   : UTF-8
  185. Codec ID                                 : S_TEXT/UTF8
  186. Codec ID/Info                            : UTF-8 Plain Text
  187. Duration                                 : 1 h 27 min
  188. Bit rate                                 : 57 b/s
  189. Count of elements                        : 1251
  190. Stream size                              : 36.8 KiB (0%)
  191. Title                                    : English-SRT
  192. Language                                 : English
  193. Default                                  : Yes
  194. Forced                                   : No

  195. Text #2
  196. ID                                       : 10
  197. Format                                   : PGS
  198. Muxing mode                              : zlib
  199. Codec ID                                 : S_HDMV/PGS
  200. Codec ID/Info                            : Picture based subtitle format used on BDs/HD-DVDs
  201. Duration                                 : 1 h 27 min
  202. Bit rate                                 : 34.5 kb/s
  203. Count of elements                        : 2179
  204. Stream size                              : 21.6 MiB (0%)
  205. Title                                    : English-PGS
  206. Language                                 : English
  207. Default                                  : No
  208. Forced                                   : No

  209. Text #3
  210. ID                                       : 11
  211. Format                                   : PGS
  212. Muxing mode                              : zlib
  213. Codec ID                                 : S_HDMV/PGS
  214. Codec ID/Info                            : Picture based subtitle format used on BDs/HD-DVDs
  215. Duration                                 : 1 h 28 min
  216. Bit rate                                 : 41.1 kb/s
  217. Count of elements                        : 2761
  218. Stream size                              : 26.1 MiB (0%)
  219. Title                                    : English-SDH-PGS
  220. Language                                 : English
  221. Default                                  : No
  222. Forced                                   : No

  223. Text #4
  224. ID                                       : 12
  225. Format                                   : PGS
  226. Muxing mode                              : zlib
  227. Codec ID                                 : S_HDMV/PGS
  228. Codec ID/Info                            : Picture based subtitle format used on BDs/HD-DVDs
  229. Duration                                 : 1 h 28 min
  230. Bit rate                                 : 23.5 kb/s
  231. Count of elements                        : 2037
  232. Stream size                              : 14.9 MiB (0%)
  233. Title                                    : French-PGS
  234. Language                                 : French
  235. Default                                  : No
  236. Forced                                   : No

  237. Text #5
  238. ID                                       : 13
  239. Format                                   : PGS
  240. Muxing mode                              : zlib
  241. Codec ID                                 : S_HDMV/PGS
  242. Codec ID/Info                            : Picture based subtitle format used on BDs/HD-DVDs
  243. Duration                                 : 1 h 28 min
  244. Bit rate                                 : 32.5 kb/s
  245. Count of elements                        : 2243
  246. Stream size                              : 20.6 MiB (0%)
  247. Title                                    : Spanish-PGS
  248. Language                                 : Spanish
  249. Default                                  : No
  250. Forced                                   : No

  251. Text #6
  252. ID                                       : 14
  253. Format                                   : PGS
  254. Muxing mode                              : zlib
  255. Codec ID                                 : S_HDMV/PGS
  256. Codec ID/Info                            : Picture based subtitle format used on BDs/HD-DVDs
  257. Duration                                 : 49 min 40 s
  258. Bit rate                                 : 243 b/s
  259. Count of elements                        : 8
  260. Stream size                              : 88.5 KiB (0%)
  261. Title                                    : French-FORCED-PGS
  262. Language                                 : French
  263. Default                                  : No
  264. Forced                                   : No

  265. Menu
  266. 00:00:00.000                             : :Chapter 1
  267. 00:04:33.439                             : :Chapter 2
  268. 00:11:16.175                             : :Chapter 3
  269. 00:18:43.914                             : :Chapter 4
  270. 00:21:41.633                             : :Chapter 5
  271. 00:27:23.350                             : :Chapter 6
  272. 00:32:37.121                             : :Chapter 7
  273. 00:37:48.432                             : :Chapter 8
  274. 00:45:14.920                             : :Chapter 9
  275. 00:50:11.717                             : :Chapter 10
  276. 00:56:17.707                             : :Chapter 11
  277. 01:00:35.757                             : :Chapter 12
  278. 01:05:28.132                             : :Chapter 13
  279. 01:09:25.119                             : :Chapter 14
  280. 01:14:37.931                             : :Chapter 15
  281. 01:20:29.324                             : :Chapter 16
复制代码

复制代码

鸡皮疙瘩2:闹鬼万圣节/毛骨悚然2 Goosebumps.2.Haunted.Halloween.2018.2160p.BluRay.REMUX.HEVC.DTS-HD.MA.TrueHD.Atmos.7.1-FGT 48.62GB-2.png 鸡皮疙瘩2:闹鬼万圣节/毛骨悚然2 Goosebumps.2.Haunted.Halloween.2018.2160p.BluRay.REMUX.HEVC.DTS-HD.MA.TrueHD.Atmos.7.1-FGT 48.62GB-3.png 鸡皮疙瘩2:闹鬼万圣节/毛骨悚然2 Goosebumps.2.Haunted.Halloween.2018.2160p.BluRay.REMUX.HEVC.DTS-HD.MA.TrueHD.Atmos.7.1-FGT 48.62GB-4.png





开通VIP免费下载本站所有资源---点这里
新手必看:资源下载、资源播放、字幕使用、等常见问题---点这里
回复

使用道具 举报

发表于 2019-1-12 22:05:22 | 显示全部楼层
楼主发贴辛苦了,谢谢楼主分享!我觉得蓝光电影网是注册对了!
开通VIP免费下载本站所有资源---点这里
新手必看:资源下载、资源播放、字幕使用、等常见问题---点这里
回复 支持 反对

使用道具 举报

发表于 2019-1-19 12:47:12 | 显示全部楼层
谢谢发片。
开通VIP免费下载本站所有资源---点这里
新手必看:资源下载、资源播放、字幕使用、等常见问题---点这里
回复

使用道具 举报

懒得打字嘛,点击右侧快捷回复 【右侧内容,后台自定义】
您需要登录后才可以回帖 登录 | 立即加入

本版积分规则

现在加入蓝光电影网,注册一个账号

QQ| 手机版|小黑屋| 蓝光电影网 |网站地图

Copyright © 2015-2019 Comsenz Inc.  Template by 蓝光电影网 All Rights Reserved.

Powered by 蓝光电影网 X3.4

特别声明:本站所有资源均由网上收集而来,版权归原影音公司所有,如果侵犯了你的权益,请通知我们,我们会及时删除侵权内容.

快速回复 返回顶部 返回列表