找回密码

蓝光电影网

查看: 3648|回复: 153

辛德勒的名单/舒特拉的名单 Schindlers.List.1993.INTERNAL.2160p.UHD.BluRay.X265.10bit.HDR.TrueHD.7.1.Atmos-IAMABLE 53.95GB

  [复制链接]
  • TA的每日心情
    开心
    昨天 00:08
  • 签到天数: 181 天

    [LV.7]常住居民III

     成长值: 20575

    发表于 2018-12-18 21:37:50 | 显示全部楼层 |阅读模式

    马上注册,获取最新影视资讯,享用更多功能,让你轻松玩转蓝光电影网。

    您需要 登录 才可以下载或查看,没有帐号?立即加入

    x

    辛德勒的名单/舒特拉的名单 Schindlers.List.1993.INTERNAL.2160p.UHD.BluRay.X265.10bit.HDR.TrueHD.7.1.Atmos-IAMABLE 53.95GB-1.jpg
    ◎译  名 辛德勒的名单 / 舒特拉的名单(港) / 辛德勒名单
    ◎片  名 辛德勒的名单 Schindler's List
    ◎年  代 1993
    ◎国  家 美国
    ◎类  别 剧情 / 历史 / 战争
    ◎语  言 英语 / 希伯来语 / 德语 / 波兰语
    ◎上映日期 1993-11-30(华盛顿首映) / 1994-02-04(美国)
    ◎IMDb评分  8.9/10 from 1,047,881 users
    ◎IMDb链接  http://www.imdb.com/title/tt0108052/
    ◎豆瓣评分 9.5/10 from 509820 users
    ◎豆瓣链接 https://movie.douban.com/subject/1295124/
    ◎片  长 195分钟
    ◎导  演 史蒂文·斯皮尔伯格
    ◎主  演 连姆·尼森
          本·金斯利
          拉尔夫·费因斯
          卡罗琳·古多尔
          乔纳森·萨加尔
          艾伯丝·戴维兹
          马尔戈萨·格贝尔
          马克·伊瓦涅
          碧翠斯·马科拉
          安德烈·瑟韦林
          弗里德里希·冯·图恩
          克齐斯茨托夫·拉夫特
          诺伯特·魏塞尔

    ◎简  介 

      1939年,波兰在纳粹德国的统治下,党卫军对犹太人进行了隔离统治。德国商人奥斯卡·辛德勒(连姆·尼森 Liam Neeson 饰)来到德军统治下的克拉科夫,开设了一间搪瓷厂,生产军需用品。凭着出众的社交能力和大量的金钱,辛德勒和德军建立了良好的关系,他的工厂雇用犹太人工作,大发战争财。
      1943年,克拉科夫的犹太人遭到了惨绝人寰的大屠杀,辛德勒目睹这一切,受到了极大的震撼,他贿赂军官,让自己的工厂成为集中营的附属劳役营,在那些疯狂屠杀的日子里,他的工厂也成为了犹太人的避难所。
      1944年,德国战败前夕,屠杀犹太人的行动越发疯狂,辛德勒向德军军官开出了1200人的名单,倾家荡产买下了这些犹太人的生命。在那些暗无天日的岁月里,拯救一个人,就是拯救全世界。

    ◎获奖情况 

      第66届奥斯卡金像奖 (1994)
      最佳影片 杰拉尔德·R·莫伦 /  布兰科·拉斯蒂格 /  史蒂文·斯皮尔伯格
      最佳导演 史蒂文·斯皮尔伯格
      最佳男主角(提名) 连姆·尼森
      最佳男配角(提名) 拉尔夫·费因斯
      最佳改编剧本 斯蒂文·泽里安
      最佳摄影 雅努什·卡明斯基
      最佳剪辑 迈克尔·卡恩
      最佳音响(提名) 斯科特·米兰 /  Steve Pederson /  安迪·尼尔森 /  朗·贾金斯
      最佳艺术指导 Ewa Braun /  Allan Starski
      最佳服装设计(提名) 安娜·B·薛帕德
      最佳化妆(提名) Christina Smith /  马修·W.蒙格儿 /  Judith A. Cory
      最佳原创配乐 约翰·威廉姆斯

      第47届英国电影学院奖 (1994)
      电影奖 最佳影片 史蒂文·斯皮尔伯格 /  杰拉尔德·R·莫伦 /  布兰科·拉斯蒂格
      电影奖 最佳导演 史蒂文·斯皮尔伯格
      电影奖 最佳男主角(提名) 连姆·尼森
      电影奖 最佳男配角 拉尔夫·费因斯
      电影奖 最佳男配角(提名) 本·金斯利
      电影奖 最佳改编剧本 斯蒂文·泽里安
      电影奖 最佳摄影 雅努什·卡明斯基
      电影奖 最佳剪辑 迈克尔·卡恩
      电影奖 最佳化妆/发型(提名) Waldemar Pokromski /  马修·W.蒙格儿 /  Christina Smith /  Pauline Heys
      电影奖 最佳服装设计(提名) 安娜·B·薛帕德
      电影奖 最佳艺术指导(提名) Allan Starski
      电影奖 最佳原创音乐 约翰·威廉姆斯
      电影奖 最佳音效(提名) 罗伯特·杰克逊 /  Steve Pederson /  Louis L. Edemann /  朗·贾金斯  /  查尔斯·L·坎贝尔 /  斯科特·米兰 /  安迪·尼尔森

      第18届日本电影学院奖 (1995)
      最佳外语片

      第19届报知映画赏 (1994)
      海外作品奖 史蒂文·斯皮尔伯格

    • Video
    • ID                                       : 1
    • Format                                   : HEVC
    • Format/Info                              : High Efficiency Video Coding
    • Commercial name                          : HDR10
    • Format profile                           : Main [email protected]@High
    • Codec ID                                 : V_MPEGH/ISO/HEVC
    • Duration                                 : 3 h 15 min
    • Bit rate                                 : 35.6 Mb/s
    • Width                                    : 3 840 pixels
    • Height                                   : 2 076 pixels
    • Display aspect ratio                     : 1.85:1
    • Frame rate mode                          : Constant
    • Frame rate                               : 23.976 (24000/1001) FPS
    • Color space                              : YUV
    • Chroma subsampling                       : 4:2:0 (Type 2)
    • Bit depth                                : 10 bits
    • Bits/(Pixel*Frame)                       : 0.186
    • Stream size                              : 48.5 GiB (90%)
    • Writing library                          : x265 2.9+8-27d8424c799d:[Windows][MSVC 1900][64 bit] 10bit
    • Encoding settings                        : cpuid=1176575 / frame-threads=6 / numa-pools=36 / wpp / no-pmode / no-pme / no-psnr / no-ssim / log-level=2 / input-csp=1 / input-res=3840x2076 / interlace=0 / total-frames=280705 / level-idc=51 / high-tier=1 / uhd-bd=0 / ref=4 / no-allow-non-conformance / repeat-headers / annexb / aud / hrd / info / hash=0 / no-temporal-layers / no-open-gop / min-keyint=24 / keyint=240 / gop-lookahead=0 / bframes=4 / b-adapt=2 / b-pyramid / bframe-bias=0 / rc-lookahead=25 / lookahead-slices=4 / scenecut=40 / radl=0 / no-intra-refresh / ctu=64 / min-cu-size=8 / rect / no-amp / max-tu-size=32 / tu-inter-depth=1 / tu-intra-depth=1 / limit-tu=0 / rdoq-level=2 / dynamic-rd=0.00 / no-ssim-rd / signhide / no-tskip / nr-intra=0 / nr-inter=0 / no-constrained-intra / no-strong-intra-smoothing / max-merge=3 / limit-refs=3 / limit-modes / me=3 / subme=3 / merange=57 / temporal-mvp / weightp / no-weightb / no-analyze-src-pics / deblock=-3:-3 / no-sao / no-sao-non-deblock / rd=4 / no-early-skip / rskip / no-fast-intra / no-tskip-fast / no-cu-lossless / no-b-intra / no-splitrd-skip / rdpenalty=0 / psy-rd=2.00 / psy-rdoq=1.00 / no-rd-refine / no-lossless / cbqpoffs=0 / crqpoffs=0 / rc=crf / crf=18.5 / qcomp=0.60 / qpstep=4 / stats-write=0 / stats-read=0 / vbv-maxrate=160000 / vbv-bufsize=160000 / vbv-init=0.9 / crf-max=0.0 / crf-min=0.0 / ipratio=1.40 / pbratio=1.30 / aq-mode=1 / aq-strength=1.00 / cutree / zone-count=0 / no-strict-cbr / qg-size=32 / no-rc-grain / qpmax=69 / qpmin=0 / no-const-vbv / sar=1 / overscan=0 / videoformat=5 / range=0 / colorprim=9 / transfer=16 / colormatrix=9 / chromaloc=1 / chromaloc-top=2 / chromaloc-bottom=2 / display-window=0 / master-display=G(13250,34500)B(7500,3000)R(34000,16000)WP(15635,16450)L(10000000,10) / max-cll=1000,311 / min-luma=0 / max-luma=1023 / log2-max-poc-lsb=8 / vui-timing-info / vui-hrd-info / slices=1 / no-opt-qp-pps / no-opt-ref-list-length-pps / no-multi-pass-opt-rps / scenecut-bias=0.05 / no-opt-cu-delta-qp / no-aq-motion / hdr / hdr-opt / no-dhdr10-opt / no-idr-recovery-sei / analysis-reuse-level=5 / scale-factor=0 / refine-intra=0 / refine-inter=0 / refine-mv=0 / no-limit-sao / ctu-info=0 / no-lowpass-dct / refine-mv-type=0 / copy-pic=1 / max-ausize-factor=1.0 / no-dynamic-refine / no-single-sei
    • Default                                  : Yes
    • Forced                                   : No
    • Color range                              : Limited
    • Color primaries                          : BT.2020
    • Transfer characteristics                 : PQ
    • Matrix coefficients                      : BT.2020 non-constant
    • Mastering display color primaries        : Display P3
    • Mastering display luminance              : min: 0.0010 cd/m2, max: 1000 cd/m2
    • Maximum Content Light Level              : 1000 cd/m2
    • Maximum Frame-Average Light Level        : 311 cd/m2
    • Audio #1
    • ID                                       : 2
    • Format                                   : MLP FBA 16-ch
    • Format/Info                              : Meridian Lossless Packing FBA with 16-channel presentation
    • Commercial name                          : Dolby TrueHD with Dolby Atmos
    • Codec ID                                 : A_TRUEHD
    • Duration                                 : 3 h 15 min
    • Bit rate mode                            : Variable
    • Bit rate                                 : 3 130 kb/s
    • Maximum bit rate                         : 4 629 kb/s
    • Channel(s)                               : 8 channels
    • Channel layout                           : L R C LFE Ls Rs Lb Rb
    • Sampling rate                            : 48.0 kHz
    • Frame rate                               : 1 200.000 FPS (40 SPF)
    • Compression mode                         : Lossless
    • Stream size                              : 4.27 GiB (8%)
    • Title                                    : Atmos 7.1
    • Language                                 : English
    • Default                                  : Yes
    • Forced                                   : No
    • Number of dynamic objects                : 11
    • Bed channel count                        : 1 channel
    • Bed channel configuration                : LFE
    • Audio #2
    • ID                                       : 3
    • Format                                   : AC-3
    • Format/Info                              : Audio Coding 3
    • Commercial name                          : Dolby Digital
    • Codec ID                                 : A_AC3
    • Duration                                 : 3 h 15 min
    • Bit rate mode                            : Constant
    • Bit rate                                 : 640 kb/s
    • Channel(s)                               : 6 channels
    • Channel layout                           : L R C LFE Ls Rs
    • Sampling rate                            : 48.0 kHz
    • Frame rate                               : 31.250 FPS (1536 SPF)
    • Bit depth                                : 16 bits
    • Compression mode                         : Lossy
    • Stream size                              : 893 MiB (2%)
    • Title                                    : AC3 5.1
    • Language                                 : English
    • Service kind                             : Complete Main
    • Default                                  : No
    • Forced                                   : No
    • Text #1
    • ID                                       : 4
    • Format                                   : UTF-8
    • Codec ID                                 : S_TEXT/UTF8
    • Codec ID/Info                            : UTF-8 Plain Text
    • Duration                                 : 3 h 4 min
    • Bit rate                                 : 53 b/s
    • Count of elements                        : 2176
    • Stream size                              : 72.1 KiB (0%)
    • Title                                    : Stripped SRT (not positioned)
    • Language                                 : English
    • Default                                  : No
    • Forced                                   : No
    • Text #2
    • ID                                       : 5
    • Format                                   : UTF-8
    • Codec ID                                 : S_TEXT/UTF8
    • Codec ID/Info                            : UTF-8 Plain Text
    • Duration                                 : 3 h 4 min
    • Bit rate                                 : 58 b/s
    • Count of elements                        : 2423
    • Stream size                              : 78.6 KiB (0%)
    • Title                                    : SDH SRT (not positioned)
    • Language                                 : English
    • Default                                  : No
    • Forced                                   : No
    • Text #3
    • ID                                       : 6
    • Format                                   : PGS
    • Muxing mode                              : zlib
    • Codec ID                                 : S_HDMV/PGS
    • Codec ID/Info                            : Picture based subtitle format used on BDs/HD-DVDs
    • Duration                                 : 3 h 4 min
    • Bit rate                                 : 38.6 kb/s
    • Count of elements                        : 4850
    • Stream size                              : 50.9 MiB (0%)
    • Title                                    : SDH
    • Language                                 : English
    • Default                                  : No
    • Forced                                   : No
    • Text #4
    • ID                                       : 7
    • Format                                   : PGS
    • Muxing mode                              : zlib
    • Codec ID                                 : S_HDMV/PGS
    • Codec ID/Info                            : Picture based subtitle format used on BDs/HD-DVDs
    • Duration                                 : 3 h 7 min
    • Bit rate                                 : 24.7 kb/s
    • Count of elements                        : 3254
    • Stream size                              : 33.1 MiB (0%)
    • Language                                 : French
    • Default                                  : No
    • Forced                                   : No
    • Text #5
    • ID                                       : 8
    • Format                                   : PGS
    • Muxing mode                              : zlib
    • Codec ID                                 : S_HDMV/PGS
    • Codec ID/Info                            : Picture based subtitle format used on BDs/HD-DVDs
    • Duration                                 : 3 h 7 min
    • Bit rate                                 : 22.4 kb/s
    • Count of elements                        : 3032
    • Stream size                              : 29.9 MiB (0%)
    • Language                                 : Spanish
    • Default                                  : No
    • Forced                                   : No
    • Menu
    • 00:00:00.000                             : :Chapter 01
    • 00:03:23.161                             : :Chapter 02
    • 00:10:12.153                             : :Chapter 03
    • 00:14:51.307                             : :Chapter 04
    • 00:17:28.714                             : :Chapter 05
    • 00:21:42.384                             : :Chapter 06
    • 00:23:48.010                             : :Chapter 07
    • 00:30:37.669                             : :Chapter 08
    • 00:34:23.728                             : :Chapter 09
    • 00:41:43.751                             : :Chapter 10
    • 00:44:16.737                             : :Chapter 11
    • 00:50:55.761                             : :Chapter 12
    • 00:55:09.431                             : :Chapter 13
    • 00:56:44.860                             : :Chapter 14
    • 01:13:44.754                             : :Chapter 15
    • 01:17:05.704                             : :Chapter 16
    • 01:26:02.115                             : :Chapter 17
    • 01:29:26.319                             : :Chapter 18
    • 01:32:01.182                             : :Chapter 19
    • 01:38:36.869                             : :Chapter 20
    • 01:43:19.777                             : :Chapter 21
    • 01:49:36.612                             : :Chapter 22
    • 01:55:45.981                             : :Chapter 23
    • 01:58:42.824                             : :Chapter 24
    • 02:02:59.789                             : :Chapter 25
    • 02:06:49.310                             : :Chapter 26
    • 02:10:11.637                             : :Chapter 27
    • 02:13:44.725                             : :Chapter 28
    • 02:18:21.376                             : :Chapter 29
    • 02:26:46.506                             : :Chapter 30
    • 02:34:15.621                             : :Chapter 31
    • 02:38:48.018                             : :Chapter 32
    • 02:41:15.416                             : :Chapter 33
    • 02:46:21.763                             : :Chapter 34
    • 02:48:12.332                             : :Chapter 35
    • 02:50:23.171                             : :Chapter 36
    • 02:55:28.393                             : :Chapter 37
    • 03:01:51.359                             : :Chapter 38
    • 03:05:04.552                             : :Chapter 39
    • 03:08:50.444                             : :Chapter 40

    复制代码

    辛德勒的名单/舒特拉的名单 Schindlers.List.1993.INTERNAL.2160p.UHD.BluRay.X265.10bit.HDR.TrueHD.7.1.Atmos-IAMABLE 53.95GB-2.png 辛德勒的名单/舒特拉的名单 Schindlers.List.1993.INTERNAL.2160p.UHD.BluRay.X265.10bit.HDR.TrueHD.7.1.Atmos-IAMABLE 53.95GB-3.png 辛德勒的名单/舒特拉的名单 Schindlers.List.1993.INTERNAL.2160p.UHD.BluRay.X265.10bit.HDR.TrueHD.7.1.Atmos-IAMABLE 53.95GB-4.png






    Schindlers.List.1993.INTERNAL.2160p.UHD.BluRay.X265.10bit.HDR.TrueHD.7.1.Atmos-I.torrent (135.62 KB, 下载次数: 334)
    开通VIP免费下载本站所有资源---点这里
    新手必看:资源下载、资源播放、字幕使用、等常见问题---点这里
    回复

    使用道具 举报

  • TA的每日心情

    昨天 21:32
  • 签到天数: 106 天

    [LV.6]常住居民II

    发表于 2018-12-18 22:21:58 | 显示全部楼层
    楼主发贴辛苦了,谢谢楼主分享!我觉得蓝光电影网是注册对了!
    开通VIP免费下载本站所有资源---点这里
    新手必看:资源下载、资源播放、字幕使用、等常见问题---点这里
    回复 支持 1 反对 0

    使用道具 举报

  • TA的每日心情
    开心
    5 小时前
  • 签到天数: 112 天

    [LV.6]常住居民II

    发表于 2018-12-18 22:09:27 | 显示全部楼层
    谢谢楼主太经典
    开通VIP免费下载本站所有资源---点这里
    新手必看:资源下载、资源播放、字幕使用、等常见问题---点这里
    回复 支持 反对

    使用道具 举报

  • TA的每日心情

    2019-5-6 23:50
  • 签到天数: 59 天

    [LV.5]常住居民I

    发表于 2018-12-18 22:54:18 | 显示全部楼层
    谢谢楼主的分享
    开通VIP免费下载本站所有资源---点这里
    新手必看:资源下载、资源播放、字幕使用、等常见问题---点这里
    回复 支持 反对

    使用道具 举报

  • TA的每日心情
    开心
    3 天前
  • 签到天数: 43 天

    [LV.5]常住居民I

    发表于 2018-12-19 00:56:42 | 显示全部楼层

    楼主太厉害了!楼主,电影应该很好看我觉得蓝光电影网真是个好地方!
    开通VIP免费下载本站所有资源---点这里
    新手必看:资源下载、资源播放、字幕使用、等常见问题---点这里
    回复 支持 反对

    使用道具 举报

  • TA的每日心情
    无聊
    11 小时前
  • 签到天数: 168 天

    [LV.7]常住居民III

    发表于 2018-12-19 06:51:31 | 显示全部楼层
    好好好好好好好好好好好好好好好好好好好
    开通VIP免费下载本站所有资源---点这里
    新手必看:资源下载、资源播放、字幕使用、等常见问题---点这里
    回复 支持 反对

    使用道具 举报

    该用户从未签到

    发表于 2018-12-19 07:08:06 | 显示全部楼层
    楼主发贴辛苦了,谢谢楼主分享!我觉得蓝光电影网是注册对了!
    开通VIP免费下载本站所有资源---点这里
    新手必看:资源下载、资源播放、字幕使用、等常见问题---点这里
    回复 支持 反对

    使用道具 举报

  • TA的每日心情
    开心
    昨天 12:08
  • 签到天数: 138 天

    [LV.7]常住居民III

    发表于 2018-12-19 08:31:48 | 显示全部楼层
    老经典啦,支持一下。
    开通VIP免费下载本站所有资源---点这里
    新手必看:资源下载、资源播放、字幕使用、等常见问题---点这里
    回复 支持 反对

    使用道具 举报

  • TA的每日心情

    前天 08:36
  • 签到天数: 154 天

    [LV.7]常住居民III

    发表于 2018-12-19 08:53:01 | 显示全部楼层

    楼主太厉害了!楼主,电影应该很好看我觉得蓝光电影网真是个好地方!
    开通VIP免费下载本站所有资源---点这里
    新手必看:资源下载、资源播放、字幕使用、等常见问题---点这里
    回复 支持 反对

    使用道具 举报

  • TA的每日心情
    奋斗
    2019-1-24 09:01
  • 签到天数: 64 天

    [LV.6]常住居民II

    发表于 2018-12-19 08:53:46 | 显示全部楼层
    楼主发贴辛苦了,谢谢楼主分享!我觉得蓝光电影网是注册对了!
    开通VIP免费下载本站所有资源---点这里
    新手必看:资源下载、资源播放、字幕使用、等常见问题---点这里
    回复 支持 反对

    使用道具 举报

    *滑动验证:
    懒得打字嘛,点击右侧快捷回复 【右侧内容,后台自定义】
    您需要登录后才可以回帖 登录 | 立即加入

    本版积分规则

    现在加入蓝光电影网,注册一个账号

    QQ| 手机版|小黑屋| 蓝光电影网 |网站地图

    Copyright © 20013-2018 Comsenz Inc.  Template by 蓝光电影论坛 All Rights Reserved.

    Powered by 高清电影网 X3.4
    特别声明:本站所有资源均由网上收集而来,版权归原影音公司所有,如果侵犯了你的权益,请通知我们,我们会及时删除侵权内容.

    快速回复 返回顶部 返回列表