找回密码

蓝光电影网

查看: 60|回复: 1

[喜剧片] 支持女孩们/支援女孩 Support.the.Girls.2018.1080p.BluRay.REMUX.AVC.DTS-HD.MA5.1-FGT 18.74GB

[复制链接]
  • TA的每日心情
    开心
    13 小时前
  • 签到天数: 26 天

    [LV.4]偶尔看看III

     成长值: 18160

    发表于 2018-12-6 21:37:57 | 显示全部楼层 |阅读模式

    马上注册,获取最新影视资讯,享用更多功能,让你轻松玩转蓝光电影网。

    您需要 登录 才可以下载或查看,没有帐号?立即加入

    x

    支持女孩们/支援女孩 Support.the.Girls.2018.1080p.BluRay.REMUX.AVC.DTS-HD.MA5.1-FGT 18.74GB-1.jpg
    支持女孩们/支援女孩 Support.the.Girls.2018.1080p.BluRay.REMUX.AVC.DTS-HD.MA5.1-FGT 18.74GB-2.jpg

    ◎译  名 支持女孩们 / 支援女孩
    ◎片  名 Support the Girls
    ◎年  代 2018
    ◎产  地 美国
    ◎类  别 喜剧
    ◎语  言 英语
    ◎上映日期 2018-07(卡罗维发利电影节) / 2018-08-28(美国)
    ◎IMDb评分 6.2/10 from 1653 users
    ◎IMDb链接 http://www.imdb.com/title/tt6859352
    ◎豆瓣评分 0/10 from 0 users
    ◎豆瓣链接 https://movie.douban.com/subject/27057943/
    ◎片  长 94分钟
    ◎导  演 安德鲁·布加尔斯基 Andrew Bujalski
    ◎编  剧 安德鲁·布加尔斯基 Andrew Bujalski
    ◎主  演 雷吉娜·赫尔 Regina Hall
          海莉·露·理查森 Haley Lu Richardson
          迪兰·格鲁拉 Dylan Gelula
          阿曼达·米夏卡 AJ Michalka
          Shayna McHayle
          丽亚·德拉利亚 Lea DeLaria
          詹姆斯·勒格罗 James LeGros
          珍娜·克拉默 Jana Kramer
          布鲁克琳·黛克 Brooklyn Decker
          Lawrence Varnado
          Brian Bogart
          Sean H.A. Gallagher
          佐伊·格瑞艾姆 Zoe Graham
          克雷·里福特 Clay Liford
          乔尼·马尔斯 Jonny Mars
          比尔·怀斯 Bill Wise


    ◎标  签 2018 | 美国 | 喜剧 | 女性 | ReginaHall | HaleyLuRichardson | 美国电影 | 安德鲁·布加尔斯基

    ◎简  介  

      The general manager at a highway-side ''sports bar with curves" has her incurable optimism and faith, in her girls, her customers, and herself, tested over the course of a long, strange day.

    ◎获奖情况  

      第84届纽约影评人协会奖(2018)
      最佳女主角 雷吉娜·赫尔

      第34届美国独立精神奖(2019)
      最佳女主角(提名) 雷吉娜·赫尔

      第28届哥谭独立电影奖(2018)
      最佳女演员(提名) 雷吉娜·赫尔
      最佳剧本(提名)



    • Video
    • ID                                       : 1
    • Format                                   : AVC
    • Format/Info                              : Advanced Video Codec
    • Format profile                           : [email protected]
    • Format settings                          : CABAC / 4 Ref Frames
    • Format settings, CABAC                   : Yes
    • Format settings, ReFrames                : 4 frames
    • Format settings, GOP                     : M=1, N=12
    • Codec ID                                 : V_MPEG4/ISO/AVC
    • Duration                                 : 1 h 30 min
    • Bit rate mode                            : Variable
    • Bit rate                                 : 24.9 Mb/s
    • Maximum bit rate                         : 35.0 Mb/s
    • Width                                    : 1 920 pixels
    • Height                                   : 1 080 pixels
    • Display aspect ratio                     : 16:9
    • Frame rate mode                          : Constant
    • Frame rate                               : 23.976 (24000/1001) FPS
    • Color space                              : YUV
    • Chroma subsampling                       : 4:2:0
    • Bit depth                                : 8 bits
    • Scan type                                : Progressive
    • Bits/(Pixel*Frame)                       : 0.500
    • Stream size                              : 15.7 GiB (84%)
    • Title                                    : Support.the.Girls.2018.1080p.BluRay.REMUX.AVC.DTS-HD.MA5.1-FGT
    • Language                                 : English
    • Default                                  : No
    • Forced                                   : No
    • Audio #1
    • ID                                       : 2
    • Format                                   : DTS XLL
    • Format/Info                              : Digital Theater Systems
    • Commercial name                          : DTS-HD Master Audio
    • Codec ID                                 : A_DTS
    • Duration                                 : 1 h 30 min
    • Bit rate mode                            : Variable
    • Bit rate                                 : 3 300 kb/s
    • Channel(s)                               : 6 channels
    • Channel layout                           : C L R Ls Rs LFE
    • Sampling rate                            : 48.0 kHz
    • Frame rate                               : 93.750 FPS (512 SPF)
    • Bit depth                                : 24 bits
    • Compression mode                         : Lossless
    • Stream size                              : 2.08 GiB (11%)
    • Title                                    : Support.the.Girls.2018.1080p.BluRay.REMUX.AVC.DTS-HD.MA5.1-FGT
    • Language                                 : English
    • Default                                  : Yes
    • Forced                                   : No
    • Audio #2
    • ID                                       : 3
    • Format                                   : DTS
    • Format/Info                              : Digital Theater Systems
    • Codec ID                                 : A_DTS
    • Duration                                 : 1 h 30 min
    • Bit rate mode                            : Constant
    • Bit rate                                 : 1 509 kb/s
    • Channel(s)                               : 6 channels
    • Channel layout                           : C L R Ls Rs LFE
    • Sampling rate                            : 48.0 kHz
    • Frame rate                               : 93.750 FPS (512 SPF)
    • Bit depth                                : 24 bits
    • Compression mode                         : Lossy
    • Stream size                              : 973 MiB (5%)
    • Title                                    : Support.the.Girls.2018.1080p.BluRay.REMUX.AVC.DTS-HD.MA5.1-FGT
    • Language                                 : English
    • Default                                  : No
    • Forced                                   : No
    • Text #1
    • ID                                       : 4
    • Format                                   : PGS
    • Muxing mode                              : zlib
    • Codec ID                                 : S_HDMV/PGS
    • Codec ID/Info                            : Picture based subtitle format used on BDs/HD-DVDs
    • Duration                                 : 1 h 29 min
    • Bit rate                                 : 101 kb/s
    • Count of elements                        : 3356
    • Stream size                              : 64.8 MiB (0%)
    • Title                                    : English-PGS
    • Language                                 : English
    • Default                                  : Yes
    • Forced                                   : No
    • Text #2
    • ID                                       : 5
    • Format                                   : PGS
    • Muxing mode                              : zlib
    • Codec ID                                 : S_HDMV/PGS
    • Codec ID/Info                            : Picture based subtitle format used on BDs/HD-DVDs
    • Duration                                 : 1 h 29 min
    • Bit rate                                 : 77.0 kb/s
    • Count of elements                        : 2884
    • Stream size                              : 49.4 MiB (0%)
    • Title                                    : Spanish-PGS
    • Language                                 : Spanish
    • Default                                  : No
    • Forced                                   : No
    • Menu
    • 00:00:00.000                             : en:Chapter 01
    • 00:08:21.792                             : en:Chapter 02
    • 00:14:03.801                             : en:Chapter 03
    • 00:22:42.986                             : en:Chapter 04
    • 00:30:02.926                             : en:Chapter 05
    • 00:39:14.769                             : en:Chapter 06
    • 00:46:20.235                             : en:Chapter 07
    • 00:52:40.240                             : en:Chapter 08
    • 01:01:18.800                             : en:Chapter 09
    • 01:09:00.094                             : en:Chapter 10
    • 01:15:25.771                             : en:Chapter 11
    • 01:22:51.466                             : en:Chapter 12

    复制代码

    支持女孩们/支援女孩 Support.the.Girls.2018.1080p.BluRay.REMUX.AVC.DTS-HD.MA5.1-FGT 18.74GB-3.png 支持女孩们/支援女孩 Support.the.Girls.2018.1080p.BluRay.REMUX.AVC.DTS-HD.MA5.1-FGT 18.74GB-4.png 支持女孩们/支援女孩 Support.the.Girls.2018.1080p.BluRay.REMUX.AVC.DTS-HD.MA5.1-FGT 18.74GB-5.png





    Support.the.Girls.2018.1080p.BluRay.REMUX.AVC.DTS-HD.MA5.1-FGT.torrent (94.24 KB, 下载次数: 2)
    开通VIP免费下载本站所有资源---点这里
    新手必看:资源下载、资源播放、字幕使用、等常见问题---点这里
    回复

    使用道具 举报

  • TA的每日心情
    开心
    2018-12-8 05:43
  • 签到天数: 8 天

    [LV.3]偶尔看看II

     成长值: 220

    发表于 2018-12-8 05:50:29 | 显示全部楼层

    这东西我收了!谢谢楼主!蓝光电影网真好!
    开通VIP免费下载本站所有资源---点这里
    新手必看:资源下载、资源播放、字幕使用、等常见问题---点这里
    回复 支持 反对

    使用道具 举报

    懒得打字嘛,点击右侧快捷回复 【右侧内容,后台自定义】
    您需要登录后才可以回帖 登录 | 立即加入

    本版积分规则

    现在加入蓝光电影网,注册一个账号

    QQ| 手机版|小黑屋| 蓝光电影网 |网站地图

    Copyright © 20013-2018 Comsenz Inc.  Template by 蓝光电影论坛 All Rights Reserved.

    Powered by 高清电影网 X3.4
    特别声明:本站所有资源均由网上收集而来,版权归原影音公司所有,如果侵犯了你的权益,请通知我们,我们会及时删除侵权内容.

    快速回复 返回顶部 返回列表