找回密码

蓝光电影网

查看: 42|回复: 1

[冒险片] 狼女传奇/娜提寻父记 The.Journey.Of.Natty.Gann.1985.1080p.BluRay.REMUX.AVC.DD2.0-FGT 18.45GB

[复制链接]
  • TA的每日心情
    开心
    14 小时前
  • 签到天数: 26 天

    [LV.4]偶尔看看III

     成长值: 18160

    发表于 2018-12-6 21:37:38 | 显示全部楼层 |阅读模式

    马上注册,获取最新影视资讯,享用更多功能,让你轻松玩转蓝光电影网。

    您需要 登录 才可以下载或查看,没有帐号?立即加入

    x

    狼女传奇/娜提寻父记 The.Journey.Of.Natty.Gann.1985.1080p.BluRay.REMUX.AVC.DD2.0-FGT 18.45GB-1.jpg
    狼女传奇/娜提寻父记 The.Journey.Of.Natty.Gann.1985.1080p.BluRay.REMUX.AVC.DD2.0-FGT 18.45GB-2.jpg

    ◎译  名 狼女传奇 / 娜提寻父记
    ◎片  名 The Journey of Natty Gann
    ◎年  代 1985
    ◎产  地 美国
    ◎类  别 家庭 / 冒险
    ◎语  言 英语
    ◎上映日期 1985-09-27(美国)
    ◎IMDb评分 7.1/10 from 4471 users
    ◎IMDb链接 http://www.imdb.com/title/tt0089385
    ◎豆瓣评分 7.9/10 from 101 users
    ◎豆瓣链接 https://movie.douban.com/subject/1294716/
    ◎片  长 101 分钟
    ◎导  演 Jeremy Kagan
    ◎编  剧 Jeanne Rosenberg
    ◎主  演 梅雷迪斯·萨拉格尔 Meredith Salenger
          约翰·库萨克 John Cusack
          雷·怀斯 Ray Wise
          莱妮·卡赞 Lainie Kazan
          斯加特克罗索斯 Scatman Crothers
          贝瑞·米勒 Barry Miller
          弗娜·布鲁姆 Verna Bloom
          Bruce M. Fischer
          John Finnegan


    ◎标  签 美国 | JohnCusack | 1985 | 美国电影 | 约翰·库萨克 | 温情 | 狗狗 | 电影

    ◎简  介  

      Natty Gann (played by Meredith Salenger) is a twelve year old Depression era girl whose single-parent father leaves her behind in Chicago while he goes to Washington State to look for work in the timber industry. Natty runs away from the guardian she was left with to follow Dad. She befriends and is befriended by a wolf that has been abused in dog fights, hops a freight train west, and is presumed dead when her wallet is found after the train crashes. Dad gets bitter and endangers himself in his new job. Meanwhile Natty has a series of adventures and mis- adventures in various farmhouses, police stations, hobo camps, reform schools, and boxcars.

    ◎获奖情况  

      第58届奥斯卡金像奖(1986)
      最佳服装设计(提名) 艾伯特·沃斯基



    • Video
    • ID                                       : 1
    • Format                                   : AVC
    • Format/Info                              : Advanced Video Codec
    • Format profile                           : [email protected]
    • Format settings                          : CABAC / 4 Ref Frames
    • Format settings, CABAC                   : Yes
    • Format settings, ReFrames                : 4 frames
    • Codec ID                                 : V_MPEG4/ISO/AVC
    • Duration                                 : 1 h 40 min
    • Bit rate mode                            : Variable
    • Bit rate                                 : 25.9 Mb/s
    • Maximum bit rate                         : 32.0 Mb/s
    • Width                                    : 1 920 pixels
    • Height                                   : 1 080 pixels
    • Display aspect ratio                     : 16:9
    • Frame rate mode                          : Constant
    • Frame rate                               : 23.976 (24000/1001) FPS
    • Color space                              : YUV
    • Chroma subsampling                       : 4:2:0
    • Bit depth                                : 8 bits
    • Scan type                                : Progressive
    • Bits/(Pixel*Frame)                       : 0.520
    • Stream size                              : 18.2 GiB (99%)
    • Title                                    : The.Journey.Of.Natty.Gann.1985.1080p.BluRay.REMUX.AVC.DD2.0-FGT
    • Language                                 : English
    • Default                                  : No
    • Forced                                   : No
    • Audio
    • ID                                       : 2
    • Format                                   : AC-3
    • Format/Info                              : Audio Coding 3
    • Commercial name                          : Dolby Digital
    • Codec ID                                 : A_AC3
    • Duration                                 : 1 h 41 min
    • Bit rate mode                            : Constant
    • Bit rate                                 : 320 kb/s
    • Channel(s)                               : 2 channels
    • Channel layout                           : L R
    • Sampling rate                            : 48.0 kHz
    • Frame rate                               : 31.250 FPS (1536 SPF)
    • Bit depth                                : 16 bits
    • Compression mode                         : Lossy
    • Stream size                              : 231 MiB (1%)
    • Title                                    : The.Journey.Of.Natty.Gann.1985.1080p.BluRay.REMUX.AVC.DD2.0-FGT
    • Language                                 : English
    • Service kind                             : Complete Main
    • Default                                  : Yes
    • Forced                                   : No
    • Text
    • ID                                       : 3
    • Format                                   : PGS
    • Muxing mode                              : zlib
    • Codec ID                                 : S_HDMV/PGS
    • Codec ID/Info                            : Picture based subtitle format used on BDs/HD-DVDs
    • Duration                                 : 1 h 34 min
    • Bit rate                                 : 45.6 kb/s
    • Count of elements                        : 1878
    • Stream size                              : 31.0 MiB (0%)
    • Title                                    : English-PGS
    • Language                                 : English
    • Default                                  : Yes
    • Forced                                   : No
    • Menu
    • 00:00:00.000                             : en:Chapter 01
    • 00:06:04.364                             : en:Chapter 02
    • 00:12:40.801                             : en:Chapter 03
    • 00:19:41.388                             : en:Chapter 04
    • 00:25:11.468                             : en:Chapter 05
    • 00:30:18.399                             : en:Chapter 06
    • 00:34:29.025                             : en:Chapter 07
    • 00:45:34.148                             : en:Chapter 08
    • 00:52:54.838                             : en:Chapter 09
    • 00:56:23.671                             : en:Chapter 10
    • 01:07:28.586                             : en:Chapter 11
    • 01:13:01.085                             : en:Chapter 12
    • 01:23:23.289                             : en:Chapter 13
    • 01:27:56.354                             : en:Chapter 14
    • 01:35:13.916                             : en:Chapter 15

    复制代码

    狼女传奇/娜提寻父记 The.Journey.Of.Natty.Gann.1985.1080p.BluRay.REMUX.AVC.DD2.0-FGT 18.45GB-3.png 狼女传奇/娜提寻父记 The.Journey.Of.Natty.Gann.1985.1080p.BluRay.REMUX.AVC.DD2.0-FGT 18.45GB-4.png 狼女传奇/娜提寻父记 The.Journey.Of.Natty.Gann.1985.1080p.BluRay.REMUX.AVC.DD2.0-FGT 18.45GB-5.png




    The.Journey.Of.Natty.Gann.1985.1080p.BluRay.REMUX.AVC.DD2.0-FGT.torrent (92.81 KB, 下载次数: 4)
    开通VIP免费下载本站所有资源---点这里
    新手必看:资源下载、资源播放、字幕使用、等常见问题---点这里
    回复

    使用道具 举报

  • TA的每日心情
    开心
    2 小时前
  • 签到天数: 29 天

    [LV.4]偶尔看看III

    发表于 2018-12-7 21:03:37 | 显示全部楼层
    楼主太厉害了
    [发帖际遇]: chuchan 发帖时在路边捡到 1 蓝光币,偷偷放进了口袋. 幸运榜 / 衰神榜
    开通VIP免费下载本站所有资源---点这里
    新手必看:资源下载、资源播放、字幕使用、等常见问题---点这里
    回复 支持 反对

    使用道具 举报

    懒得打字嘛,点击右侧快捷回复 【右侧内容,后台自定义】
    您需要登录后才可以回帖 登录 | 立即加入

    本版积分规则

    现在加入蓝光电影网,注册一个账号

    QQ| 手机版|小黑屋| 蓝光电影网 |网站地图

    Copyright © 20013-2018 Comsenz Inc.  Template by 蓝光电影论坛 All Rights Reserved.

    Powered by 高清电影网 X3.4
    特别声明:本站所有资源均由网上收集而来,版权归原影音公司所有,如果侵犯了你的权益,请通知我们,我们会及时删除侵权内容.

    快速回复 返回顶部 返回列表